<?xml version="1.0" standalone="no"?>
<!DOCTYPE svg PUBLIC "-//W3C//DTD SVG 1.1//EN" "http://www.w3.org/Graphics/SVG/1.1/DTD/svg11.dtd" >
<svg xmlns="http://www.w3.org/2000/svg" xmlns:xlink="http://www.w3.org/1999/xlink" version="1.1">
<metadata>
Created by Christoph Koeberlin (http://christoph.koe.berlin)
Copyright (c) 2018 Swiss Typefaces Sarl. All rights reserved.
</metadata>
<defs>
<font id="Font" horiz-adv-x="0" >
  <font-face 
    font-family="Font"
    font-weight="250"
    font-style="italic"
    font-stretch="normal"
    units-per-em="1000"
    panose-1="2 11 2 4 0 0 0 0 0 0"
    ascent="800"
    descent="-200"
    x-height="500"
    cap-height="710"
    bbox="-234 -215 1180 928"
    underline-thickness="19"
    underline-position="-99"
    slope="-12"
    unicode-range="U+000D-FB02"
  />
<missing-glyph horiz-adv-x="496" 
d="M4 19l147 691h496l-4 -19l-147 -691h-496zM325 370l281 321h-429zM25 29l288 328l-149 325zM483 28l139 653l-289 -329zM40 19h429l-147 320z" />
    <glyph glyph-name=".notdef" horiz-adv-x="496" 
d="M4 19l147 691h496l-4 -19l-147 -691h-496zM325 370l281 321h-429zM25 29l288 328l-149 325zM483 28l139 653l-289 -329zM40 19h429l-147 320z" />
    <glyph glyph-name="glyph1" 
 />
    <glyph glyph-name="uni000D" unicode="&#xd;" horiz-adv-x="286" 
 />
    <glyph glyph-name="space" unicode=" " horiz-adv-x="286" 
 />
    <glyph glyph-name="exclam" unicode="!" horiz-adv-x="234" 
d="M161 508l43 202h22l-43 -202l-78 -345h-15zM65 -4q-3 0 -6 1t-4 3l22 103h19l-22 -103q-4 -4 -9 -4z" />
    <glyph glyph-name="quotedbl" unicode="&#x22;" horiz-adv-x="380" 
d="M146 710h19v-225h-19v225zM348 710h19v-225h-19v225z" />
    <glyph glyph-name="numbersign" unicode="#" horiz-adv-x="707" 
d="M133 0l70 224h-165v19h171l73 231h-164v19h170l68 217h19l-68 -217h229l68 217h18l-68 -217h160v-19h-166l-72 -231h157v-19h-163l-70 -224h-19l70 224h-228l-70 -224h-20zM457 243l73 231h-229l-72 -231h228z" />
    <glyph glyph-name="dollar" unicode="$" horiz-adv-x="516" 
d="M192 -3q-32 6 -59.5 18t-50 29t-38.5 37.5t-25 42.5l18 9q10 -24 29 -46.5t45.5 -39t60 -26.5t72.5 -10q47 0 82.5 12t59.5 32.5t36 48t12 58.5q0 32 -8 57.5t-23 47t-37 40t-51 37.5l-90 59q-48 32 -72 68.5t-24 84.5q0 75 49.5 118.5t139.5 43.5h13q6 0 13 -1l18 81h19
l-19 -84q40 -8 77 -30.5t67 -66.5l-17 -11q-34 52 -79 72.5t-95 20.5q-36 0 -66.5 -9.5t-52.5 -27.5t-34.5 -44.5t-12.5 -60.5q0 -48 23 -80t68 -61l90 -59q61 -40 92.5 -84.5t31.5 -109.5q0 -32 -12.5 -63t-38.5 -55t-66 -38.5t-95 -14.5q-8 0 -16 0.5t-16 1.5l-18 -81h-19
z" />
    <glyph glyph-name="percent" unicode="%" horiz-adv-x="441" 
d="M431 593q0 -32 -11.5 -59t-31.5 -47.5t-47.5 -32t-59.5 -11.5q-30 0 -54 10t-40.5 27.5t-25 40t-8.5 47.5q0 31 11.5 58.5t31.5 48t47.5 32t59.5 11.5q30 0 54 -10.5t40.5 -27.5t25 -39.5t8.5 -47.5zM172 569q0 -26 9 -46t24 -34t35 -21.5t42 -7.5q27 0 50.5 10t41.5 28
t28 42t10 52q0 26 -9 46t-24.5 34t-35.5 21.5t-41 7.5q-27 0 -50.5 -10t-41.5 -28t-28 -42t-10 -52zM126 366h240l-4 -19h-240zM333 142q0 -32 -11.5 -59t-31.5 -47.5t-47.5 -32t-59.5 -11.5q-30 0 -54 10t-40.5 27.5t-25 40t-8.5 47.5q0 31 11.5 58.5t31.5 48t47.5 32
t59.5 11.5q30 0 54 -10.5t40.5 -27.5t25 -39.5t8.5 -47.5zM74 118q0 -26 9 -46t24 -34t35 -21.5t42 -7.5q27 0 50.5 10t41.5 28t28 42t10 52q0 26 -9 46t-24.5 34t-35.5 21.5t-41 7.5q-27 0 -50.5 -10t-41.5 -28t-28 -42t-10 -52z" />
    <glyph glyph-name="ampersand" unicode="&#x26;" horiz-adv-x="620" 
d="M473 212q-5 -49 -26 -89.5t-53 -69.5t-73.5 -45t-87.5 -16q-50 0 -88.5 17t-64.5 45t-40 64.5t-14 76.5q0 51 18.5 95t51 77t77.5 52t98 19q41 0 79 -14t68 -45l-104 331h335l-4 -19h-305l221 -691h-21zM46 195q0 -44 15.5 -78.5t42 -58t60 -35.5t69.5 -12q47 0 88 17
t71 47t47.5 71.5t17.5 89.5q0 43 -15.5 77.5t-42 57.5t-60 35.5t-69.5 12.5q-47 0 -87.5 -17t-71 -47t-48 -71t-17.5 -89z" />
    <glyph glyph-name="quotesingle" unicode="'" horiz-adv-x="178" 
d="M146 710h19v-225h-19v225z" />
    <glyph glyph-name="parenleft" unicode="(" horiz-adv-x="226" 
d="M87 -116q-17 66 -25 129.5t-8 117.5q0 78 10.5 147.5t35 138.5t64.5 142t100 159l17 -8q-55 -78 -94.5 -148t-64.5 -138.5t-36.5 -139t-11.5 -149.5q0 -54 8 -118.5t25 -124.5z" />
    <glyph glyph-name="parenright" unicode=")" horiz-adv-x="226" 
d="M161 718q17 -66 25 -129.5t8 -117.5q0 -78 -10.5 -147.5t-35 -138.5t-64.5 -142t-100 -159l-17 8q55 78 94.5 148t64.5 138.5t36.5 138.5t11.5 150q0 54 -8 118.5t-25 124.5z" />
    <glyph glyph-name="asterisk" unicode="*" horiz-adv-x="427" 
d="M179 443l82 113l-135 48l6 19l135 -47v134h19v-133l135 44l6 -18l-134 -44l83 -113l-17 -12l-82 113l-82 -114z" />
    <glyph glyph-name="plus" unicode="+" horiz-adv-x="590" 
d="M80 280h211v201h19v-201h210v-19h-210v-207h-19v207h-211v19z" />
    <glyph glyph-name="comma" unicode="," horiz-adv-x="182" 
d="M40 6l21 97h19l-22 -104l-83 -137h-21z" />
    <glyph glyph-name="hyphen" unicode="-" horiz-adv-x="380" 
d="M83 280h227l-4 -19h-227z" />
    <glyph glyph-name="period" unicode="." horiz-adv-x="174" 
d="M54 103h19l-22 -103h-19z" />
    <glyph glyph-name="slash" unicode="/" horiz-adv-x="337" 
d="M356 710h20l-348 -710h-21z" />
    <glyph glyph-name="zero" unicode="0" horiz-adv-x="856" 
d="M820 385q0 -75 -28 -146t-81 -126t-128.5 -88t-170.5 -33q-80 0 -141.5 27.5t-103.5 73.5t-64 106.5t-22 125.5q0 75 28 146t81 126t128.5 88t170.5 33q79 0 141 -27.5t104 -73.5t64 -106.5t22 -125.5zM101 325q0 -62 20.5 -118.5t60 -100t97.5 -69.5t133 -26
q89 0 160.5 30.5t122 82t78 119.5t27.5 142q0 62 -20.5 118.5t-60 100t-97.5 69.5t-133 26q-89 0 -160.5 -30.5t-122 -82t-78 -119.5t-27.5 -142z" />
    <glyph glyph-name="one" unicode="1" horiz-adv-x="246" 
d="M209 699l23 19l-153 -718h-19z" />
    <glyph glyph-name="two" unicode="2" horiz-adv-x="513" 
d="M369 341q-22 -6 -37 -8t-29 -2q-42 0 -75.5 14.5t-56.5 38.5t-35 56t-12 67q0 44 16 82.5t44.5 67t67 45t84.5 16.5q43 0 76 -14.5t56 -38.5t35 -56t12 -66q0 -48 -19 -90t-59 -77l-401 -357h383l-4 -19h-427zM144 507q0 -38 13.5 -67t35.5 -49t51 -30.5t59 -10.5
q40 0 75 14.5t61 40.5t41 61.5t15 76.5q0 37 -13.5 66t-35.5 49t-51 30.5t-59 10.5q-41 0 -76 -15t-60.5 -40.5t-40.5 -61t-15 -75.5z" />
    <glyph glyph-name="three" unicode="3" horiz-adv-x="498" 
d="M440 234q0 -51 -18.5 -95t-51 -77t-77.5 -51.5t-97 -18.5q-69 0 -118.5 28.5t-73.5 73.5l16 11q25 -46 73.5 -70t102.5 -24q47 0 88 16.5t71 46.5t47.5 71t17.5 89q0 43 -15.5 77.5t-42 58.5t-60 36.5t-69.5 12.5h-31l250 272h-307l4 19h346l-251 -272q49 -4 86 -22.5
t61.5 -46.5t36.5 -63t12 -72z" />
    <glyph glyph-name="four" unicode="4" horiz-adv-x="595" 
d="M432 208h-428l556 510l-105 -491h103l-4 -19h-103l-44 -208h-19zM436 227l94 439l-479 -439h385z" />
    <glyph glyph-name="five" unicode="5" horiz-adv-x="511" 
d="M456 236q0 -51 -18.5 -95.5t-51 -77.5t-77.5 -52t-97 -19q-65 0 -111.5 28t-71.5 72l17 10q25 -45 70 -68t96 -23q47 0 88 17t71 47t47.5 71.5t17.5 89.5q0 43 -15.5 77.5t-42 57.5t-60 35.5t-69.5 12.5q-37 0 -70 -10.5t-61 -30.5l-10 12l74 320h332l-4 -19h-312
l-67 -282q32 16 61 22.5t58 6.5q49 0 87.5 -17t64.5 -45t40 -64.5t14 -75.5z" />
    <glyph glyph-name="six" unicode="6" horiz-adv-x="538" 
d="M497 236q0 -51 -18.5 -95.5t-51 -77.5t-77.5 -52t-97 -19q-50 0 -88.5 17t-64.5 45t-40 64.5t-14 76.5q0 47 16 88t44 74l293 353h24l-250 -300q32 16 61 22t57 6q49 0 87.5 -17t64.5 -45t40 -64.5t14 -75.5zM66 195q0 -44 15.5 -78.5t42 -58t60 -35.5t69.5 -12
q47 0 88 17t71 47t47.5 71.5t17.5 89.5q0 43 -15.5 77.5t-42 57.5t-60 35.5t-69.5 12.5q-47 0 -87.5 -17t-71 -47t-48 -71t-17.5 -89z" />
    <glyph glyph-name="seven" unicode="7" horiz-adv-x="483" 
d="M535 691h-421l4 19h454l-528 -710h-24z" />
    <glyph glyph-name="eight" unicode="8" horiz-adv-x="557" 
d="M483 583q0 -26 -7.5 -50.5t-22 -45.5t-36 -37t-49.5 -25q67 -25 98 -77.5t31 -110.5q0 -51 -18 -95.5t-50.5 -78t-77 -52.5t-97.5 -19q-50 0 -88 16.5t-64.5 44t-40 63.5t-13.5 76q0 44 14 85t40.5 73.5t65 54.5t86.5 29q-38 21 -54.5 53t-16.5 67q0 34 12.5 64t34 52.5
t50.5 35t63 12.5t60 -11.5t44 -30t27 -43t9 -50.5zM203 556q0 -29 10 -51t27 -37t39 -22.5t45 -7.5q28 0 53.5 11t44.5 30t30 45.5t11 56.5q0 29 -10 51t-27 37t-39 22.5t-45 7.5q-29 0 -54 -11t-44 -30t-30 -45.5t-11 -56.5zM68 194q0 -44 15 -78.5t41 -57.5t60 -35t72 -12
q45 0 85 17.5t70.5 47.5t48 71t17.5 88q0 44 -15 78t-41 57.5t-60 35.5t-72 12q-45 0 -85 -17.5t-70.5 -47.5t-48 -71t-17.5 -88z" />
    <glyph glyph-name="nine" unicode="9" horiz-adv-x="538" 
d="M86 474q0 51 18.5 95.5t51 77.5t77 52t97.5 19q49 0 88 -17t65 -45t40 -64.5t14 -76.5q0 -47 -16 -88t-44 -74l-293 -353h-24l250 300q-32 -16 -61 -22t-57 -6q-49 0 -87.5 17t-64.5 45t-40 64.5t-14 75.5zM517 515q0 44 -15.5 78.5t-42 58t-60 35.5t-69.5 12
q-47 0 -88 -17t-71 -47t-47.5 -71.5t-17.5 -89.5q0 -44 15.5 -78t42 -57t60 -35.5t69.5 -12.5q46 0 87 17t71.5 47t48 71t17.5 89z" />
    <glyph glyph-name="colon" unicode=":" horiz-adv-x="170" 
d="M44 103h19l-22 -103h-19zM129 500h19l-22 -103h-19z" />
    <glyph glyph-name="semicolon" unicode=";" horiz-adv-x="215" 
d="M159 500h19l-22 -103h-19zM54 6l21 97h19l-22 -104l-83 -137h-21z" />
    <glyph glyph-name="equal" unicode="=" horiz-adv-x="590" 
d="M73 399h449v-19h-449v19zM73 161h449v-19h-449v19z" />
    <glyph glyph-name="question" unicode="?" horiz-adv-x="513" 
d="M199 320h40q51 0 96 14.5t79 41.5t53.5 65.5t19.5 87.5q0 45 -14 77t-37.5 53t-54.5 30.5t-64 9.5q-42 0 -77.5 -15t-62 -40.5t-41.5 -61t-15 -75.5h-20q0 44 16 82.5t45 67t68.5 45t86.5 16.5q90 0 140 -51.5t50 -137.5q0 -50 -20 -92t-56 -72t-85.5 -47t-108.5 -17h-44
zM191 0q-4 -4 -11 -4t-8 4l22 103h19z" />
    <glyph glyph-name="at" unicode="@" horiz-adv-x="830" 
d="M436 -8q-82 0 -147.5 26.5t-112 73.5t-71.5 112t-25 142q0 79 30 147t83.5 118t127 78.5t159.5 28.5q78 0 140.5 -22t106.5 -62.5t68 -98t24 -128.5q0 -58 -14.5 -103t-37.5 -76t-53 -47t-60 -16q-38 0 -61 17.5t-31 43.5q-25 -24 -60.5 -42.5t-85.5 -18.5
q-40 0 -70 13.5t-50 36.5t-30 53t-10 62q0 44 16.5 84.5t45 71.5t68 49.5t86.5 18.5q43 0 77.5 -17.5t55.5 -45.5l9 42h18l-52 -248q-5 -24 -1 -43t14.5 -32t26.5 -20t35 -7q27 0 53 15t46.5 43.5t33 70t12.5 94.5q0 72 -24.5 127t-67.5 92t-102.5 56t-128.5 19
q-83 0 -152 -28t-119.5 -76t-78.5 -113t-28 -139q0 -72 24 -133t68 -105.5t106 -70t139 -25.5q53 0 105 10t97 32l7 -18q-47 -21 -102.5 -31.5t-106.5 -10.5zM275 330q0 -30 9.5 -57t28 -47t45.5 -31.5t62 -11.5q44 0 80.5 20t57.5 46q-1 14 2 31l40 187q-20 34 -55.5 51.5
t-73.5 17.5q-42 0 -77.5 -16.5t-62 -44.5t-41.5 -65.5t-15 -79.5z" />
    <glyph glyph-name="A" unicode="A" horiz-adv-x="671" 
d="M533 249h-393l-168 -249h-22l485 718l179 -718h-19zM528 268l-101 405l-274 -405h375z" />
    <glyph glyph-name="B" unicode="B" horiz-adv-x="633" 
d="M212 710h192q48 0 82.5 -12.5t57 -33t33.5 -48t11 -57.5q0 -40 -13.5 -72t-36 -56t-51.5 -40t-60 -24q27 -5 51.5 -16.5t43.5 -31t30.5 -46.5t11.5 -61q0 -42 -16.5 -80.5t-51 -67.5t-87 -46.5t-124.5 -17.5h-224zM353 376q48 0 88 14.5t68 39t43.5 57t15.5 69.5
q0 28 -10 52.5t-30.5 43t-50.5 29t-69 10.5h-181l-67 -315h193zM291 19q63 0 110.5 15.5t79 41.5t47.5 61.5t16 74.5q0 31 -11.5 57.5t-34 46t-57 30.5t-79.5 11h-206l-72 -338h207z" />
    <glyph glyph-name="C" unicode="C" horiz-adv-x="686" 
d="M628 49q-45 -27 -100 -42t-118 -15q-80 0 -141.5 27.5t-103.5 73.5t-64 106.5t-22 125.5q0 75 28 146t81 126t128.5 88t170.5 33q75 0 134 -24.5t101 -66.5l-14 -14q-39 40 -94 63t-127 23q-89 0 -160.5 -30.5t-122 -82t-78 -119.5t-27.5 -142q0 -62 20.5 -118.5t60 -100
t97.5 -69.5t133 -26q60 0 112 14.5t96 40.5z" />
    <glyph glyph-name="D" unicode="D" horiz-adv-x="755" 
d="M212 710h192q76 0 136 -22.5t101.5 -61.5t63.5 -92.5t22 -115.5q0 -84 -34 -159.5t-95.5 -133t-148 -91.5t-191.5 -34h-197zM261 19q102 0 184.5 33t140.5 88.5t89.5 127.5t31.5 150q0 58 -20.5 108t-59.5 87t-95.5 57.5t-127.5 20.5h-177l-143 -672h177z" />
    <glyph glyph-name="E" unicode="E" horiz-adv-x="546" 
d="M212 710h389l-4 -19h-370l-67 -315h310l-4 -19h-310l-72 -338h370l-4 -19h-389z" />
    <glyph glyph-name="F" unicode="F" horiz-adv-x="519" 
d="M212 710h384l-4 -19h-365l-67 -315h295l-4 -19h-295l-76 -357h-19z" />
    <glyph glyph-name="G" unicode="G" horiz-adv-x="764" 
d="M663 61q-58 -36 -119 -52.5t-134 -16.5q-80 0 -141.5 27.5t-103.5 73.5t-64 106.5t-22 125.5q0 75 28 146t81 126t128.5 88t170.5 33q75 0 136.5 -24.5t103.5 -66.5l-14 -14q-39 40 -96.5 63t-129.5 23q-89 0 -160.5 -30.5t-122 -82t-78 -119.5t-27.5 -142
q0 -62 20.5 -118.5t60 -100t97.5 -69.5t133 -26q68 0 124.5 15t111.5 47l60 284h-231l13 19h242z" />
    <glyph glyph-name="H" unicode="H" horiz-adv-x="768" 
d="M212 710h19l-71 -334h502l71 334h19l-151 -710h-19l76 357h-502l-76 -357h-19z" />
    <glyph glyph-name="I" unicode="I" horiz-adv-x="247" 
d="M212 710h19l-151 -710h-19z" />
    <glyph glyph-name="J" unicode="J" horiz-adv-x="517" 
d="M399 187q-21 -100 -78.5 -147.5t-142.5 -47.5q-47 0 -82.5 14t-58 39.5t-30 61.5t1.5 80h19q-17 -78 21.5 -127t128.5 -49q85 0 134.5 46t67.5 130l111 523h19z" />
    <glyph glyph-name="K" unicode="K" horiz-adv-x="575" 
d="M156 353l462 357h28l-463 -358l345 -352h-26zM212 710h19l-151 -710h-19z" />
    <glyph glyph-name="L" unicode="L" horiz-adv-x="514" 
d="M212 710h19l-147 -691h370l-4 -19h-389z" />
    <glyph glyph-name="M" unicode="M" horiz-adv-x="882" 
d="M214 718l238 -414l416 414l-153 -718h-19l140 660l-388 -386l-226 392l-142 -666h-19z" />
    <glyph glyph-name="N" unicode="N" horiz-adv-x="794" 
d="M222 668l-142 -668h-19l153 718l403 -676l142 668h19l-153 -718z" />
    <glyph glyph-name="O" unicode="O" horiz-adv-x="852" 
d="M818 385q0 -75 -28 -146t-81 -126t-128.5 -88t-170.5 -33q-80 0 -141.5 27.5t-103.5 73.5t-64 106.5t-22 125.5q0 75 28 146t81 126t128.5 88t170.5 33q79 0 141 -27.5t104 -73.5t64 -106.5t22 -125.5zM99 325q0 -62 20.5 -118.5t60 -100t97.5 -69.5t133 -26
q89 0 160.5 30.5t122 82t78 119.5t27.5 142q0 62 -20.5 118.5t-60 100t-97.5 69.5t-133 26q-89 0 -160.5 -30.5t-122 -82t-78 -119.5t-27.5 -142z" />
    <glyph glyph-name="P" unicode="P" horiz-adv-x="564" 
d="M212 710h195q47 0 81.5 -13t56.5 -34.5t32.5 -50.5t10.5 -61q0 -43 -15.5 -82.5t-48 -70t-81.5 -48.5t-115 -18h-177l-71 -332h-19zM331 351q57 0 101.5 15.5t74.5 42.5t45.5 63.5t15.5 77.5q0 30 -9.5 55.5t-29 44.5t-50 30t-72.5 11h-180l-72 -340h176z" />
    <glyph glyph-name="Q" unicode="Q" horiz-adv-x="857" 
d="M818 385q0 -88 -37.5 -167.5t-106.5 -136.5l84 -106l-14 -11l-84 106q-50 -36 -112.5 -57t-137.5 -21q-80 0 -141.5 27.5t-103.5 73.5t-64 106.5t-22 125.5q0 75 28 146t81 126t128.5 88t170.5 33q79 0 141 -27.5t104 -73.5t64 -106.5t22 -125.5zM573 211l90 -115
q65 53 100 128.5t35 160.5q0 62 -20.5 118.5t-60 100t-97.5 69.5t-133 26q-89 0 -160.5 -30.5t-122 -82t-78 -119.5t-27.5 -142q0 -62 20.5 -118.5t60 -100t97.5 -69.5t133 -26q72 0 131.5 19.5t107.5 54.5l-90 115z" />
    <glyph glyph-name="R" unicode="R" horiz-adv-x="592" 
d="M298 352h-143l-75 -352h-19l151 710h179q46 0 81 -12t57.5 -32t34 -47.5t11.5 -58.5q0 -43 -15.5 -80.5t-47.5 -65.5t-80 -44.5t-112 -17.5l217 -352h-22zM317 371q60 0 105 14.5t74.5 40t44 60t14.5 74.5q0 57 -40.5 94t-122.5 37h-165l-68 -320h158z" />
    <glyph glyph-name="S" unicode="S" horiz-adv-x="517" 
d="M456 163q0 -32 -12.5 -63t-38.5 -55t-66 -38.5t-95 -14.5q-41 0 -77 11t-65 29t-49.5 42t-31.5 50l18 9q10 -24 29 -46.5t45.5 -39t60 -26.5t72.5 -10q47 0 82.5 12t59.5 32.5t36 48t12 58.5q0 32 -8 57.5t-23 47t-37 40t-51 37.5l-90 59q-48 32 -72 68.5t-24 84.5
q0 75 49.5 118.5t139.5 43.5q50 0 100 -22.5t88 -78.5l-17 -11q-34 52 -79 72.5t-95 20.5q-36 0 -66.5 -9.5t-52.5 -27.5t-34.5 -44.5t-12.5 -60.5q0 -48 23 -80t68 -61l90 -59q61 -40 92.5 -84.5t31.5 -109.5z" />
    <glyph glyph-name="T" unicode="T" horiz-adv-x="484" 
d="M325 691h-222l4 19h463l-4 -19h-222l-147 -691h-19z" />
    <glyph glyph-name="U" unicode="U" horiz-adv-x="727" 
d="M626 260q-28 -131 -103 -199.5t-199 -68.5q-62 0 -109 17.5t-76 51.5t-38 84t5 115l96 450h19l-96 -450q-14 -63 -5.5 -110t35.5 -77.5t69.5 -46t98.5 -15.5q112 0 184.5 61t99.5 188l96 450h19z" />
    <glyph glyph-name="V" unicode="V" horiz-adv-x="647" 
d="M109 710h19l149 -671l434 671h22l-464 -718z" />
    <glyph glyph-name="W" unicode="W" horiz-adv-x="887" 
d="M128 710h19l54 -652l341 660l61 -661l330 653h21l-364 -718l-61 660l-341 -660z" />
    <glyph glyph-name="X" unicode="X" horiz-adv-x="610" 
d="M321 372l-187 338h21l179 -324l317 324h26l-334 -341l204 -369h-21l-196 355l-347 -355h-26z" />
    <glyph glyph-name="Y" unicode="Y" horiz-adv-x="572" 
d="M288 302l-172 408h20l164 -388l329 388h24l-346 -408l-64 -302h-19z" />
    <glyph glyph-name="Z" unicode="Z" horiz-adv-x="556" 
d="M586 691h-432l4 19h471l-634 -691h488l-4 -19h-527z" />
    <glyph glyph-name="bracketleft" unicode="[" horiz-adv-x="266" 
d="M205 715h139l-4 -19h-120l-168 -792h120l-4 -19h-139z" />
    <glyph glyph-name="bracketright" unicode="]" horiz-adv-x="265" 
d="M82 -115h-139l4 19h120l168 792h-120l4 19h139z" />
    <glyph glyph-name="underscore" unicode="_" horiz-adv-x="510" 
d="M1 0h419l-4 -19h-419z" />
    <glyph glyph-name="grave" unicode="`" 
d="M74 710h19l73 -160h-19z" />
    <glyph glyph-name="a" unicode="a" horiz-adv-x="612" 
d="M465 71q-39 -38 -88.5 -58.5t-103.5 -20.5q-56 0 -98 18.5t-69.5 50t-41.5 73t-14 86.5q0 57 21.5 109t60.5 92t92 63.5t116 23.5q68 0 117.5 -27t78.5 -71l20 90h19l-106 -500h-19zM274 11q56 0 108.5 24t89.5 69l59 279q-28 51 -80 78.5t-113 27.5q-57 0 -106 -21.5
t-85 -58.5t-56.5 -86t-20.5 -104q0 -42 13 -80t38.5 -66.5t64 -45t88.5 -16.5z" />
    <glyph glyph-name="b" unicode="b" horiz-adv-x="611" 
d="M188 710h19l-60 -281q38 38 88 58.5t104 20.5q56 0 98 -19t69.5 -50.5t41.5 -72.5t14 -86q0 -57 -21.5 -109t-60.5 -92t-92 -63.5t-116 -23.5q-68 0 -118 26.5t-79 71.5l-19 -90h-19zM338 489q-56 0 -108.5 -24t-89.5 -69l-59 -279q27 -52 79 -79t114 -27q57 0 106 21.5
t85 58.5t56.5 86t20.5 104q0 42 -13 79.5t-38.5 66t-64 45.5t-88.5 17z" />
    <glyph glyph-name="c" unicode="c" horiz-adv-x="537" 
d="M473 58q-37 -31 -84 -48.5t-102 -17.5q-57 0 -101 19.5t-73.5 52t-45 75t-15.5 88.5q0 58 21 109.5t58.5 89.5t89 60t112.5 22q27 0 54 -5t52.5 -15.5t47.5 -27t38 -38.5l-15 -13q-29 40 -76.5 60t-101.5 20q-55 0 -102.5 -20t-82.5 -55t-55 -83t-20 -104
q0 -52 17.5 -92.5t47.5 -68t69 -41.5t82 -14q51 0 94.5 16.5t78.5 46.5z" />
    <glyph glyph-name="d" unicode="d" horiz-adv-x="612" 
d="M465 71q-39 -38 -88.5 -58.5t-103.5 -20.5q-56 0 -98 18.5t-69.5 50t-41.5 73t-14 86.5q0 57 21.5 109t60.5 92t92 63.5t116 23.5q68 0 118 -27t79 -72l64 301h19l-151 -710h-19zM274 11q56 0 108.5 24t89.5 69l59 278q-27 52 -79.5 79.5t-113.5 27.5q-57 0 -106 -21.5
t-85 -58.5t-56.5 -86t-20.5 -104q0 -42 13 -80t38.5 -66.5t64 -45t88.5 -16.5z" />
    <glyph glyph-name="e" unicode="e" horiz-adv-x="574" 
d="M287 11q51 0 95 16.5t79 46.5l12 -16q-37 -31 -84 -48.5t-102 -17.5q-57 0 -101 19.5t-73.5 52t-45 75t-15.5 88.5q0 58 21 109.5t58.5 89.5t89 60t112.5 22q46 0 88 -15t71 -46t42 -78t0 -110h-460q-6 -64 10.5 -110.5t47.5 -77t72 -45.5t83 -15zM332 489
q-56 0 -100.5 -19t-77 -49t-52.5 -68t-26 -76h441q7 50 -3.5 89.5t-35 66.5t-62.5 41.5t-84 14.5z" />
    <glyph glyph-name="f" unicode="f" horiz-adv-x="293" 
d="M178 481h-122l4 19h128q-21 12 -35 36.5t-14 52.5q0 27 11.5 49.5t32 38t48.5 24.5t61 9h91l-4 -18h-83q-63 0 -100 -28t-37 -76q0 -35 24.5 -61.5t71.5 -26.5h84l-4 -19h-138l-102 -481h-19z" />
    <glyph glyph-name="g" unicode="g" horiz-adv-x="610" 
d="M487 121q11 -75 -3.5 -134t-50.5 -99t-91.5 -61t-125.5 -21q-30 0 -59 5.5t-54.5 16t-46.5 25t-34 31.5l17 14q24 -32 72 -52.5t106 -20.5q74 0 125.5 22.5t82 61t41 88.5t2.5 105q-43 -45 -94 -67.5t-104 -22.5q-56 0 -97 17t-67.5 47t-39.5 69.5t-13 84.5
q0 57 20.5 107.5t58 88.5t90 60t115.5 22q67 0 115 -27t77 -71l19 90h19zM271 31q56 0 109 27t90 72l53 254q-27 51 -77.5 78t-110.5 27q-57 0 -105.5 -20t-83 -55t-54 -82.5t-19.5 -102.5q0 -42 12 -78t36.5 -63t62 -42t87.5 -15z" />
    <glyph glyph-name="h" unicode="h" horiz-adv-x="581" 
d="M188 710h19l-65 -304q33 44 81 73t113 29q48 0 84.5 -16.5t59 -46.5t30 -72t-3.5 -92l-60 -281h-19l61 285q10 47 3 85t-27.5 64.5t-53 40.5t-74.5 14q-65 0 -116 -34t-87 -91l-77 -364h-19z" />
    <glyph glyph-name="i" unicode="i" horiz-adv-x="199" 
d="M143 500h19l-106 -500h-19zM188 710q4 4 11 4t8 -4l-19 -90h-19z" />
    <glyph glyph-name="j" unicode="j" horiz-adv-x="207" 
d="M-107 -165h8q37 0 60.5 8t38 24t23 41t15.5 60l113 532h19l-116 -548q-8 -36 -19 -62t-29 -42.5t-44.5 -24t-65.5 -7.5h-7zM196 710q4 4 11 4t8 -4l-19 -90h-19z" />
    <glyph glyph-name="k" unicode="k" horiz-adv-x="466" 
d="M56 0h-19l151 710h19l-95 -447l348 237h33l-351 -239l274 -261h-28l-276 263z" />
    <glyph glyph-name="l" unicode="l" horiz-adv-x="199" 
d="M188 710h19l-151 -710h-19z" />
    <glyph glyph-name="m" unicode="m" horiz-adv-x="889" 
d="M324 508q36 0 62 -8.5t44 -24t28.5 -36.5t14.5 -46q42 59 94.5 87t105.5 28q92 0 128 -56.5t15 -156.5l-63 -295h-19l64 299q20 88 -12.5 139t-112.5 51q-51 0 -103.5 -29.5t-94.5 -95.5q0 -15 -1.5 -31.5t-5.5 -33.5l-64 -299h-19l64 299q19 88 -13 139t-112 51
q-58 0 -106.5 -32.5t-83.5 -88.5l-78 -368h-19l106 500h19l-20 -91q33 43 79 71t103 28z" />
    <glyph glyph-name="n" unicode="n" horiz-adv-x="580" 
d="M143 500h19l-20 -93q33 44 81 72.5t112 28.5q48 0 84.5 -16.5t59 -46.5t30 -72t-3.5 -92l-60 -281h-19l61 285q10 48 3 85.5t-27.5 64t-53 40.5t-74.5 14q-64 0 -115 -33t-87 -90l-77 -366h-19z" />
    <glyph glyph-name="o" unicode="o" horiz-adv-x="624" 
d="M573 273q0 -59 -21.5 -110t-59 -89t-89 -60t-111.5 -22q-57 0 -102 19.5t-75.5 52t-47 75t-16.5 88.5q0 58 21.5 109.5t59 89.5t89 60t111.5 22q57 0 102 -19.5t75.5 -52t47 -75t16.5 -88.5zM71 227q0 -51 18.5 -91t49 -68t70 -42.5t82.5 -14.5q55 0 102.5 19.5t83 54.5
t56 83t20.5 105q0 51 -18.5 91t-49 68t-70 42.5t-82.5 14.5q-55 0 -102.5 -19.5t-83 -54.5t-56 -83t-20.5 -105z" />
    <glyph glyph-name="p" unicode="p" horiz-adv-x="611" 
d="M143 500h19l-15 -71q38 38 88 58.5t104 20.5q56 0 98 -19t69.5 -50.5t41.5 -72.5t14 -86q0 -57 -21.5 -109t-60.5 -92t-92 -63.5t-116 -23.5q-68 0 -118 26.5t-79 71.5l-58 -274h-19zM338 489q-56 0 -108.5 -24.5t-89.5 -69.5l-59 -277q27 -52 79 -79.5t114 -27.5
q57 0 106 21.5t85 58.5t56.5 86t20.5 104q0 42 -13 79.5t-38.5 66t-64 45.5t-88.5 17z" />
    <glyph glyph-name="q" unicode="q" horiz-adv-x="611" 
d="M464 70q-38 -38 -87.5 -58t-103.5 -20q-56 0 -98 18.5t-69.5 50t-41.5 73t-14 86.5q0 57 21.5 109t60.5 92t92 63.5t116 23.5q67 0 117 -26.5t79 -70.5l19 89h19l-145 -684h-19zM274 11q55 0 107.5 23.5t89.5 68.5l59 281q-27 51 -79.5 78t-112.5 27q-57 0 -106 -21.5
t-85 -58.5t-56.5 -86t-20.5 -104q0 -42 13 -80t38.5 -66.5t64 -45t88.5 -16.5z" />
    <glyph glyph-name="r" unicode="r" horiz-adv-x="323" 
d="M143 500h19l-19 -91q30 42 78.5 70.5t111.5 28.5q8 0 16 -0.5t16 -1.5l-5 -20q-7 1 -15 1.5t-16 0.5q-67 0 -118 -35.5t-78 -89.5l-77 -363h-19z" />
    <glyph glyph-name="s" unicode="s" horiz-adv-x="402" 
d="M334 116q0 -26 -10.5 -48.5t-30.5 -39t-48.5 -26.5t-64.5 -10q-37 0 -65.5 9.5t-49.5 25.5t-34 35.5t-20 39.5l17 9q14 -43 53 -71.5t101 -28.5q59 0 95.5 29t36.5 73q0 22 -7 40t-19 32.5t-28 27t-35 23.5l-54 32q-37 22 -59.5 52.5t-22.5 72.5q0 48 37 81.5t102 33.5
q26 0 48.5 -7.5t39.5 -19t29.5 -26t18.5 -28.5l-17 -9q-5 11 -15 23.5t-25 23t-34.5 17.5t-44.5 7q-55 0 -87 -27t-32 -69q0 -39 21.5 -65.5t56.5 -47.5l54 -32q41 -24 67 -56t26 -76z" />
    <glyph glyph-name="t" unicode="t" horiz-adv-x="289" 
d="M56 500h116l30 140l21 10l-32 -150h139l-4 -19h-139l-73 -346q-13 -60 3.5 -88t78.5 -28h31l-4 -19h-28q-69 0 -92 30.5t-8 105.5l73 345h-112v19z" />
    <glyph glyph-name="u" unicode="u" horiz-adv-x="577" 
d="M434 92q-32 -44 -80.5 -72t-111.5 -28q-100 0 -144.5 56t-24.5 153l63 299h19l-63 -299q-10 -44 -4 -79t25.5 -60t52 -38t76.5 -13q66 0 116 33t85 90l78 366h19l-106 -500h-19z" />
    <glyph glyph-name="v" unicode="v" horiz-adv-x="511" 
d="M61 500h20l127 -466l326 466h23l-356 -508z" />
    <glyph glyph-name="w" unicode="w" horiz-adv-x="737" 
d="M485 -8l-74 461l-268 -461l-76 508h20l66 -453l269 461l73 -462l258 454h23z" />
    <glyph glyph-name="x" unicode="x" horiz-adv-x="496" 
d="M238 259l-155 241h22l147 -228l244 228h26l-260 -244l165 -256h-22l-157 244l-260 -244h-26z" />
    <glyph glyph-name="y" unicode="y" horiz-adv-x="515" 
d="M194 9l-131 491h21l124 -470l329 470h24l-480 -684h-23z" />
    <glyph glyph-name="z" unicode="z" horiz-adv-x="472" 
d="M450 481h-349l4 19h395l-488 -481h377l-4 -19h-423z" />
    <glyph glyph-name="braceleft" unicode="{" horiz-adv-x="261" 
d="M155 -115q-66 0 -90 35t-6 119l34 157q4 18 5.5 35.5t-3 31t-16 22t-33.5 8.5h-2l4 19h2q23 0 38 7.5t25 21t16 31t10 37.5l38 185q7 35 19.5 58.5t31 37.5t44.5 19.5t60 5.5h7l-4 -19h-5q-34 0 -57 -5.5t-38.5 -19t-25 -36t-16.5 -57.5l-34 -160q-9 -44 -24 -75t-50 -42
q30 -16 31.5 -45.5t-6.5 -68.5l-31 -141q-8 -38 -9 -65t8 -44t29 -25t55 -8h6l-4 -19h-9z" />
    <glyph glyph-name="bar" unicode="|" horiz-adv-x="277" 
d="M132 710h19v-894h-19v894z" />
    <glyph glyph-name="braceright" unicode="}" horiz-adv-x="260" 
d="M128 715q66 0 90 -35t6 -119l-34 -157q-4 -18 -5.5 -35.5t3 -31t16 -22t33.5 -8.5h2l-4 -19h-2q-23 0 -38 -7.5t-25 -21t-16 -31t-10 -37.5l-38 -185q-7 -35 -19.5 -58.5t-31 -37.5t-44.5 -19.5t-60 -5.5h-7l4 19h5q34 0 57 5.5t38.5 19t25 36t16.5 57.5l34 160
q9 44 24 75t50 42q-30 16 -31.5 45.5t6.5 68.5l31 141q8 38 9 65t-8 44t-29.5 25t-54.5 8h-6l4 19h9z" />
    <glyph glyph-name="uni00A0" unicode="&#xa0;" horiz-adv-x="286" 
 />
    <glyph glyph-name="exclamdown" unicode="&#xa1;" horiz-adv-x="218" 
d="M161 504q3 0 6 -1t4 -3l-22 -103h-19l22 103q4 4 9 4zM66 -4l-38 -179h-22l38 179l78 345h15z" />
    <glyph glyph-name="sterling" unicode="&#xa3;" horiz-adv-x="545" 
d="M16 19h146l70 331h-146l4 19h164q-45 20 -67.5 60t-22.5 88q0 42 15 78.5t42 63.5t64 43t81 16q41 0 73 -14t53.5 -37t33 -54t11.5 -64h-20q0 36 -13 63.5t-34 46.5t-48 29t-56 10q-38 0 -71 -14t-57.5 -38.5t-39 -57.5t-14.5 -71q0 -36 13 -63.5t34 -46t48 -28.5t56 -10
h79l-4 -19h-159l-70 -331h279l-4 -19h-444z" />
    <glyph glyph-name="yen" unicode="&#xa5;" horiz-adv-x="606" 
d="M108 173h165l23 111h-164l4 19h163l-171 407h20l164 -388l329 388h24l-345 -407h177l-4 -19h-178l-23 -111h177l-4 -19h-177l-33 -154h-19l33 154h-165z" />
    <glyph glyph-name="dieresis" unicode="&#xa8;" 
d="M213 584l22 103h19l-22 -103h-19zM-7 584l22 103h19l-22 -103h-19z" />
    <glyph glyph-name="copyright" unicode="&#xa9;" horiz-adv-x="847" 
d="M446 -7q-75 0 -140.5 28.5t-115 78t-78 115t-28.5 140.5t28.5 140.5t78 115t115 78t140.5 28.5t140.5 -28.5t115 -78t78 -115t28.5 -140.5t-28.5 -140.5t-78 -115t-115 -78t-140.5 -28.5zM447 11q71 0 133.5 27t109 73.5t73 109.5t26.5 134t-27 133.5t-73.5 109.5
t-108.5 74.5t-133 27.5t-133.5 -27.5t-109.5 -74.5t-74 -109.5t-27 -133.5t27 -134t73.5 -109.5t109 -73.5t134.5 -27zM461 184q-36 0 -67 13t-54.5 36t-36.5 54.5t-13 67.5q0 37 13 68.5t36.5 54.5t54.5 36t67 13q42 0 75.5 -16t53.5 -42l-14 -12q-19 23 -49 37.5t-66 14.5
q-32 0 -59.5 -11.5t-48 -32.5t-32 -49t-11.5 -61t11.5 -61t32 -48.5t48 -32t59.5 -11.5q36 0 66 14.5t49 37.5l14 -12q-20 -26 -53.5 -42t-75.5 -16z" />
    <glyph glyph-name="guillemotleft" unicode="&#xab;" horiz-adv-x="474" 
d="M57 251l193 212l13 -13l-183 -202l96 -203l-17 -8zM247 251l193 212l13 -13l-183 -202l96 -203l-17 -8z" />
    <glyph glyph-name="uni00AD" unicode="&#xad;" horiz-adv-x="380" 
d="M83 280h227l-4 -19h-227z" />
    <glyph glyph-name="macron" unicode="&#xaf;" 
d="M-6 680h278l-5 -19h-278z" />
    <glyph glyph-name="degree" unicode="&#xb0;" horiz-adv-x="356" 
d="M246 470q-25 0 -47.5 9.5t-39 26t-26 39t-9.5 47.5t9.5 47.5t26 39t39 26t47.5 9.5t47.5 -9.5t39 -26t26 -39t9.5 -47.5t-9.5 -47.5t-26 -39t-39 -26t-47.5 -9.5zM246 488q21 0 40 8t33.5 22.5t22.5 33.5t8 40t-8 40t-22.5 33.5t-33.5 22.5t-40 8t-40 -8t-33.5 -22.5
t-22.5 -33.5t-8 -40t8 -40t22.5 -33.5t33.5 -22.5t40 -8z" />
    <glyph glyph-name="acute" unicode="&#xb4;" 
d="M182 710h23l-141 -160h-23z" />
    <glyph glyph-name="periodcentered" unicode="&#xb7;" horiz-adv-x="170" 
d="M86 301h19l-22 -103h-19z" />
    <glyph glyph-name="cedilla" unicode="&#xb8;" 
d="M16 0h21l-110 -165h-21z" />
    <glyph glyph-name="guillemotright" unicode="&#xbb;" horiz-adv-x="472" 
d="M226 249l-193 -212l-13 13l183 202l-96 203l17 8zM416 249l-193 -212l-13 13l183 202l-96 203l17 8z" />
    <glyph glyph-name="questiondown" unicode="&#xbf;" horiz-adv-x="497" 
d="M324 508q7 0 8 -4l-22 -103h-19l22 103q4 4 11 4zM191 -189q-47 0 -83 13.5t-61 38t-38 58.5t-13 76q0 51 20 95t56.5 75.5t87 48t111.5 12.5l44 -3l-6 -19l-40 3q-53 3 -99 -11t-80.5 -42t-54 -68.5t-19.5 -90.5q0 -44 14 -75.5t38 -52t56 -30t67 -9.5q40 0 75.5 14.5
t62.5 39.5t42.5 59.5t15.5 75.5h20q0 -44 -17 -82t-46 -66t-68.5 -44t-84.5 -16z" />
    <glyph glyph-name="Agrave" unicode="&#xc0;" horiz-adv-x="671" 
d="M533 249h-393l-168 -249h-22l485 718l179 -718h-19zM528 268l-101 405l-274 -405h375zM353 913h19l79 -145h-19z" />
    <glyph glyph-name="Aacute" unicode="&#xc1;" horiz-adv-x="671" 
d="M533 249h-393l-168 -249h-22l485 718l179 -718h-19zM528 268l-101 405l-274 -405h375zM575 913h23l-140 -145h-23z" />
    <glyph glyph-name="Acircumflex" unicode="&#xc2;" horiz-adv-x="671" 
d="M533 249h-393l-168 -249h-22l485 718l179 -718h-19zM528 268l-101 405l-274 -405h375zM287 788l192 140l134 -140l-12 -12l-124 129l-180 -130z" />
    <glyph glyph-name="Atilde" unicode="&#xc3;" horiz-adv-x="671" 
d="M533 249h-393l-168 -249h-22l485 718l179 -718h-19zM528 268l-101 405l-274 -405h375zM292 803q11 45 38 67t57 22q26 0 45 -11t35.5 -24.5t32.5 -24.5t36 -11q28 0 47.5 18.5t29.5 52.5h19q-14 -48 -39.5 -68.5t-56.5 -20.5q-24 0 -42 11t-34 24.5t-33.5 24.5t-39.5 11
q-29 0 -47.5 -19t-28.5 -52h-19z" />
    <glyph glyph-name="Adieresis" unicode="&#xc4;" horiz-adv-x="671" 
d="M533 249h-393l-168 -249h-22l485 718l179 -718h-19zM528 268l-101 405l-274 -405h375zM550 788l22 103h19l-22 -103h-19zM330 788l22 103h19l-22 -103h-19z" />
    <glyph glyph-name="Aring" unicode="&#xc5;" horiz-adv-x="671" 
d="M533 249h-393l-168 -249h-22l485 718l179 -718h-19zM528 268l-101 405l-274 -405h375zM539 836q0 -33 -23.5 -56.5t-56.5 -23.5t-56.5 23.5t-23.5 56.5t23.5 56.5t56.5 23.5t56.5 -23.5t23.5 -56.5zM397 836q0 -26 18 -44.5t44 -18.5t44 18.5t18 44.5t-18 44.5t-44 18.5
t-44 -18.5t-18 -44.5z" />
    <glyph glyph-name="AE" unicode="&#xc6;" horiz-adv-x="1043" 
d="M539 249h-393l-168 -249h-22l471 697l-3 13h384l5 -19h-366l79 -315h316l5 -19h-316l84 -338h365l5 -19h-384zM534 268l-101 405l-274 -405h375z" />
    <glyph glyph-name="Ccedilla" unicode="&#xc7;" horiz-adv-x="686" 
d="M628 49q-45 -27 -100 -42t-118 -15q-80 0 -141.5 27.5t-103.5 73.5t-64 106.5t-22 125.5q0 75 28 146t81 126t128.5 88t170.5 33q75 0 134 -24.5t101 -66.5l-14 -14q-39 40 -94 63t-127 23q-89 0 -160.5 -30.5t-122 -82t-78 -119.5t-27.5 -142q0 -62 20.5 -118.5t60 -100
t97.5 -69.5t133 -26q60 0 112 14.5t96 40.5zM401 0h21l-110 -165h-21z" />
    <glyph glyph-name="Egrave" unicode="&#xc8;" horiz-adv-x="546" 
d="M212 710h389l-4 -19h-370l-67 -315h310l-4 -19h-310l-72 -338h370l-4 -19h-389zM326 913h19l79 -145h-19z" />
    <glyph glyph-name="Eacute" unicode="&#xc9;" horiz-adv-x="546" 
d="M212 710h389l-4 -19h-370l-67 -315h310l-4 -19h-310l-72 -338h370l-4 -19h-389zM548 913h23l-140 -145h-23z" />
    <glyph glyph-name="Ecircumflex" unicode="&#xca;" horiz-adv-x="546" 
d="M212 710h389l-4 -19h-370l-67 -315h310l-4 -19h-310l-72 -338h370l-4 -19h-389zM260 788l192 140l134 -140l-12 -12l-124 129l-180 -130z" />
    <glyph glyph-name="Edieresis" unicode="&#xcb;" horiz-adv-x="546" 
d="M212 710h389l-4 -19h-370l-67 -315h310l-4 -19h-310l-72 -338h370l-4 -19h-389zM523 788l22 103h19l-22 -103h-19zM303 788l22 103h19l-22 -103h-19z" />
    <glyph glyph-name="Igrave" unicode="&#xcc;" horiz-adv-x="247" 
d="M212 710h19l-151 -710h-19zM141 913h19l79 -145h-19z" />
    <glyph glyph-name="Iacute" unicode="&#xcd;" horiz-adv-x="247" 
d="M212 710h19l-151 -710h-19zM363 913h23l-140 -145h-23z" />
    <glyph glyph-name="Icircumflex" unicode="&#xce;" horiz-adv-x="247" 
d="M212 710h19l-151 -710h-19zM75 788l192 140l134 -140l-12 -12l-124 129l-180 -130z" />
    <glyph glyph-name="Idieresis" unicode="&#xcf;" horiz-adv-x="247" 
d="M212 710h19l-151 -710h-19zM338 788l22 103h19l-22 -103h-19zM118 788l22 103h19l-22 -103h-19z" />
    <glyph glyph-name="Eth" unicode="&#xd0;" horiz-adv-x="765" 
d="M222 710h192q76 0 136 -22.5t101.5 -61.5t63.5 -92.5t22 -115.5q0 -84 -34 -159.5t-95.5 -133t-148 -91.5t-191.5 -34h-197zM271 19q102 0 184.5 33t140.5 88.5t89.5 127.5t31.5 150q0 58 -20.5 108t-59.5 87t-95.5 57.5t-127.5 20.5h-177l-143 -672h177zM32 376h332
l-4 -19h-332z" />
    <glyph glyph-name="Ntilde" unicode="&#xd1;" horiz-adv-x="794" 
d="M222 668l-142 -668h-19l153 718l403 -676l142 668h19l-153 -718zM345 803q11 45 38 67t57 22q26 0 45 -11t35.5 -24.5t32.5 -24.5t36 -11q28 0 47.5 18.5t29.5 52.5h19q-14 -48 -39.5 -68.5t-56.5 -20.5q-24 0 -42 11t-34 24.5t-33.5 24.5t-39.5 11q-29 0 -47.5 -19
t-28.5 -52h-19z" />
    <glyph glyph-name="Ograve" unicode="&#xd2;" horiz-adv-x="852" 
d="M818 385q0 -75 -28 -146t-81 -126t-128.5 -88t-170.5 -33q-80 0 -141.5 27.5t-103.5 73.5t-64 106.5t-22 125.5q0 75 28 146t81 126t128.5 88t170.5 33q79 0 141 -27.5t104 -73.5t64 -106.5t22 -125.5zM99 325q0 -62 20.5 -118.5t60 -100t97.5 -69.5t133 -26
q89 0 160.5 30.5t122 82t78 119.5t27.5 142q0 62 -20.5 118.5t-60 100t-97.5 69.5t-133 26q-89 0 -160.5 -30.5t-122 -82t-78 -119.5t-27.5 -142zM407 913h19l79 -145h-19z" />
    <glyph glyph-name="Oacute" unicode="&#xd3;" horiz-adv-x="852" 
d="M818 385q0 -75 -28 -146t-81 -126t-128.5 -88t-170.5 -33q-80 0 -141.5 27.5t-103.5 73.5t-64 106.5t-22 125.5q0 75 28 146t81 126t128.5 88t170.5 33q79 0 141 -27.5t104 -73.5t64 -106.5t22 -125.5zM99 325q0 -62 20.5 -118.5t60 -100t97.5 -69.5t133 -26
q89 0 160.5 30.5t122 82t78 119.5t27.5 142q0 62 -20.5 118.5t-60 100t-97.5 69.5t-133 26q-89 0 -160.5 -30.5t-122 -82t-78 -119.5t-27.5 -142zM629 913h23l-140 -145h-23z" />
    <glyph glyph-name="Ocircumflex" unicode="&#xd4;" horiz-adv-x="852" 
d="M818 385q0 -75 -28 -146t-81 -126t-128.5 -88t-170.5 -33q-80 0 -141.5 27.5t-103.5 73.5t-64 106.5t-22 125.5q0 75 28 146t81 126t128.5 88t170.5 33q79 0 141 -27.5t104 -73.5t64 -106.5t22 -125.5zM99 325q0 -62 20.5 -118.5t60 -100t97.5 -69.5t133 -26
q89 0 160.5 30.5t122 82t78 119.5t27.5 142q0 62 -20.5 118.5t-60 100t-97.5 69.5t-133 26q-89 0 -160.5 -30.5t-122 -82t-78 -119.5t-27.5 -142zM341 788l192 140l134 -140l-12 -12l-124 129l-180 -130z" />
    <glyph glyph-name="Otilde" unicode="&#xd5;" horiz-adv-x="852" 
d="M818 385q0 -75 -28 -146t-81 -126t-128.5 -88t-170.5 -33q-80 0 -141.5 27.5t-103.5 73.5t-64 106.5t-22 125.5q0 75 28 146t81 126t128.5 88t170.5 33q79 0 141 -27.5t104 -73.5t64 -106.5t22 -125.5zM99 325q0 -62 20.5 -118.5t60 -100t97.5 -69.5t133 -26
q89 0 160.5 30.5t122 82t78 119.5t27.5 142q0 62 -20.5 118.5t-60 100t-97.5 69.5t-133 26q-89 0 -160.5 -30.5t-122 -82t-78 -119.5t-27.5 -142zM346 803q11 45 38 67t57 22q26 0 45 -11t35.5 -24.5t32.5 -24.5t36 -11q28 0 47.5 18.5t29.5 52.5h19q-14 -48 -39.5 -68.5
t-56.5 -20.5q-24 0 -42 11t-34 24.5t-33.5 24.5t-39.5 11q-29 0 -47.5 -19t-28.5 -52h-19z" />
    <glyph glyph-name="Odieresis" unicode="&#xd6;" horiz-adv-x="852" 
d="M818 385q0 -75 -28 -146t-81 -126t-128.5 -88t-170.5 -33q-80 0 -141.5 27.5t-103.5 73.5t-64 106.5t-22 125.5q0 75 28 146t81 126t128.5 88t170.5 33q79 0 141 -27.5t104 -73.5t64 -106.5t22 -125.5zM99 325q0 -62 20.5 -118.5t60 -100t97.5 -69.5t133 -26
q89 0 160.5 30.5t122 82t78 119.5t27.5 142q0 62 -20.5 118.5t-60 100t-97.5 69.5t-133 26q-89 0 -160.5 -30.5t-122 -82t-78 -119.5t-27.5 -142zM604 788l22 103h19l-22 -103h-19zM384 788l22 103h19l-22 -103h-19z" />
    <glyph glyph-name="multiply" unicode="&#xd7;" horiz-adv-x="590" 
d="M136 125l146 146l-149 149l14 14l149 -149l142 142l13 -14l-141 -141l148 -149l-14 -14l-148 149l-147 -147z" />
    <glyph glyph-name="Oslash" unicode="&#xd8;" horiz-adv-x="852" 
d="M134 -57l-14 12l82 103q-20 16 -37 35q-42 46 -64 106.5t-22 125.5q0 75 28 146t81 126t128.5 88t170.5 33q79 0 141 -28q27 -12 51 -28l83 105l14 -12l-82 -104q21 -15 38 -34q42 -46 64 -106.5t22 -125.5q0 -75 -28 -146t-81 -126t-128.5 -88t-170.5 -33q-80 0 -142 27
q-27 13 -51 28zM277 37q58 -26 133 -26q89 0 160.5 30.5t122 82t78 119.5t27.5 142q0 62 -20.5 118.5t-60.5 99.5q-16 18 -35 33l-453 -573q22 -15 48 -26zM99 325q0 -62 20.5 -118.5t59.5 -100.5q16 -17 35 -32l453 573q-22 14 -47 26q-58 26 -133 26q-89 0 -160.5 -30.5
t-122 -82t-78 -119.5t-27.5 -142z" />
    <glyph glyph-name="Ugrave" unicode="&#xd9;" horiz-adv-x="727" 
d="M626 260q-28 -131 -103 -199.5t-199 -68.5q-62 0 -109 17.5t-76 51.5t-38 84t5 115l96 450h19l-96 -450q-14 -63 -5.5 -110t35.5 -77.5t69.5 -46t98.5 -15.5q112 0 184.5 61t99.5 188l96 450h19zM377 913h19l79 -145h-19z" />
    <glyph glyph-name="Uacute" unicode="&#xda;" horiz-adv-x="727" 
d="M626 260q-28 -131 -103 -199.5t-199 -68.5q-62 0 -109 17.5t-76 51.5t-38 84t5 115l96 450h19l-96 -450q-14 -63 -5.5 -110t35.5 -77.5t69.5 -46t98.5 -15.5q112 0 184.5 61t99.5 188l96 450h19zM599 913h23l-140 -145h-23z" />
    <glyph glyph-name="Ucircumflex" unicode="&#xdb;" horiz-adv-x="727" 
d="M626 260q-28 -131 -103 -199.5t-199 -68.5q-62 0 -109 17.5t-76 51.5t-38 84t5 115l96 450h19l-96 -450q-14 -63 -5.5 -110t35.5 -77.5t69.5 -46t98.5 -15.5q112 0 184.5 61t99.5 188l96 450h19zM311 788l192 140l134 -140l-12 -12l-124 129l-180 -130z" />
    <glyph glyph-name="Udieresis" unicode="&#xdc;" horiz-adv-x="727" 
d="M626 260q-28 -131 -103 -199.5t-199 -68.5q-62 0 -109 17.5t-76 51.5t-38 84t5 115l96 450h19l-96 -450q-14 -63 -5.5 -110t35.5 -77.5t69.5 -46t98.5 -15.5q112 0 184.5 61t99.5 188l96 450h19zM574 788l22 103h19l-22 -103h-19zM354 788l22 103h19l-22 -103h-19z" />
    <glyph glyph-name="Yacute" unicode="&#xdd;" horiz-adv-x="572" 
d="M288 302l-172 408h20l164 -388l329 388h24l-346 -408l-64 -302h-19zM522 913h23l-140 -145h-23z" />
    <glyph glyph-name="Thorn" unicode="&#xde;" horiz-adv-x="575" 
d="M212 710h19l-34 -158h176q47 0 81.5 -13t56.5 -34.5t32.5 -50.5t10.5 -61q0 -43 -15.5 -82.5t-48 -70t-81.5 -48.5t-115 -18h-177l-37 -174h-19zM297 193q57 0 101.5 15.5t74.5 42.5t45.5 63.5t15.5 77.5q0 30 -9.5 55.5t-29 44.5t-50 30t-72.5 11h-180l-72 -340h176z
" />
    <glyph glyph-name="germandbls" unicode="&#xdf;" horiz-adv-x="524" 
d="M162 -165q58 0 107.5 15.5t85.5 45t56.5 71t20.5 94.5q0 45 -15.5 81t-41 61t-58 38.5t-66.5 13.5l4 18l199 208h-295l-103 -481h-19l122 574q16 73 52.5 104.5t105.5 31.5h28l-4 -19h-21q-36 0 -60 -7.5t-40.5 -23.5t-27 -41t-17.5 -61l-12 -58h334l-219 -229
q33 -3 64.5 -19.5t56 -43.5t39 -64t14.5 -80q0 -60 -22.5 -106.5t-62.5 -78t-93.5 -47.5t-115.5 -16z" />
    <glyph glyph-name="agrave" unicode="&#xe0;" horiz-adv-x="612" 
d="M465 71q-39 -38 -88.5 -58.5t-103.5 -20.5q-56 0 -98 18.5t-69.5 50t-41.5 73t-14 86.5q0 57 21.5 109t60.5 92t92 63.5t116 23.5q68 0 117.5 -27t78.5 -71l20 90h19l-106 -500h-19zM274 11q56 0 108.5 24t89.5 69l59 279q-28 51 -80 78.5t-113 27.5q-57 0 -106 -21.5
t-85 -58.5t-56.5 -86t-20.5 -104q0 -42 13 -80t38.5 -66.5t64 -45t88.5 -16.5zM276 710h19l73 -160h-19z" />
    <glyph glyph-name="aacute" unicode="&#xe1;" horiz-adv-x="612" 
d="M465 71q-39 -38 -88.5 -58.5t-103.5 -20.5q-56 0 -98 18.5t-69.5 50t-41.5 73t-14 86.5q0 57 21.5 109t60.5 92t92 63.5t116 23.5q68 0 117.5 -27t78.5 -71l20 90h19l-106 -500h-19zM274 11q56 0 108.5 24t89.5 69l59 279q-28 51 -80 78.5t-113 27.5q-57 0 -106 -21.5
t-85 -58.5t-56.5 -86t-20.5 -104q0 -42 13 -80t38.5 -66.5t64 -45t88.5 -16.5zM492 710h23l-141 -160h-23z" />
    <glyph glyph-name="acircumflex" unicode="&#xe2;" horiz-adv-x="612" 
d="M465 71q-39 -38 -88.5 -58.5t-103.5 -20.5q-56 0 -98 18.5t-69.5 50t-41.5 73t-14 86.5q0 57 21.5 109t60.5 92t92 63.5t116 23.5q68 0 117.5 -27t78.5 -71l20 90h19l-106 -500h-19zM274 11q56 0 108.5 24t89.5 69l59 279q-28 51 -80 78.5t-113 27.5q-57 0 -106 -21.5
t-85 -58.5t-56.5 -86t-20.5 -104q0 -42 13 -80t38.5 -66.5t64 -45t88.5 -16.5zM217 579l191 139l133 -139l-13 -13l-123 128l-177 -129z" />
    <glyph glyph-name="atilde" unicode="&#xe3;" horiz-adv-x="612" 
d="M465 71q-39 -38 -88.5 -58.5t-103.5 -20.5q-56 0 -98 18.5t-69.5 50t-41.5 73t-14 86.5q0 57 21.5 109t60.5 92t92 63.5t116 23.5q68 0 117.5 -27t78.5 -71l20 90h19l-106 -500h-19zM274 11q56 0 108.5 24t89.5 69l59 279q-28 51 -80 78.5t-113 27.5q-57 0 -106 -21.5
t-85 -58.5t-56.5 -86t-20.5 -104q0 -42 13 -80t38.5 -66.5t64 -45t88.5 -16.5zM206 582q11 45 38 67t57 22q26 0 45 -11t35.5 -24.5t32.5 -24.5t36 -11q28 0 47.5 18.5t29.5 52.5h19q-14 -48 -39.5 -68.5t-56.5 -20.5q-24 0 -42 11t-34 24.5t-33.5 24.5t-39.5 11
q-29 0 -47.5 -19t-28.5 -52h-19z" />
    <glyph glyph-name="adieresis" unicode="&#xe4;" horiz-adv-x="612" 
d="M465 71q-39 -38 -88.5 -58.5t-103.5 -20.5q-56 0 -98 18.5t-69.5 50t-41.5 73t-14 86.5q0 57 21.5 109t60.5 92t92 63.5t116 23.5q68 0 117.5 -27t78.5 -71l20 90h19l-106 -500h-19zM274 11q56 0 108.5 24t89.5 69l59 279q-28 51 -80 78.5t-113 27.5q-57 0 -106 -21.5
t-85 -58.5t-56.5 -86t-20.5 -104q0 -42 13 -80t38.5 -66.5t64 -45t88.5 -16.5zM468 584l22 103h19l-22 -103h-19zM248 584l22 103h19l-22 -103h-19z" />
    <glyph glyph-name="aring" unicode="&#xe5;" horiz-adv-x="612" 
d="M465 71q-39 -38 -88.5 -58.5t-103.5 -20.5q-56 0 -98 18.5t-69.5 50t-41.5 73t-14 86.5q0 57 21.5 109t60.5 92t92 63.5t116 23.5q68 0 117.5 -27t78.5 -71l20 90h19l-106 -500h-19zM274 11q56 0 108.5 24t89.5 69l59 279q-28 51 -80 78.5t-113 27.5q-57 0 -106 -21.5
t-85 -58.5t-56.5 -86t-20.5 -104q0 -42 13 -80t38.5 -66.5t64 -45t88.5 -16.5zM465 671q0 -33 -23.5 -56.5t-56.5 -23.5t-56.5 23.5t-23.5 56.5t23.5 56.5t56.5 23.5t56.5 -23.5t23.5 -56.5zM323 671q0 -26 18 -44.5t44 -18.5t44 18.5t18 44.5t-18 44.5t-44 18.5t-44 -18.5
t-18 -44.5z" />
    <glyph glyph-name="ae" unicode="&#xe6;" horiz-adv-x="970" 
d="M869 58q-37 -31 -84 -48.5t-102 -17.5q-76 0 -133 36t-84 103q-51 -63 -119 -101t-148 -38q-39 0 -71.5 10.5t-56 29.5t-37 44t-13.5 54q0 38 16.5 71.5t47 58.5t73 39.5t94.5 14.5q60 0 109 -18t84 -50l16 75q18 86 -24 127t-125 41q-57 0 -107 -20.5t-85 -51.5l-10 17
q38 30 89.5 52t116.5 22q31 0 61.5 -7t54.5 -23t38.5 -42.5t14.5 -64.5q41 68 105.5 102.5t138.5 34.5q46 0 88 -15t71 -46t42 -78t0 -110h-460q-1 -8 -1.5 -16.5t-0.5 -17.5q0 -44 15 -83t42.5 -68t67.5 -46t90 -17q51 0 95 16.5t79 46.5zM728 489q-48 0 -90.5 -15.5
t-76.5 -43t-57 -66.5t-31 -87h440q8 49 -2.5 88.5t-35.5 67t-63 42t-84 14.5zM198 11q73 0 140.5 37.5t120.5 102.5q-10 32 -11 63q-35 41 -87 61t-112 20q-45 0 -83 -13.5t-65.5 -35.5t-43 -51.5t-15.5 -60.5q0 -26 11 -48t31.5 -39t49 -26.5t64.5 -9.5z" />
    <glyph glyph-name="ccedilla" unicode="&#xe7;" horiz-adv-x="537" 
d="M473 58q-37 -31 -84 -48.5t-102 -17.5q-57 0 -101 19.5t-73.5 52t-45 75t-15.5 88.5q0 58 21 109.5t58.5 89.5t89 60t112.5 22q27 0 54 -5t52.5 -15.5t47.5 -27t38 -38.5l-15 -13q-29 40 -76.5 60t-101.5 20q-55 0 -102.5 -20t-82.5 -55t-55 -83t-20 -104
q0 -52 17.5 -92.5t47.5 -68t69 -41.5t82 -14q51 0 94.5 16.5t78.5 46.5zM288 0h21l-110 -165h-21z" />
    <glyph glyph-name="egrave" unicode="&#xe8;" horiz-adv-x="574" 
d="M287 11q51 0 95 16.5t79 46.5l12 -16q-37 -31 -84 -48.5t-102 -17.5q-57 0 -101 19.5t-73.5 52t-45 75t-15.5 88.5q0 58 21 109.5t58.5 89.5t89 60t112.5 22q46 0 88 -15t71 -46t42 -78t0 -110h-460q-6 -64 10.5 -110.5t47.5 -77t72 -45.5t83 -15zM332 489
q-56 0 -100.5 -19t-77 -49t-52.5 -68t-26 -76h441q7 50 -3.5 89.5t-35 66.5t-62.5 41.5t-84 14.5zM260 710h19l73 -160h-19z" />
    <glyph glyph-name="eacute" unicode="&#xe9;" horiz-adv-x="574" 
d="M287 11q51 0 95 16.5t79 46.5l12 -16q-37 -31 -84 -48.5t-102 -17.5q-57 0 -101 19.5t-73.5 52t-45 75t-15.5 88.5q0 58 21 109.5t58.5 89.5t89 60t112.5 22q46 0 88 -15t71 -46t42 -78t0 -110h-460q-6 -64 10.5 -110.5t47.5 -77t72 -45.5t83 -15zM332 489
q-56 0 -100.5 -19t-77 -49t-52.5 -68t-26 -76h441q7 50 -3.5 89.5t-35 66.5t-62.5 41.5t-84 14.5zM476 710h23l-141 -160h-23z" />
    <glyph glyph-name="ecircumflex" unicode="&#xea;" horiz-adv-x="574" 
d="M287 11q51 0 95 16.5t79 46.5l12 -16q-37 -31 -84 -48.5t-102 -17.5q-57 0 -101 19.5t-73.5 52t-45 75t-15.5 88.5q0 58 21 109.5t58.5 89.5t89 60t112.5 22q46 0 88 -15t71 -46t42 -78t0 -110h-460q-6 -64 10.5 -110.5t47.5 -77t72 -45.5t83 -15zM332 489
q-56 0 -100.5 -19t-77 -49t-52.5 -68t-26 -76h441q7 50 -3.5 89.5t-35 66.5t-62.5 41.5t-84 14.5zM201 579l191 139l133 -139l-13 -13l-123 128l-177 -129z" />
    <glyph glyph-name="edieresis" unicode="&#xeb;" horiz-adv-x="574" 
d="M287 11q51 0 95 16.5t79 46.5l12 -16q-37 -31 -84 -48.5t-102 -17.5q-57 0 -101 19.5t-73.5 52t-45 75t-15.5 88.5q0 58 21 109.5t58.5 89.5t89 60t112.5 22q46 0 88 -15t71 -46t42 -78t0 -110h-460q-6 -64 10.5 -110.5t47.5 -77t72 -45.5t83 -15zM332 489
q-56 0 -100.5 -19t-77 -49t-52.5 -68t-26 -76h441q7 50 -3.5 89.5t-35 66.5t-62.5 41.5t-84 14.5zM452 584l22 103h19l-22 -103h-19zM232 584l22 103h19l-22 -103h-19z" />
    <glyph glyph-name="igrave" unicode="&#xec;" horiz-adv-x="199" 
d="M143 500h19l-106 -500h-19zM79 710h19l73 -160h-19z" />
    <glyph glyph-name="iacute" unicode="&#xed;" horiz-adv-x="199" 
d="M143 500h19l-106 -500h-19zM295 710h23l-141 -160h-23z" />
    <glyph glyph-name="icircumflex" unicode="&#xee;" horiz-adv-x="199" 
d="M143 500h19l-106 -500h-19zM20 579l191 139l133 -139l-13 -13l-123 128l-177 -129z" />
    <glyph glyph-name="idieresis" unicode="&#xef;" horiz-adv-x="199" 
d="M143 500h19l-106 -500h-19zM81 584l22 103h19l-22 -103h-19zM241 584l22 103h19l-22 -103h-19z" />
    <glyph glyph-name="eth" unicode="&#xf0;" horiz-adv-x="625" 
d="M291 610h123l-51 100h21l50 -100h145l-4 -19h-131l77 -154q15 -30 25 -51.5t16 -40t8.5 -35.5t2.5 -37q0 -59 -21.5 -110t-59 -89t-89 -60t-111.5 -22q-57 0 -102 19.5t-75.5 52t-47 75t-16.5 88.5q0 58 21.5 109.5t59 89.5t89 60t111.5 22q44 0 84.5 -12.5t76.5 -42.5
l-70 138h-136zM71 227q0 -51 18.5 -91t49 -68t70 -42.5t82.5 -14.5q55 0 102.5 19.5t83 54.5t56 83t20.5 105q0 51 -18.5 91t-49 68t-70 42.5t-82.5 14.5q-55 0 -102.5 -19.5t-83 -54.5t-56 -83t-20.5 -105z" />
    <glyph glyph-name="ntilde" unicode="&#xf1;" horiz-adv-x="580" 
d="M143 500h19l-20 -93q33 44 81 72.5t112 28.5q48 0 84.5 -16.5t59 -46.5t30 -72t-3.5 -92l-60 -281h-19l61 285q10 48 3 85.5t-27.5 64t-53 40.5t-74.5 14q-64 0 -115 -33t-87 -90l-77 -366h-19zM192 582q11 45 38 67t57 22q26 0 45 -11t35.5 -24.5t32.5 -24.5t36 -11
q28 0 47.5 18.5t29.5 52.5h19q-14 -48 -39.5 -68.5t-56.5 -20.5q-24 0 -42 11t-34 24.5t-33.5 24.5t-39.5 11q-29 0 -47.5 -19t-28.5 -52h-19z" />
    <glyph glyph-name="ograve" unicode="&#xf2;" horiz-adv-x="624" 
d="M573 273q0 -59 -21.5 -110t-59 -89t-89 -60t-111.5 -22q-57 0 -102 19.5t-75.5 52t-47 75t-16.5 88.5q0 58 21.5 109.5t59 89.5t89 60t111.5 22q57 0 102 -19.5t75.5 -52t47 -75t16.5 -88.5zM71 227q0 -51 18.5 -91t49 -68t70 -42.5t82.5 -14.5q55 0 102.5 19.5t83 54.5
t56 83t20.5 105q0 51 -18.5 91t-49 68t-70 42.5t-82.5 14.5q-55 0 -102.5 -19.5t-83 -54.5t-56 -83t-20.5 -105zM259 710h19l73 -160h-19z" />
    <glyph glyph-name="oacute" unicode="&#xf3;" horiz-adv-x="624" 
d="M573 273q0 -59 -21.5 -110t-59 -89t-89 -60t-111.5 -22q-57 0 -102 19.5t-75.5 52t-47 75t-16.5 88.5q0 58 21.5 109.5t59 89.5t89 60t111.5 22q57 0 102 -19.5t75.5 -52t47 -75t16.5 -88.5zM71 227q0 -51 18.5 -91t49 -68t70 -42.5t82.5 -14.5q55 0 102.5 19.5t83 54.5
t56 83t20.5 105q0 51 -18.5 91t-49 68t-70 42.5t-82.5 14.5q-55 0 -102.5 -19.5t-83 -54.5t-56 -83t-20.5 -105zM475 710h23l-141 -160h-23z" />
    <glyph glyph-name="ocircumflex" unicode="&#xf4;" horiz-adv-x="624" 
d="M573 273q0 -59 -21.5 -110t-59 -89t-89 -60t-111.5 -22q-57 0 -102 19.5t-75.5 52t-47 75t-16.5 88.5q0 58 21.5 109.5t59 89.5t89 60t111.5 22q57 0 102 -19.5t75.5 -52t47 -75t16.5 -88.5zM71 227q0 -51 18.5 -91t49 -68t70 -42.5t82.5 -14.5q55 0 102.5 19.5t83 54.5
t56 83t20.5 105q0 51 -18.5 91t-49 68t-70 42.5t-82.5 14.5q-55 0 -102.5 -19.5t-83 -54.5t-56 -83t-20.5 -105zM200 579l191 139l133 -139l-13 -13l-123 128l-177 -129z" />
    <glyph glyph-name="otilde" unicode="&#xf5;" horiz-adv-x="624" 
d="M573 273q0 -59 -21.5 -110t-59 -89t-89 -60t-111.5 -22q-57 0 -102 19.5t-75.5 52t-47 75t-16.5 88.5q0 58 21.5 109.5t59 89.5t89 60t111.5 22q57 0 102 -19.5t75.5 -52t47 -75t16.5 -88.5zM71 227q0 -51 18.5 -91t49 -68t70 -42.5t82.5 -14.5q55 0 102.5 19.5t83 54.5
t56 83t20.5 105q0 51 -18.5 91t-49 68t-70 42.5t-82.5 14.5q-55 0 -102.5 -19.5t-83 -54.5t-56 -83t-20.5 -105zM189 582q11 45 38 67t57 22q26 0 45 -11t35.5 -24.5t32.5 -24.5t36 -11q28 0 47.5 18.5t29.5 52.5h19q-14 -48 -39.5 -68.5t-56.5 -20.5q-24 0 -42 11t-34 24.5
t-33.5 24.5t-39.5 11q-29 0 -47.5 -19t-28.5 -52h-19z" />
    <glyph glyph-name="odieresis" unicode="&#xf6;" horiz-adv-x="624" 
d="M573 273q0 -59 -21.5 -110t-59 -89t-89 -60t-111.5 -22q-57 0 -102 19.5t-75.5 52t-47 75t-16.5 88.5q0 58 21.5 109.5t59 89.5t89 60t111.5 22q57 0 102 -19.5t75.5 -52t47 -75t16.5 -88.5zM71 227q0 -51 18.5 -91t49 -68t70 -42.5t82.5 -14.5q55 0 102.5 19.5t83 54.5
t56 83t20.5 105q0 51 -18.5 91t-49 68t-70 42.5t-82.5 14.5q-55 0 -102.5 -19.5t-83 -54.5t-56 -83t-20.5 -105zM451 584l22 103h19l-22 -103h-19zM231 584l22 103h19l-22 -103h-19z" />
    <glyph glyph-name="divide" unicode="&#xf7;" horiz-adv-x="590" 
d="M289 460h19v-103h-19v103zM79 280h440v-19h-440v19zM289 184h19v-103h-19v103z" />
    <glyph glyph-name="oslash" unicode="&#xf8;" horiz-adv-x="624" 
d="M577 562l13 -13l-91 -103l10 -10q31 -32 47.5 -74.5t16.5 -88.5q0 -59 -21.5 -110t-59 -89t-89 -60t-111.5 -22q-57 0 -102 19q-29 13 -52 30l-90 -102l-13 13l90 101q-6 5 -11 10q-30 33 -46.5 75.5t-16.5 88.5q0 58 21.5 109.5t59 89.5t89 60t111.5 22q57 0 102 -20
q28 -12 51 -30zM71 227q0 -51 18.5 -91t48.5 -68l334 375q-26 20 -57 31q-39 15 -82 15q-55 0 -102.5 -19.5t-83 -54.5t-56 -83t-20.5 -105zM208 25q40 -14 83 -14q55 0 102.5 19.5t83 54.5t56 83t20.5 105q0 51 -19 91q-18 39 -48 67l-334 -375q25 -19 56 -31z" />
    <glyph glyph-name="ugrave" unicode="&#xf9;" horiz-adv-x="577" 
d="M434 92q-32 -44 -80.5 -72t-111.5 -28q-100 0 -144.5 56t-24.5 153l63 299h19l-63 -299q-10 -44 -4 -79t25.5 -60t52 -38t76.5 -13q66 0 116 33t85 90l78 366h19l-106 -500h-19zM265 710h19l73 -160h-19z" />
    <glyph glyph-name="uacute" unicode="&#xfa;" horiz-adv-x="577" 
d="M434 92q-32 -44 -80.5 -72t-111.5 -28q-100 0 -144.5 56t-24.5 153l63 299h19l-63 -299q-10 -44 -4 -79t25.5 -60t52 -38t76.5 -13q66 0 116 33t85 90l78 366h19l-106 -500h-19zM481 710h23l-141 -160h-23z" />
    <glyph glyph-name="ucircumflex" unicode="&#xfb;" horiz-adv-x="577" 
d="M434 92q-32 -44 -80.5 -72t-111.5 -28q-100 0 -144.5 56t-24.5 153l63 299h19l-63 -299q-10 -44 -4 -79t25.5 -60t52 -38t76.5 -13q66 0 116 33t85 90l78 366h19l-106 -500h-19zM206 579l191 139l133 -139l-13 -13l-123 128l-177 -129z" />
    <glyph glyph-name="udieresis" unicode="&#xfc;" horiz-adv-x="577" 
d="M434 92q-32 -44 -80.5 -72t-111.5 -28q-100 0 -144.5 56t-24.5 153l63 299h19l-63 -299q-10 -44 -4 -79t25.5 -60t52 -38t76.5 -13q66 0 116 33t85 90l78 366h19l-106 -500h-19zM457 584l22 103h19l-22 -103h-19zM237 584l22 103h19l-22 -103h-19z" />
    <glyph glyph-name="yacute" unicode="&#xfd;" horiz-adv-x="515" 
d="M194 9l-131 491h21l124 -470l329 470h24l-480 -684h-23zM443 710h23l-141 -160h-23z" />
    <glyph glyph-name="thorn" unicode="&#xfe;" horiz-adv-x="611" 
d="M188 710h19l-60 -281q39 38 88.5 58.5t103.5 20.5q56 0 98 -19t69.5 -50.5t41.5 -72.5t14 -86q0 -57 -21.5 -109t-60.5 -92t-92 -63.5t-116 -23.5q-68 0 -118 26.5t-79 71.5l-58 -274h-19zM338 489q-56 0 -108.5 -24t-89.5 -69l-59 -278q27 -52 79 -79.5t114 -27.5
q57 0 106 21.5t85 58t56.5 85.5t20.5 105q0 42 -13 79.5t-38.5 66t-64 45.5t-88.5 17z" />
    <glyph glyph-name="ydieresis" unicode="&#xff;" horiz-adv-x="515" 
d="M194 9l-131 491h21l124 -470l329 470h24l-480 -684h-23zM419 584l22 103h19l-22 -103h-19zM199 584l22 103h19l-22 -103h-19z" />
    <glyph glyph-name="Abreve" unicode="&#x102;" horiz-adv-x="671" 
d="M533 249h-393l-168 -249h-22l485 718l179 -718h-19zM528 268l-101 405l-274 -405h375zM604 902q-16 -56 -51.5 -88.5t-99.5 -32.5q-69 0 -100 35t-22 86h18q-6 -54 22.5 -78t82.5 -24q51 0 82 23t50 79h18z" />
    <glyph glyph-name="Amacron" unicode="&#x100;" horiz-adv-x="671" 
d="M533 249h-393l-168 -249h-22l485 718l179 -718h-19zM528 268l-101 405l-274 -405h375zM323 850h278l-4 -19h-278z" />
    <glyph glyph-name="Aogonek" unicode="&#x104;" horiz-adv-x="671" 
d="M548 -192q-27 0 -46.5 16.5t-19.5 47.5q0 22 10.5 43t27 38.5t36 31t37.5 21.5l-60 243h-393l-168 -249h-22l485 718l179 -718q-20 -8 -40 -21t-36 -30t-26 -36.5t-10 -39.5q0 -26 17 -36t36 -10q12 0 23 3l-4 -19q-14 -3 -26 -3zM528 268l-101 405l-274 -405h375z" />
    <glyph glyph-name="Cacute" unicode="&#x106;" horiz-adv-x="686" 
d="M628 49q-45 -27 -100 -42t-118 -15q-80 0 -141.5 27.5t-103.5 73.5t-64 106.5t-22 125.5q0 75 28 146t81 126t128.5 88t170.5 33q75 0 134 -24.5t101 -66.5l-14 -14q-39 40 -94 63t-127 23q-89 0 -160.5 -30.5t-122 -82t-78 -119.5t-27.5 -142q0 -62 20.5 -118.5t60 -100
t97.5 -69.5t133 -26q60 0 112 14.5t96 40.5zM629 913h23l-140 -145h-23z" />
    <glyph glyph-name="Ccaron" unicode="&#x10c;" horiz-adv-x="686" 
d="M628 49q-45 -27 -100 -42t-118 -15q-80 0 -141.5 27.5t-103.5 73.5t-64 106.5t-22 125.5q0 75 28 146t81 126t128.5 88t170.5 33q75 0 134 -24.5t101 -66.5l-14 -14q-39 40 -94 63t-127 23q-89 0 -160.5 -30.5t-122 -82t-78 -119.5t-27.5 -142q0 -62 20.5 -118.5t60 -100
t97.5 -69.5t133 -26q60 0 112 14.5t96 40.5zM691 910l-191 -139l-134 140l12 12l124 -129l180 130z" />
    <glyph glyph-name="Ccircumflex" unicode="&#x108;" horiz-adv-x="686" 
d="M628 49q-45 -27 -100 -42t-118 -15q-80 0 -141.5 27.5t-103.5 73.5t-64 106.5t-22 125.5q0 75 28 146t81 126t128.5 88t170.5 33q75 0 134 -24.5t101 -66.5l-14 -14q-39 40 -94 63t-127 23q-89 0 -160.5 -30.5t-122 -82t-78 -119.5t-27.5 -142q0 -62 20.5 -118.5t60 -100
t97.5 -69.5t133 -26q60 0 112 14.5t96 40.5zM341 788l192 140l134 -140l-12 -12l-124 129l-180 -130z" />
    <glyph glyph-name="Cdotaccent" unicode="&#x10a;" horiz-adv-x="686" 
d="M628 49q-45 -27 -100 -42t-118 -15q-80 0 -141.5 27.5t-103.5 73.5t-64 106.5t-22 125.5q0 75 28 146t81 126t128.5 88t170.5 33q75 0 134 -24.5t101 -66.5l-14 -14q-39 40 -94 63t-127 23q-89 0 -160.5 -30.5t-122 -82t-78 -119.5t-27.5 -142q0 -62 20.5 -118.5t60 -100
t97.5 -69.5t133 -26q60 0 112 14.5t96 40.5zM494 788l22 103h19l-22 -103h-19z" />
    <glyph glyph-name="Dcaron" unicode="&#x10e;" horiz-adv-x="755" 
d="M212 710h192q76 0 136 -22.5t101.5 -61.5t63.5 -92.5t22 -115.5q0 -84 -34 -159.5t-95.5 -133t-148 -91.5t-191.5 -34h-197zM261 19q102 0 184.5 33t140.5 88.5t89.5 127.5t31.5 150q0 58 -20.5 108t-59.5 87t-95.5 57.5t-127.5 20.5h-177l-143 -672h177zM651 910
l-191 -139l-134 140l12 12l124 -129l180 130z" />
    <glyph glyph-name="Dcroat" unicode="&#x110;" horiz-adv-x="765" 
d="M222 710h192q76 0 136 -22.5t101.5 -61.5t63.5 -92.5t22 -115.5q0 -84 -34 -159.5t-95.5 -133t-148 -91.5t-191.5 -34h-197zM271 19q102 0 184.5 33t140.5 88.5t89.5 127.5t31.5 150q0 58 -20.5 108t-59.5 87t-95.5 57.5t-127.5 20.5h-177l-143 -672h177zM32 376h332
l-4 -19h-332z" />
    <glyph glyph-name="Ebreve" unicode="&#x114;" horiz-adv-x="546" 
d="M212 710h389l-4 -19h-370l-67 -315h310l-4 -19h-310l-72 -338h370l-4 -19h-389zM577 902q-16 -56 -51.5 -88.5t-99.5 -32.5q-69 0 -100 35t-22 86h18q-6 -54 22.5 -78t82.5 -24q51 0 82 23t50 79h18z" />
    <glyph glyph-name="Ecaron" unicode="&#x11a;" horiz-adv-x="546" 
d="M212 710h389l-4 -19h-370l-67 -315h310l-4 -19h-310l-72 -338h370l-4 -19h-389zM610 910l-191 -139l-134 140l12 12l124 -129l180 130z" />
    <glyph glyph-name="Emacron" unicode="&#x112;" horiz-adv-x="546" 
d="M212 710h389l-4 -19h-370l-67 -315h310l-4 -19h-310l-72 -338h370l-4 -19h-389zM296 850h278l-4 -19h-278z" />
    <glyph glyph-name="Eogonek" unicode="&#x118;" horiz-adv-x="546" 
d="M212 710h389l-4 -19h-370l-67 -315h310l-4 -19h-310l-72 -338h370l-4 -19h-389zM384 -192q-27 0 -46.5 16.5t-19.5 47.5q0 22 11 43.5t28 39.5t37.5 32t38.5 21l17 -8q-20 -8 -40 -21t-36 -30t-26 -36.5t-10 -39.5q0 -26 17 -36t36 -10q12 0 23 3l-4 -19q-14 -3 -26 -3z
" />
    <glyph glyph-name="Edotaccent" unicode="&#x116;" horiz-adv-x="546" 
d="M212 710h389l-4 -19h-370l-67 -315h310l-4 -19h-310l-72 -338h370l-4 -19h-389zM413 788l22 103h19l-22 -103h-19z" />
    <glyph glyph-name="Gbreve" unicode="&#x11e;" horiz-adv-x="764" 
d="M663 61q-58 -36 -119 -52.5t-134 -16.5q-80 0 -141.5 27.5t-103.5 73.5t-64 106.5t-22 125.5q0 75 28 146t81 126t128.5 88t170.5 33q75 0 136.5 -24.5t103.5 -66.5l-14 -14q-39 40 -96.5 63t-129.5 23q-89 0 -160.5 -30.5t-122 -82t-78 -119.5t-27.5 -142
q0 -62 20.5 -118.5t60 -100t97.5 -69.5t133 -26q68 0 124.5 15t111.5 47l60 284h-231l13 19h242zM658 902q-16 -56 -51.5 -88.5t-99.5 -32.5q-69 0 -100 35t-22 86h18q-6 -54 22.5 -78t82.5 -24q51 0 82 23t50 79h18z" />
    <glyph glyph-name="Gcircumflex" unicode="&#x11c;" horiz-adv-x="764" 
d="M663 61q-58 -36 -119 -52.5t-134 -16.5q-80 0 -141.5 27.5t-103.5 73.5t-64 106.5t-22 125.5q0 75 28 146t81 126t128.5 88t170.5 33q75 0 136.5 -24.5t103.5 -66.5l-14 -14q-39 40 -96.5 63t-129.5 23q-89 0 -160.5 -30.5t-122 -82t-78 -119.5t-27.5 -142
q0 -62 20.5 -118.5t60 -100t97.5 -69.5t133 -26q68 0 124.5 15t111.5 47l60 284h-231l13 19h242zM341 788l192 140l134 -140l-12 -12l-124 129l-180 -130z" />
    <glyph glyph-name="uni0122" unicode="&#x122;" horiz-adv-x="764" 
d="M663 61q-58 -36 -119 -52.5t-134 -16.5q-80 0 -141.5 27.5t-103.5 73.5t-64 106.5t-22 125.5q0 75 28 146t81 126t128.5 88t170.5 33q75 0 136.5 -24.5t103.5 -66.5l-14 -14q-39 40 -96.5 63t-129.5 23q-89 0 -160.5 -30.5t-122 -82t-78 -119.5t-27.5 -142
q0 -62 20.5 -118.5t60 -100t97.5 -69.5t133 -26q68 0 124.5 15t111.5 47l60 284h-231l13 19h242zM393 -50h21l-110 -165h-21z" />
    <glyph glyph-name="Gdotaccent" unicode="&#x120;" horiz-adv-x="764" 
d="M663 61q-58 -36 -119 -52.5t-134 -16.5q-80 0 -141.5 27.5t-103.5 73.5t-64 106.5t-22 125.5q0 75 28 146t81 126t128.5 88t170.5 33q75 0 136.5 -24.5t103.5 -66.5l-14 -14q-39 40 -96.5 63t-129.5 23q-89 0 -160.5 -30.5t-122 -82t-78 -119.5t-27.5 -142
q0 -62 20.5 -118.5t60 -100t97.5 -69.5t133 -26q68 0 124.5 15t111.5 47l60 284h-231l13 19h242zM494 788l22 103h19l-22 -103h-19z" />
    <glyph glyph-name="Hbar" unicode="&#x126;" horiz-adv-x="768" 
d="M212 710h19l-71 -334h502l71 334h19l-151 -710h-19l76 357h-502l-76 -357h-19zM114 553h670l-4 -19h-670z" />
    <glyph glyph-name="Hcircumflex" unicode="&#x124;" horiz-adv-x="768" 
d="M212 710h19l-71 -334h502l71 334h19l-151 -710h-19l76 357h-502l-76 -357h-19zM332 788l192 140l134 -140l-12 -12l-124 129l-180 -130z" />
    <glyph glyph-name="Ibreve" unicode="&#x12c;" horiz-adv-x="247" 
d="M212 710h19l-151 -710h-19zM392 902q-16 -56 -51.5 -88.5t-99.5 -32.5q-69 0 -100 35t-22 86h18q-6 -54 22.5 -78t82.5 -24q51 0 82 23t50 79h18z" />
    <glyph glyph-name="Idotaccent" unicode="&#x130;" horiz-adv-x="247" 
d="M212 710h19l-151 -710h-19zM228 788l22 103h19l-22 -103h-19z" />
    <glyph glyph-name="Imacron" unicode="&#x12a;" horiz-adv-x="247" 
d="M212 710h19l-151 -710h-19zM111 850h278l-4 -19h-278z" />
    <glyph glyph-name="Iogonek" unicode="&#x12e;" horiz-adv-x="248" 
d="M213 710h19l-151 -710h-19zM15 -192q-27 0 -46.5 16.5t-19.5 47.5q0 22 11 43.5t28 39.5t37.5 32t38.5 21l17 -8q-20 -8 -40 -21t-36 -30t-26 -36.5t-10 -39.5q0 -26 17 -36t36 -10q12 0 23 3l-4 -19q-14 -3 -26 -3z" />
    <glyph glyph-name="Itilde" unicode="&#x128;" horiz-adv-x="247" 
d="M212 710h19l-151 -710h-19zM80 803q11 45 38 67t57 22q26 0 45 -11t35.5 -24.5t32.5 -24.5t36 -11q28 0 47.5 18.5t29.5 52.5h19q-14 -48 -39.5 -68.5t-56.5 -20.5q-24 0 -42 11t-34 24.5t-33.5 24.5t-39.5 11q-29 0 -47.5 -19t-28.5 -52h-19z" />
    <glyph glyph-name="uni1ECA" unicode="&#x1eca;" horiz-adv-x="247" 
d="M212 710h19l-151 -710h-19zM23 -189l22 103h19l-22 -103h-19z" />
    <glyph glyph-name="Jcircumflex" unicode="&#x134;" horiz-adv-x="517" 
d="M399 187q-21 -100 -78.5 -147.5t-142.5 -47.5q-47 0 -82.5 14t-58 39.5t-30 61.5t1.5 80h19q-17 -78 21.5 -127t128.5 -49q85 0 134.5 46t67.5 130l111 523h19zM354 788l192 140l134 -140l-12 -12l-124 129l-180 -130z" />
    <glyph glyph-name="uni0136" unicode="&#x136;" horiz-adv-x="575" 
d="M156 353l462 357h28l-463 -358l345 -352h-26zM212 710h19l-151 -710h-19zM278 -50h21l-110 -165h-21z" />
    <glyph glyph-name="Lacute" unicode="&#x139;" horiz-adv-x="514" 
d="M212 710h19l-147 -691h370l-4 -19h-389zM364 913h23l-140 -145h-23z" />
    <glyph glyph-name="Lcaron" unicode="&#x13d;" horiz-adv-x="515" 
d="M212 710h19l-147 -691h370l-4 -19h-389zM440 710l-68 -170h-17l65 170h20z" />
    <glyph glyph-name="uni013B" unicode="&#x13b;" horiz-adv-x="514" 
d="M212 710h19l-147 -691h370l-4 -19h-389zM255 -50h21l-110 -165h-21z" />
    <glyph glyph-name="Ldot" unicode="&#x13f;" horiz-adv-x="516" 
d="M212 710h19l-147 -691h370l-4 -19h-389zM379 316l22 103h19l-22 -103h-19z" />
    <glyph glyph-name="Lslash" unicode="&#x141;" horiz-adv-x="558" 
d="M256 710h19l-147 -691h370l-4 -19h-389zM13 267l349 209l10 -15l-349 -209z" />
    <glyph glyph-name="Nacute" unicode="&#x143;" horiz-adv-x="794" 
d="M222 668l-142 -668h-19l153 718l403 -676l142 668h19l-153 -718zM628 913h23l-140 -145h-23z" />
    <glyph glyph-name="Ncaron" unicode="&#x147;" horiz-adv-x="794" 
d="M222 668l-142 -668h-19l153 718l403 -676l142 668h19l-153 -718zM690 910l-191 -139l-134 140l12 12l124 -129l180 130z" />
    <glyph glyph-name="uni0145" unicode="&#x145;" horiz-adv-x="794" 
d="M222 668l-142 -668h-19l153 718l403 -676l142 668h19l-153 -718zM344 -50h21l-110 -165h-21z" />
    <glyph glyph-name="OE" unicode="&#x152;" horiz-adv-x="1125" 
d="M656 67q-49 -35 -111 -55t-135 -20q-80 0 -141.5 27.5t-103.5 73.5t-64 106.5t-22 125.5q0 75 28 146t81 126t128.5 88t170.5 33q96 0 165 -39.5t111 -102.5l28 134h389l-4 -19h-370l-29 -138q41 -77 41 -168q0 -2 -0.5 -4.5t-0.5 -4.5h232l-4 -19h-228q-6 -78 -41 -149
t-97 -123l-16 -66h370l-4 -19h-389zM99 325q0 -62 20.5 -118.5t60 -100t97.5 -69.5t133 -26q89 0 160.5 30.5t122 82t78 119.5t27.5 142q0 62 -20.5 118.5t-60 100t-97.5 69.5t-133 26q-89 0 -160.5 -30.5t-122 -82t-78 -119.5t-27.5 -142z" />
    <glyph glyph-name="Obreve" unicode="&#x14e;" horiz-adv-x="852" 
d="M818 385q0 -75 -28 -146t-81 -126t-128.5 -88t-170.5 -33q-80 0 -141.5 27.5t-103.5 73.5t-64 106.5t-22 125.5q0 75 28 146t81 126t128.5 88t170.5 33q79 0 141 -27.5t104 -73.5t64 -106.5t22 -125.5zM99 325q0 -62 20.5 -118.5t60 -100t97.5 -69.5t133 -26
q89 0 160.5 30.5t122 82t78 119.5t27.5 142q0 62 -20.5 118.5t-60 100t-97.5 69.5t-133 26q-89 0 -160.5 -30.5t-122 -82t-78 -119.5t-27.5 -142zM658 902q-16 -56 -51.5 -88.5t-99.5 -32.5q-69 0 -100 35t-22 86h18q-6 -54 22.5 -78t82.5 -24q51 0 82 23t50 79h18z" />
    <glyph glyph-name="Ohungarumlaut" unicode="&#x150;" horiz-adv-x="852" 
d="M818 385q0 -75 -28 -146t-81 -126t-128.5 -88t-170.5 -33q-80 0 -141.5 27.5t-103.5 73.5t-64 106.5t-22 125.5q0 75 28 146t81 126t128.5 88t170.5 33q79 0 141 -27.5t104 -73.5t64 -106.5t22 -125.5zM99 325q0 -62 20.5 -118.5t60 -100t97.5 -69.5t133 -26
q89 0 160.5 30.5t122 82t78 119.5t27.5 142q0 62 -20.5 118.5t-60 100t-97.5 69.5t-133 26q-89 0 -160.5 -30.5t-122 -82t-78 -119.5t-27.5 -142zM729 913h23l-140 -145h-23zM527 913h23l-140 -145h-23z" />
    <glyph glyph-name="Omacron" unicode="&#x14c;" horiz-adv-x="852" 
d="M818 385q0 -75 -28 -146t-81 -126t-128.5 -88t-170.5 -33q-80 0 -141.5 27.5t-103.5 73.5t-64 106.5t-22 125.5q0 75 28 146t81 126t128.5 88t170.5 33q79 0 141 -27.5t104 -73.5t64 -106.5t22 -125.5zM99 325q0 -62 20.5 -118.5t60 -100t97.5 -69.5t133 -26
q89 0 160.5 30.5t122 82t78 119.5t27.5 142q0 62 -20.5 118.5t-60 100t-97.5 69.5t-133 26q-89 0 -160.5 -30.5t-122 -82t-78 -119.5t-27.5 -142zM377 850h278l-4 -19h-278z" />
    <glyph glyph-name="uni1ECC" unicode="&#x1ecc;" horiz-adv-x="852" 
d="M818 385q0 -75 -28 -146t-81 -126t-128.5 -88t-170.5 -33q-80 0 -141.5 27.5t-103.5 73.5t-64 106.5t-22 125.5q0 75 28 146t81 126t128.5 88t170.5 33q79 0 141 -27.5t104 -73.5t64 -106.5t22 -125.5zM99 325q0 -62 20.5 -118.5t60 -100t97.5 -69.5t133 -26
q89 0 160.5 30.5t122 82t78 119.5t27.5 142q0 62 -20.5 118.5t-60 100t-97.5 69.5t-133 26q-89 0 -160.5 -30.5t-122 -82t-78 -119.5t-27.5 -142zM361 -189l22 103h19l-22 -103h-19z" />
    <glyph glyph-name="Racute" unicode="&#x154;" horiz-adv-x="592" 
d="M298 352h-143l-75 -352h-19l151 710h179q46 0 81 -12t57.5 -32t34 -47.5t11.5 -58.5q0 -43 -15.5 -80.5t-47.5 -65.5t-80 -44.5t-112 -17.5l217 -352h-22zM317 371q60 0 105 14.5t74.5 40t44 60t14.5 74.5q0 57 -40.5 94t-122.5 37h-165l-68 -320h158zM535 913h23
l-140 -145h-23z" />
    <glyph glyph-name="Rcaron" unicode="&#x158;" horiz-adv-x="592" 
d="M298 352h-143l-75 -352h-19l151 710h179q46 0 81 -12t57.5 -32t34 -47.5t11.5 -58.5q0 -43 -15.5 -80.5t-47.5 -65.5t-80 -44.5t-112 -17.5l217 -352h-22zM317 371q60 0 105 14.5t74.5 40t44 60t14.5 74.5q0 57 -40.5 94t-122.5 37h-165l-68 -320h158zM597 910l-191 -139
l-134 140l12 12l124 -129l180 130z" />
    <glyph glyph-name="uni0156" unicode="&#x156;" horiz-adv-x="592" 
d="M298 352h-143l-75 -352h-19l151 710h179q46 0 81 -12t57.5 -32t34 -47.5t11.5 -58.5q0 -43 -15.5 -80.5t-47.5 -65.5t-80 -44.5t-112 -17.5l217 -352h-22zM317 371q60 0 105 14.5t74.5 40t44 60t14.5 74.5q0 57 -40.5 94t-122.5 37h-165l-68 -320h158zM289 -50h21
l-110 -165h-21z" />
    <glyph glyph-name="Sacute" unicode="&#x15a;" horiz-adv-x="517" 
d="M456 163q0 -32 -12.5 -63t-38.5 -55t-66 -38.5t-95 -14.5q-41 0 -77 11t-65 29t-49.5 42t-31.5 50l18 9q10 -24 29 -46.5t45.5 -39t60 -26.5t72.5 -10q47 0 82.5 12t59.5 32.5t36 48t12 58.5q0 32 -8 57.5t-23 47t-37 40t-51 37.5l-90 59q-48 32 -72 68.5t-24 84.5
q0 75 49.5 118.5t139.5 43.5q50 0 100 -22.5t88 -78.5l-17 -11q-34 52 -79 72.5t-95 20.5q-36 0 -66.5 -9.5t-52.5 -27.5t-34.5 -44.5t-12.5 -60.5q0 -48 23 -80t68 -61l90 -59q61 -40 92.5 -84.5t31.5 -109.5zM462 913h23l-140 -145h-23z" />
    <glyph glyph-name="Scaron" unicode="&#x160;" horiz-adv-x="517" 
d="M456 163q0 -32 -12.5 -63t-38.5 -55t-66 -38.5t-95 -14.5q-41 0 -77 11t-65 29t-49.5 42t-31.5 50l18 9q10 -24 29 -46.5t45.5 -39t60 -26.5t72.5 -10q47 0 82.5 12t59.5 32.5t36 48t12 58.5q0 32 -8 57.5t-23 47t-37 40t-51 37.5l-90 59q-48 32 -72 68.5t-24 84.5
q0 75 49.5 118.5t139.5 43.5q50 0 100 -22.5t88 -78.5l-17 -11q-34 52 -79 72.5t-95 20.5q-36 0 -66.5 -9.5t-52.5 -27.5t-34.5 -44.5t-12.5 -60.5q0 -48 23 -80t68 -61l90 -59q61 -40 92.5 -84.5t31.5 -109.5zM524 910l-191 -139l-134 140l12 12l124 -129l180 130z" />
    <glyph glyph-name="Scedilla" unicode="&#x15e;" horiz-adv-x="517" 
d="M456 163q0 -32 -12.5 -63t-38.5 -55t-66 -38.5t-95 -14.5q-41 0 -77 11t-65 29t-49.5 42t-31.5 50l18 9q10 -24 29 -46.5t45.5 -39t60 -26.5t72.5 -10q47 0 82.5 12t59.5 32.5t36 48t12 58.5q0 32 -8 57.5t-23 47t-37 40t-51 37.5l-90 59q-48 32 -72 68.5t-24 84.5
q0 75 49.5 118.5t139.5 43.5q50 0 100 -22.5t88 -78.5l-17 -11q-34 52 -79 72.5t-95 20.5q-36 0 -66.5 -9.5t-52.5 -27.5t-34.5 -44.5t-12.5 -60.5q0 -48 23 -80t68 -61l90 -59q61 -40 92.5 -84.5t31.5 -109.5zM236 0h21l-110 -165h-21z" />
    <glyph glyph-name="Scircumflex" unicode="&#x15c;" horiz-adv-x="517" 
d="M456 163q0 -32 -12.5 -63t-38.5 -55t-66 -38.5t-95 -14.5q-41 0 -77 11t-65 29t-49.5 42t-31.5 50l18 9q10 -24 29 -46.5t45.5 -39t60 -26.5t72.5 -10q47 0 82.5 12t59.5 32.5t36 48t12 58.5q0 32 -8 57.5t-23 47t-37 40t-51 37.5l-90 59q-48 32 -72 68.5t-24 84.5
q0 75 49.5 118.5t139.5 43.5q50 0 100 -22.5t88 -78.5l-17 -11q-34 52 -79 72.5t-95 20.5q-36 0 -66.5 -9.5t-52.5 -27.5t-34.5 -44.5t-12.5 -60.5q0 -48 23 -80t68 -61l90 -59q61 -40 92.5 -84.5t31.5 -109.5zM174 788l192 140l134 -140l-12 -12l-124 129l-180 -130z" />
    <glyph glyph-name="uni0218" unicode="&#x218;" horiz-adv-x="517" 
d="M456 163q0 -32 -12.5 -63t-38.5 -55t-66 -38.5t-95 -14.5q-41 0 -77 11t-65 29t-49.5 42t-31.5 50l18 9q10 -24 29 -46.5t45.5 -39t60 -26.5t72.5 -10q47 0 82.5 12t59.5 32.5t36 48t12 58.5q0 32 -8 57.5t-23 47t-37 40t-51 37.5l-90 59q-48 32 -72 68.5t-24 84.5
q0 75 49.5 118.5t139.5 43.5q50 0 100 -22.5t88 -78.5l-17 -11q-34 52 -79 72.5t-95 20.5q-36 0 -66.5 -9.5t-52.5 -27.5t-34.5 -44.5t-12.5 -60.5q0 -48 23 -80t68 -61l90 -59q61 -40 92.5 -84.5t31.5 -109.5zM227 -50h21l-110 -165h-21z" />
    <glyph glyph-name="Tcaron" unicode="&#x164;" horiz-adv-x="484" 
d="M325 691h-222l4 19h463l-4 -19h-222l-147 -691h-19zM542 910l-191 -139l-134 140l12 12l124 -129l180 130z" />
    <glyph glyph-name="uni0162" unicode="&#x162;" horiz-adv-x="484" 
d="M325 691h-222l4 19h463l-4 -19h-222l-147 -691h-19zM172 -50h21l-110 -165h-21z" />
    <glyph glyph-name="uni021A" unicode="&#x21a;" horiz-adv-x="484" 
d="M325 691h-222l4 19h463l-4 -19h-222l-147 -691h-19zM172 -50h21l-110 -165h-21z" />
    <glyph glyph-name="Ubreve" unicode="&#x16c;" horiz-adv-x="727" 
d="M626 260q-28 -131 -103 -199.5t-199 -68.5q-62 0 -109 17.5t-76 51.5t-38 84t5 115l96 450h19l-96 -450q-14 -63 -5.5 -110t35.5 -77.5t69.5 -46t98.5 -15.5q112 0 184.5 61t99.5 188l96 450h19zM628 902q-16 -56 -51.5 -88.5t-99.5 -32.5q-69 0 -100 35t-22 86h18
q-6 -54 22.5 -78t82.5 -24q51 0 82 23t50 79h18z" />
    <glyph glyph-name="Uhungarumlaut" unicode="&#x170;" horiz-adv-x="727" 
d="M626 260q-28 -131 -103 -199.5t-199 -68.5q-62 0 -109 17.5t-76 51.5t-38 84t5 115l96 450h19l-96 -450q-14 -63 -5.5 -110t35.5 -77.5t69.5 -46t98.5 -15.5q112 0 184.5 61t99.5 188l96 450h19zM699 913h23l-140 -145h-23zM497 913h23l-140 -145h-23z" />
    <glyph glyph-name="Umacron" unicode="&#x16a;" horiz-adv-x="727" 
d="M626 260q-28 -131 -103 -199.5t-199 -68.5q-62 0 -109 17.5t-76 51.5t-38 84t5 115l96 450h19l-96 -450q-14 -63 -5.5 -110t35.5 -77.5t69.5 -46t98.5 -15.5q112 0 184.5 61t99.5 188l96 450h19zM347 850h278l-4 -19h-278z" />
    <glyph glyph-name="Uogonek" unicode="&#x172;" horiz-adv-x="727" 
d="M626 260q-28 -131 -103 -199.5t-199 -68.5q-62 0 -109 17.5t-76 51.5t-38 84t5 115l96 450h19l-96 -450q-14 -63 -5.5 -110t35.5 -77.5t69.5 -46t98.5 -15.5q112 0 184.5 61t99.5 188l96 450h19zM274 -192q-27 0 -46.5 16.5t-19.5 47.5q0 22 11 43.5t28 39.5t37.5 32
t38.5 21l17 -8q-20 -8 -40 -21t-36 -30t-26 -36.5t-10 -39.5q0 -26 17 -36t36 -10q12 0 23 3l-4 -19q-14 -3 -26 -3z" />
    <glyph glyph-name="Uring" unicode="&#x16e;" horiz-adv-x="727" 
d="M626 260q-28 -131 -103 -199.5t-199 -68.5q-62 0 -109 17.5t-76 51.5t-38 84t5 115l96 450h19l-96 -450q-14 -63 -5.5 -110t35.5 -77.5t69.5 -46t98.5 -15.5q112 0 184.5 61t99.5 188l96 450h19zM563 836q0 -33 -23.5 -56.5t-56.5 -23.5t-56.5 23.5t-23.5 56.5t23.5 56.5
t56.5 23.5t56.5 -23.5t23.5 -56.5zM421 836q0 -26 18 -44.5t44 -18.5t44 18.5t18 44.5t-18 44.5t-44 18.5t-44 -18.5t-18 -44.5z" />
    <glyph glyph-name="Utilde" unicode="&#x168;" horiz-adv-x="727" 
d="M626 260q-28 -131 -103 -199.5t-199 -68.5q-62 0 -109 17.5t-76 51.5t-38 84t5 115l96 450h19l-96 -450q-14 -63 -5.5 -110t35.5 -77.5t69.5 -46t98.5 -15.5q112 0 184.5 61t99.5 188l96 450h19zM316 803q11 45 38 67t57 22q26 0 45 -11t35.5 -24.5t32.5 -24.5t36 -11
q28 0 47.5 18.5t29.5 52.5h19q-14 -48 -39.5 -68.5t-56.5 -20.5q-24 0 -42 11t-34 24.5t-33.5 24.5t-39.5 11q-29 0 -47.5 -19t-28.5 -52h-19z" />
    <glyph glyph-name="uni1EE4" unicode="&#x1ee4;" horiz-adv-x="727" 
d="M626 260q-28 -131 -103 -199.5t-199 -68.5q-62 0 -109 17.5t-76 51.5t-38 84t5 115l96 450h19l-96 -450q-14 -63 -5.5 -110t35.5 -77.5t69.5 -46t98.5 -15.5q112 0 184.5 61t99.5 188l96 450h19zM275 -189l22 103h19l-22 -103h-19z" />
    <glyph glyph-name="Wacute" unicode="&#x1e82;" horiz-adv-x="887" 
d="M128 710h19l54 -652l341 660l61 -661l330 653h21l-364 -718l-61 660l-341 -660zM682 913h23l-140 -145h-23z" />
    <glyph glyph-name="Wcircumflex" unicode="&#x174;" horiz-adv-x="887" 
d="M128 710h19l54 -652l341 660l61 -661l330 653h21l-364 -718l-61 660l-341 -660zM394 788l192 140l134 -140l-12 -12l-124 129l-180 -130z" />
    <glyph glyph-name="Wdieresis" unicode="&#x1e84;" horiz-adv-x="887" 
d="M128 710h19l54 -652l341 660l61 -661l330 653h21l-364 -718l-61 660l-341 -660zM657 788l22 103h19l-22 -103h-19zM437 788l22 103h19l-22 -103h-19z" />
    <glyph glyph-name="Wgrave" unicode="&#x1e80;" horiz-adv-x="887" 
d="M128 710h19l54 -652l341 660l61 -661l330 653h21l-364 -718l-61 660l-341 -660zM460 913h19l79 -145h-19z" />
    <glyph glyph-name="Ycircumflex" unicode="&#x176;" horiz-adv-x="572" 
d="M288 302l-172 408h20l164 -388l329 388h24l-346 -408l-64 -302h-19zM234 788l192 140l134 -140l-12 -12l-124 129l-180 -130z" />
    <glyph glyph-name="Ydieresis" unicode="&#x178;" horiz-adv-x="572" 
d="M288 302l-172 408h20l164 -388l329 388h24l-346 -408l-64 -302h-19zM497 788l22 103h19l-22 -103h-19zM277 788l22 103h19l-22 -103h-19z" />
    <glyph glyph-name="Ygrave" unicode="&#x1ef2;" horiz-adv-x="572" 
d="M288 302l-172 408h20l164 -388l329 388h24l-346 -408l-64 -302h-19zM300 913h19l79 -145h-19z" />
    <glyph glyph-name="uni0232" unicode="&#x232;" horiz-adv-x="572" 
d="M288 302l-172 408h20l164 -388l329 388h24l-346 -408l-64 -302h-19zM270 850h278l-4 -19h-278z" />
    <glyph glyph-name="Zacute" unicode="&#x179;" horiz-adv-x="556" 
d="M586 691h-432l4 19h471l-634 -691h488l-4 -19h-527zM524 913h23l-140 -145h-23z" />
    <glyph glyph-name="Zcaron" unicode="&#x17d;" horiz-adv-x="556" 
d="M586 691h-432l4 19h471l-634 -691h488l-4 -19h-527zM586 910l-191 -139l-134 140l12 12l124 -129l180 130z" />
    <glyph glyph-name="Zdotaccent" unicode="&#x17b;" horiz-adv-x="556" 
d="M586 691h-432l4 19h471l-634 -691h488l-4 -19h-527zM389 788l22 103h19l-22 -103h-19z" />
    <glyph glyph-name="uni1E9E" unicode="&#x1e9e;" horiz-adv-x="604" 
d="M211 710h377l-238 -252q34 0 70 -13t65 -38.5t48 -64t19 -88.5q0 -57 -19.5 -103.5t-55 -80t-86.5 -52t-114 -18.5h-47l4 19h47q52 0 98 15.5t80 45.5t53.5 73.5t19.5 100.5q0 46 -17.5 81t-44.5 58t-60.5 34.5t-65.5 11.5h-23l4 19l220 233h-319l-146 -691h-19z" />
    <glyph glyph-name="abreve" unicode="&#x103;" horiz-adv-x="612" 
d="M465 71q-39 -38 -88.5 -58.5t-103.5 -20.5q-56 0 -98 18.5t-69.5 50t-41.5 73t-14 86.5q0 57 21.5 109t60.5 92t92 63.5t116 23.5q68 0 117.5 -27t78.5 -71l20 90h19l-106 -500h-19zM274 11q56 0 108.5 24t89.5 69l59 279q-28 51 -80 78.5t-113 27.5q-57 0 -106 -21.5
t-85 -58.5t-56.5 -86t-20.5 -104q0 -42 13 -80t38.5 -66.5t64 -45t88.5 -16.5zM523 710q-16 -56 -51.5 -88.5t-99.5 -32.5q-69 0 -99.5 34.5t-22.5 86.5h18q-7 -53 22 -77.5t83 -24.5q51 0 82 23t50 79h18z" />
    <glyph glyph-name="amacron" unicode="&#x101;" horiz-adv-x="612" 
d="M465 71q-39 -38 -88.5 -58.5t-103.5 -20.5q-56 0 -98 18.5t-69.5 50t-41.5 73t-14 86.5q0 57 21.5 109t60.5 92t92 63.5t116 23.5q68 0 117.5 -27t78.5 -71l20 90h19l-106 -500h-19zM274 11q56 0 108.5 24t89.5 69l59 279q-28 51 -80 78.5t-113 27.5q-57 0 -106 -21.5
t-85 -58.5t-56.5 -86t-20.5 -104q0 -42 13 -80t38.5 -66.5t64 -45t88.5 -16.5zM249 680h278l-5 -19h-278z" />
    <glyph glyph-name="aogonek" unicode="&#x105;" horiz-adv-x="612" 
d="M403 -192q-27 0 -46.5 16.5t-19.5 47.5q0 22 11 43.5t28 39.5t37.5 32t38.5 21l13 63q-39 -38 -88.5 -58.5t-103.5 -20.5q-56 0 -98 18.5t-69.5 50t-41.5 73t-14 86.5q0 57 21.5 109t60.5 92t92 63.5t116 23.5q68 0 117.5 -27t78.5 -71l20 90h19l-106 -500
q-20 -8 -40 -21t-36 -30t-26 -36.5t-10 -39.5q0 -26 17 -36t36 -10q12 0 23 3l-4 -19q-14 -3 -26 -3zM274 11q56 0 108.5 24t89.5 69l59 279q-28 51 -80 78.5t-113 27.5q-57 0 -106 -21.5t-85 -58.5t-56.5 -86t-20.5 -104q0 -42 13 -80t38.5 -66.5t64 -45t88.5 -16.5z" />
    <glyph glyph-name="cacute" unicode="&#x107;" horiz-adv-x="537" 
d="M473 58q-37 -31 -84 -48.5t-102 -17.5q-57 0 -101 19.5t-73.5 52t-45 75t-15.5 88.5q0 58 21 109.5t58.5 89.5t89 60t112.5 22q27 0 54 -5t52.5 -15.5t47.5 -27t38 -38.5l-15 -13q-29 40 -76.5 60t-101.5 20q-55 0 -102.5 -20t-82.5 -55t-55 -83t-20 -104
q0 -52 17.5 -92.5t47.5 -68t69 -41.5t82 -14q51 0 94.5 16.5t78.5 46.5zM476 710h23l-141 -160h-23z" />
    <glyph glyph-name="ccaron" unicode="&#x10d;" horiz-adv-x="537" 
d="M473 58q-37 -31 -84 -48.5t-102 -17.5q-57 0 -101 19.5t-73.5 52t-45 75t-15.5 88.5q0 58 21 109.5t58.5 89.5t89 60t112.5 22q27 0 54 -5t52.5 -15.5t47.5 -27t38 -38.5l-15 -13q-29 40 -76.5 60t-101.5 20q-55 0 -102.5 -20t-82.5 -55t-55 -83t-20 -104
q0 -52 17.5 -92.5t47.5 -68t69 -41.5t82 -14q51 0 94.5 16.5t78.5 46.5zM526 705l-191 -139l-133 139l13 13l123 -128l177 129z" />
    <glyph glyph-name="ccircumflex" unicode="&#x109;" horiz-adv-x="537" 
d="M473 58q-37 -31 -84 -48.5t-102 -17.5q-57 0 -101 19.5t-73.5 52t-45 75t-15.5 88.5q0 58 21 109.5t58.5 89.5t89 60t112.5 22q27 0 54 -5t52.5 -15.5t47.5 -27t38 -38.5l-15 -13q-29 40 -76.5 60t-101.5 20q-55 0 -102.5 -20t-82.5 -55t-55 -83t-20 -104
q0 -52 17.5 -92.5t47.5 -68t69 -41.5t82 -14q51 0 94.5 16.5t78.5 46.5zM201 579l191 139l133 -139l-13 -13l-123 128l-177 -129z" />
    <glyph glyph-name="cdotaccent" unicode="&#x10b;" horiz-adv-x="537" 
d="M473 58q-37 -31 -84 -48.5t-102 -17.5q-57 0 -101 19.5t-73.5 52t-45 75t-15.5 88.5q0 58 21 109.5t58.5 89.5t89 60t112.5 22q27 0 54 -5t52.5 -15.5t47.5 -27t38 -38.5l-15 -13q-29 40 -76.5 60t-101.5 20q-55 0 -102.5 -20t-82.5 -55t-55 -83t-20 -104
q0 -52 17.5 -92.5t47.5 -68t69 -41.5t82 -14q51 0 94.5 16.5t78.5 46.5zM342 584l22 103h19l-22 -103h-19z" />
    <glyph glyph-name="dcaron" unicode="&#x10f;" horiz-adv-x="636" 
d="M465 71q-39 -38 -88.5 -58.5t-103.5 -20.5q-56 0 -98 18.5t-69.5 50t-41.5 73t-14 86.5q0 57 21.5 109t60.5 92t92 63.5t116 23.5q68 0 118 -27t79 -72l64 301h19l-151 -710h-19zM274 11q56 0 108.5 24t89.5 69l59 278q-27 52 -79.5 79.5t-113.5 27.5q-57 0 -106 -21.5
t-85 -58.5t-56.5 -86t-20.5 -104q0 -42 13 -80t38.5 -66.5t64 -45t88.5 -16.5zM730 710l-68 -170h-17l65 170h20z" />
    <glyph glyph-name="dcroat" unicode="&#x111;" horiz-adv-x="612" 
d="M465 71q-39 -38 -88.5 -58.5t-103.5 -20.5q-56 0 -98 18.5t-69.5 50t-41.5 73t-14 86.5q0 57 21.5 109t60.5 92t92 63.5t116 23.5q68 0 118 -27t79 -72l64 301h19l-151 -710h-19zM274 11q56 0 108.5 24t89.5 69l59 278q-27 52 -79.5 79.5t-113.5 27.5q-57 0 -106 -21.5
t-85 -58.5t-56.5 -86t-20.5 -104q0 -42 13 -80t38.5 -66.5t64 -45t88.5 -16.5zM391 609l4 19h294l-4 -19h-294z" />
    <glyph glyph-name="ebreve" unicode="&#x115;" horiz-adv-x="574" 
d="M287 11q51 0 95 16.5t79 46.5l12 -16q-37 -31 -84 -48.5t-102 -17.5q-57 0 -101 19.5t-73.5 52t-45 75t-15.5 88.5q0 58 21 109.5t58.5 89.5t89 60t112.5 22q46 0 88 -15t71 -46t42 -78t0 -110h-460q-6 -64 10.5 -110.5t47.5 -77t72 -45.5t83 -15zM332 489
q-56 0 -100.5 -19t-77 -49t-52.5 -68t-26 -76h441q7 50 -3.5 89.5t-35 66.5t-62.5 41.5t-84 14.5zM507 710q-16 -56 -51.5 -88.5t-99.5 -32.5q-69 0 -99.5 34.5t-22.5 86.5h18q-7 -53 22 -77.5t83 -24.5q51 0 82 23t50 79h18z" />
    <glyph glyph-name="ecaron" unicode="&#x11b;" horiz-adv-x="574" 
d="M287 11q51 0 95 16.5t79 46.5l12 -16q-37 -31 -84 -48.5t-102 -17.5q-57 0 -101 19.5t-73.5 52t-45 75t-15.5 88.5q0 58 21 109.5t58.5 89.5t89 60t112.5 22q46 0 88 -15t71 -46t42 -78t0 -110h-460q-6 -64 10.5 -110.5t47.5 -77t72 -45.5t83 -15zM332 489
q-56 0 -100.5 -19t-77 -49t-52.5 -68t-26 -76h441q7 50 -3.5 89.5t-35 66.5t-62.5 41.5t-84 14.5zM526 705l-191 -139l-133 139l13 13l123 -128l177 129z" />
    <glyph glyph-name="emacron" unicode="&#x113;" horiz-adv-x="574" 
d="M287 11q51 0 95 16.5t79 46.5l12 -16q-37 -31 -84 -48.5t-102 -17.5q-57 0 -101 19.5t-73.5 52t-45 75t-15.5 88.5q0 58 21 109.5t58.5 89.5t89 60t112.5 22q46 0 88 -15t71 -46t42 -78t0 -110h-460q-6 -64 10.5 -110.5t47.5 -77t72 -45.5t83 -15zM332 489
q-56 0 -100.5 -19t-77 -49t-52.5 -68t-26 -76h441q7 50 -3.5 89.5t-35 66.5t-62.5 41.5t-84 14.5zM233 680h278l-5 -19h-278z" />
    <glyph glyph-name="eogonek" unicode="&#x119;" horiz-adv-x="574" 
d="M438 -189q-6 -2 -16 -2.5t-17 -0.5q-29 0 -53.5 20t-24.5 59q0 28 15.5 59t49.5 66q-33 -11 -57.5 -15.5t-47.5 -4.5q-57 0 -101 19.5t-73.5 52t-45 75t-15.5 88.5q0 58 21 109.5t58.5 89.5t89 60t112.5 22q46 0 88 -15t71 -46t42 -78t0 -110h-460q-6 -64 10.5 -110.5
t47.5 -77t72 -45.5t83 -15q51 0 95 16.5t79 46.5l12 -16q-22 -18 -44.5 -36.5t-40.5 -39.5t-29.5 -44.5t-11.5 -50.5q0 -18 7 -29.5t17.5 -18t22.5 -9.5t21 -3q6 0 14 0.5t13 2.5zM517 277q7 50 -3.5 89.5t-35 66.5t-62.5 41.5t-84 14.5q-53 0 -96.5 -17t-76.5 -46.5
t-54.5 -68t-28.5 -80.5h441z" />
    <glyph glyph-name="edotaccent" unicode="&#x117;" horiz-adv-x="574" 
d="M287 11q51 0 95 16.5t79 46.5l12 -16q-37 -31 -84 -48.5t-102 -17.5q-57 0 -101 19.5t-73.5 52t-45 75t-15.5 88.5q0 58 21 109.5t58.5 89.5t89 60t112.5 22q46 0 88 -15t71 -46t42 -78t0 -110h-460q-6 -64 10.5 -110.5t47.5 -77t72 -45.5t83 -15zM332 489
q-56 0 -100.5 -19t-77 -49t-52.5 -68t-26 -76h441q7 50 -3.5 89.5t-35 66.5t-62.5 41.5t-84 14.5zM342 584l22 103h19l-22 -103h-19z" />
    <glyph glyph-name="gbreve" unicode="&#x11f;" horiz-adv-x="610" 
d="M487 121q11 -75 -3.5 -134t-50.5 -99t-91.5 -61t-125.5 -21q-30 0 -59 5.5t-54.5 16t-46.5 25t-34 31.5l17 14q24 -32 72 -52.5t106 -20.5q74 0 125.5 22.5t82 61t41 88.5t2.5 105q-43 -45 -94 -67.5t-104 -22.5q-56 0 -97 17t-67.5 47t-39.5 69.5t-13 84.5
q0 57 20.5 107.5t58 88.5t90 60t115.5 22q67 0 115 -27t77 -71l19 90h19zM271 31q56 0 109 27t90 72l53 254q-27 51 -77.5 78t-110.5 27q-57 0 -105.5 -20t-83 -55t-54 -82.5t-19.5 -102.5q0 -42 12 -78t36.5 -63t62 -42t87.5 -15zM511 710q-16 -56 -51.5 -88.5t-99.5 -32.5
q-69 0 -99.5 34.5t-22.5 86.5h18q-7 -53 22 -77.5t83 -24.5q51 0 82 23t50 79h18z" />
    <glyph glyph-name="gcircumflex" unicode="&#x11d;" horiz-adv-x="610" 
d="M487 121q11 -75 -3.5 -134t-50.5 -99t-91.5 -61t-125.5 -21q-30 0 -59 5.5t-54.5 16t-46.5 25t-34 31.5l17 14q24 -32 72 -52.5t106 -20.5q74 0 125.5 22.5t82 61t41 88.5t2.5 105q-43 -45 -94 -67.5t-104 -22.5q-56 0 -97 17t-67.5 47t-39.5 69.5t-13 84.5
q0 57 20.5 107.5t58 88.5t90 60t115.5 22q67 0 115 -27t77 -71l19 90h19zM271 31q56 0 109 27t90 72l53 254q-27 51 -77.5 78t-110.5 27q-57 0 -105.5 -20t-83 -55t-54 -82.5t-19.5 -102.5q0 -42 12 -78t36.5 -63t62 -42t87.5 -15zM205 579l191 139l133 -139l-13 -13
l-123 128l-177 -129z" />
    <glyph glyph-name="uni0123" unicode="&#x123;" horiz-adv-x="610" 
d="M487 121q11 -75 -3.5 -134t-50.5 -99t-91.5 -61t-125.5 -21q-30 0 -59 5.5t-54.5 16t-46.5 25t-34 31.5l17 14q24 -32 72 -52.5t106 -20.5q74 0 125.5 22.5t82 61t41 88.5t2.5 105q-43 -45 -94 -67.5t-104 -22.5q-56 0 -97 17t-67.5 47t-39.5 69.5t-13 84.5
q0 57 20.5 107.5t58 88.5t90 60t115.5 22q67 0 115 -27t77 -71l19 90h19zM271 31q56 0 109 27t90 72l53 254q-27 51 -77.5 78t-110.5 27q-57 0 -105.5 -20t-83 -55t-54 -82.5t-19.5 -102.5q0 -42 12 -78t36.5 -63t62 -42t87.5 -15zM355.979 544.967h-20.999l109.993 164.99
h20.999z" />
    <glyph glyph-name="gdotaccent" unicode="&#x121;" horiz-adv-x="610" 
d="M487 121q11 -75 -3.5 -134t-50.5 -99t-91.5 -61t-125.5 -21q-30 0 -59 5.5t-54.5 16t-46.5 25t-34 31.5l17 14q24 -32 72 -52.5t106 -20.5q74 0 125.5 22.5t82 61t41 88.5t2.5 105q-43 -45 -94 -67.5t-104 -22.5q-56 0 -97 17t-67.5 47t-39.5 69.5t-13 84.5
q0 57 20.5 107.5t58 88.5t90 60t115.5 22q67 0 115 -27t77 -71l19 90h19zM271 31q56 0 109 27t90 72l53 254q-27 51 -77.5 78t-110.5 27q-57 0 -105.5 -20t-83 -55t-54 -82.5t-19.5 -102.5q0 -42 12 -78t36.5 -63t62 -42t87.5 -15zM346 584l22 103h19l-22 -103h-19z" />
    <glyph glyph-name="hbar" unicode="&#x127;" horiz-adv-x="581" 
d="M188 710h19l-65 -304q33 44 81 73t113 29q48 0 84.5 -16.5t59 -46.5t30 -72t-3.5 -92l-60 -281h-19l61 285q10 47 3 85t-27.5 64.5t-53 40.5t-74.5 14q-65 0 -116 -34t-87 -91l-77 -364h-19zM77 609l4 19h294l-4 -19h-294z" />
    <glyph glyph-name="hcircumflex" unicode="&#x125;" horiz-adv-x="581" 
d="M188 710h19l-65 -304q33 44 81 73t113 29q48 0 84.5 -16.5t59 -46.5t30 -72t-3.5 -92l-60 -281h-19l61 285q10 47 3 85t-27.5 64.5t-53 40.5t-74.5 14q-65 0 -116 -34t-87 -91l-77 -364h-19zM233 788l192 140l134 -140l-12 -12l-124 129l-180 -130z" />
    <glyph glyph-name="dotlessi" unicode="&#x131;" horiz-adv-x="199" 
d="M143 500h19l-106 -500h-19z" />
    <glyph glyph-name="ibreve" unicode="&#x12d;" horiz-adv-x="199" 
d="M143 500h19l-106 -500h-19zM326 710q-16 -56 -51.5 -88.5t-99.5 -32.5q-69 0 -99.5 34.5t-22.5 86.5h18q-7 -53 22 -77.5t83 -24.5q51 0 82 23t50 79h18z" />
    <glyph glyph-name="imacron" unicode="&#x12b;" horiz-adv-x="199" 
d="M143 500h19l-106 -500h-19zM52 680h278l-5 -19h-278z" />
    <glyph glyph-name="iogonek" unicode="&#x12f;" horiz-adv-x="201" 
d="M145 500h19l-106 -500h-19zM190 710q4 4 11 4t8 -4l-19 -90h-19zM-8 -192q-27 0 -46.5 16.5t-19.5 47.5q0 22 11 43.5t28 39.5t37.5 32t38.5 21l17 -8q-20 -8 -40 -21t-36 -30t-26 -36.5t-10 -39.5q0 -26 17 -36t36 -10q12 0 23 3l-4 -19q-14 -3 -26 -3z" />
    <glyph glyph-name="itilde" unicode="&#x129;" horiz-adv-x="199" 
d="M143 500h19l-106 -500h-19zM9 582q11 45 38 67t57 22q26 0 45 -11t35.5 -24.5t32.5 -24.5t36 -11q28 0 47.5 18.5t29.5 52.5h19q-14 -48 -39.5 -68.5t-56.5 -20.5q-24 0 -42 11t-34 24.5t-33.5 24.5t-39.5 11q-29 0 -47.5 -19t-28.5 -52h-19z" />
    <glyph glyph-name="uni1ECB" unicode="&#x1ecb;" horiz-adv-x="199" 
d="M143 500h19l-106 -500h-19zM188 710q4 4 11 4t8 -4l-19 -90h-19zM-2 -189l22 103h19l-22 -103h-19z" />
    <glyph glyph-name="uni0237" unicode="&#x237;" horiz-adv-x="207" 
d="M-107 -165h8q37 0 60.5 8t38 24t23 41t15.5 60l113 532h19l-116 -548q-8 -36 -19 -62t-29 -42.5t-44.5 -24t-65.5 -7.5h-7z" />
    <glyph glyph-name="jcircumflex" unicode="&#x135;" horiz-adv-x="207" 
d="M-107 -165h8q37 0 60.5 8t38 24t23 41t15.5 60l113 532h19l-116 -548q-8 -36 -19 -62t-29 -42.5t-44.5 -24t-65.5 -7.5h-7zM28 579l191 139l133 -139l-13 -13l-123 128l-177 -129z" />
    <glyph glyph-name="uni0137" unicode="&#x137;" horiz-adv-x="466" 
d="M56 0h-19l151 710h19l-95 -447l348 237h33l-351 -239l274 -261h-28l-276 263zM208 -50h21l-110 -165h-21z" />
    <glyph glyph-name="lacute" unicode="&#x13a;" horiz-adv-x="199" 
d="M188 710h19l-151 -710h-19zM340 920h23l-141 -160h-23z" />
    <glyph glyph-name="lcaron" unicode="&#x13e;" horiz-adv-x="223" 
d="M188 710h19l-151 -710h-19zM337 710l-68 -170h-17l65 170h20z" />
    <glyph glyph-name="uni013C" unicode="&#x13c;" horiz-adv-x="199" 
d="M188 710h19l-151 -710h-19zM27 -50h21l-110 -165h-21z" />
    <glyph glyph-name="ldot" unicode="&#x140;" horiz-adv-x="266" 
d="M188 710h19l-151 -710h-19zM237 318l22 103h19l-22 -103h-19z" />
    <glyph glyph-name="lslash" unicode="&#x142;" horiz-adv-x="296" 
d="M236 710h19l-151 -710h-19zM26 288l285 175l9 -15l-285 -175z" />
    <glyph glyph-name="nacute" unicode="&#x144;" horiz-adv-x="580" 
d="M143 500h19l-20 -93q33 44 81 72.5t112 28.5q48 0 84.5 -16.5t59 -46.5t30 -72t-3.5 -92l-60 -281h-19l61 285q10 48 3 85.5t-27.5 64t-53 40.5t-74.5 14q-64 0 -115 -33t-87 -90l-77 -366h-19zM478 710h23l-141 -160h-23z" />
    <glyph glyph-name="ncaron" unicode="&#x148;" horiz-adv-x="580" 
d="M143 500h19l-20 -93q33 44 81 72.5t112 28.5q48 0 84.5 -16.5t59 -46.5t30 -72t-3.5 -92l-60 -281h-19l61 285q10 48 3 85.5t-27.5 64t-53 40.5t-74.5 14q-64 0 -115 -33t-87 -90l-77 -366h-19zM528 705l-191 -139l-133 139l13 13l123 -128l177 129z" />
    <glyph glyph-name="uni0146" unicode="&#x146;" horiz-adv-x="580" 
d="M143 500h19l-20 -93q33 44 81 72.5t112 28.5q48 0 84.5 -16.5t59 -46.5t30 -72t-3.5 -92l-60 -281h-19l61 285q10 48 3 85.5t-27.5 64t-53 40.5t-74.5 14q-64 0 -115 -33t-87 -90l-77 -366h-19zM229 -50h21l-110 -165h-21z" />
    <glyph glyph-name="oe" unicode="&#x153;" horiz-adv-x="1074" 
d="M973 58q-37 -31 -84 -48.5t-102 -17.5q-91 0 -151.5 49t-79.5 134q-35 -88 -105.5 -135.5t-158.5 -47.5q-57 0 -102 19.5t-75.5 52t-47 75t-16.5 88.5q0 58 21.5 109.5t59 89.5t89 60t111.5 22q91 0 154 -49.5t82 -134.5q16 45 43 79t61.5 57.5t75.5 35.5t85 12
q46 0 88 -15t71 -46t42 -78t0 -110h-460q-1 -8 -1.5 -16t-0.5 -16q0 -52 17.5 -92.5t47 -68t68.5 -41.5t82 -14q51 0 95 16.5t79 46.5zM71 227q0 -51 18.5 -91t49 -68t70 -42.5t82.5 -14.5q55 0 102.5 19.5t83 54.5t56 83t20.5 105q0 51 -18.5 91t-49 68t-70 42.5
t-82.5 14.5q-55 0 -102.5 -19.5t-83 -54.5t-56 -83t-20.5 -105zM832 489q-51 0 -94 -16t-76.5 -44.5t-55.5 -67.5t-30 -84h441q7 49 -3.5 88.5t-35 67t-62.5 42t-84 14.5z" />
    <glyph glyph-name="obreve" unicode="&#x14f;" horiz-adv-x="624" 
d="M573 273q0 -59 -21.5 -110t-59 -89t-89 -60t-111.5 -22q-57 0 -102 19.5t-75.5 52t-47 75t-16.5 88.5q0 58 21.5 109.5t59 89.5t89 60t111.5 22q57 0 102 -19.5t75.5 -52t47 -75t16.5 -88.5zM71 227q0 -51 18.5 -91t49 -68t70 -42.5t82.5 -14.5q55 0 102.5 19.5t83 54.5
t56 83t20.5 105q0 51 -18.5 91t-49 68t-70 42.5t-82.5 14.5q-55 0 -102.5 -19.5t-83 -54.5t-56 -83t-20.5 -105zM506 710q-16 -56 -51.5 -88.5t-99.5 -32.5q-69 0 -99.5 34.5t-22.5 86.5h18q-7 -53 22 -77.5t83 -24.5q51 0 82 23t50 79h18z" />
    <glyph glyph-name="ohungarumlaut" unicode="&#x151;" horiz-adv-x="624" 
d="M573 273q0 -59 -21.5 -110t-59 -89t-89 -60t-111.5 -22q-57 0 -102 19.5t-75.5 52t-47 75t-16.5 88.5q0 58 21.5 109.5t59 89.5t89 60t111.5 22q57 0 102 -19.5t75.5 -52t47 -75t16.5 -88.5zM71 227q0 -51 18.5 -91t49 -68t70 -42.5t82.5 -14.5q55 0 102.5 19.5t83 54.5
t56 83t20.5 105q0 51 -18.5 91t-49 68t-70 42.5t-82.5 14.5q-55 0 -102.5 -19.5t-83 -54.5t-56 -83t-20.5 -105zM556 710h23l-141 -160h-23zM394 710h23l-141 -160h-23z" />
    <glyph glyph-name="omacron" unicode="&#x14d;" horiz-adv-x="624" 
d="M573 273q0 -59 -21.5 -110t-59 -89t-89 -60t-111.5 -22q-57 0 -102 19.5t-75.5 52t-47 75t-16.5 88.5q0 58 21.5 109.5t59 89.5t89 60t111.5 22q57 0 102 -19.5t75.5 -52t47 -75t16.5 -88.5zM71 227q0 -51 18.5 -91t49 -68t70 -42.5t82.5 -14.5q55 0 102.5 19.5t83 54.5
t56 83t20.5 105q0 51 -18.5 91t-49 68t-70 42.5t-82.5 14.5q-55 0 -102.5 -19.5t-83 -54.5t-56 -83t-20.5 -105zM232 680h278l-5 -19h-278z" />
    <glyph glyph-name="uni1ECD" unicode="&#x1ecd;" horiz-adv-x="624" 
d="M573 273q0 -59 -21.5 -110t-59 -89t-89 -60t-111.5 -22q-57 0 -102 19.5t-75.5 52t-47 75t-16.5 88.5q0 58 21.5 109.5t59 89.5t89 60t111.5 22q57 0 102 -19.5t75.5 -52t47 -75t16.5 -88.5zM71 227q0 -51 18.5 -91t49 -68t70 -42.5t82.5 -14.5q55 0 102.5 19.5t83 54.5
t56 83t20.5 105q0 51 -18.5 91t-49 68t-70 42.5t-82.5 14.5q-55 0 -102.5 -19.5t-83 -54.5t-56 -83t-20.5 -105zM242 -189l22 103h19l-22 -103h-19z" />
    <glyph glyph-name="racute" unicode="&#x155;" horiz-adv-x="323" 
d="M143 500h19l-19 -91q30 42 78.5 70.5t111.5 28.5q8 0 16 -0.5t16 -1.5l-5 -20q-7 1 -15 1.5t-16 0.5q-67 0 -118 -35.5t-78 -89.5l-77 -363h-19zM383 710h23l-141 -160h-23z" />
    <glyph glyph-name="rcaron" unicode="&#x159;" horiz-adv-x="323" 
d="M143 500h19l-19 -91q30 42 78.5 70.5t111.5 28.5q8 0 16 -0.5t16 -1.5l-5 -20q-7 1 -15 1.5t-16 0.5q-67 0 -118 -35.5t-78 -89.5l-77 -363h-19zM433 705l-191 -139l-133 139l13 13l123 -128l177 129z" />
    <glyph glyph-name="uni0157" unicode="&#x157;" horiz-adv-x="323" 
d="M143 500h19l-19 -91q30 42 78.5 70.5t111.5 28.5q8 0 16 -0.5t16 -1.5l-5 -20q-7 1 -15 1.5t-16 0.5q-67 0 -118 -35.5t-78 -89.5l-77 -363h-19zM29 -50h21l-110 -165h-21z" />
    <glyph glyph-name="sacute" unicode="&#x15b;" horiz-adv-x="402" 
d="M334 116q0 -26 -10.5 -48.5t-30.5 -39t-48.5 -26.5t-64.5 -10q-37 0 -65.5 9.5t-49.5 25.5t-34 35.5t-20 39.5l17 9q14 -43 53 -71.5t101 -28.5q59 0 95.5 29t36.5 73q0 22 -7 40t-19 32.5t-28 27t-35 23.5l-54 32q-37 22 -59.5 52.5t-22.5 72.5q0 48 37 81.5t102 33.5
q26 0 48.5 -7.5t39.5 -19t29.5 -26t18.5 -28.5l-17 -9q-5 11 -15 23.5t-25 23t-34.5 17.5t-44.5 7q-55 0 -87 -27t-32 -69q0 -39 21.5 -65.5t56.5 -47.5l54 -32q41 -24 67 -56t26 -76zM371 710h23l-141 -160h-23z" />
    <glyph glyph-name="scaron" unicode="&#x161;" horiz-adv-x="402" 
d="M334 116q0 -26 -10.5 -48.5t-30.5 -39t-48.5 -26.5t-64.5 -10q-37 0 -65.5 9.5t-49.5 25.5t-34 35.5t-20 39.5l17 9q14 -43 53 -71.5t101 -28.5q59 0 95.5 29t36.5 73q0 22 -7 40t-19 32.5t-28 27t-35 23.5l-54 32q-37 22 -59.5 52.5t-22.5 72.5q0 48 37 81.5t102 33.5
q26 0 48.5 -7.5t39.5 -19t29.5 -26t18.5 -28.5l-17 -9q-5 11 -15 23.5t-25 23t-34.5 17.5t-44.5 7q-55 0 -87 -27t-32 -69q0 -39 21.5 -65.5t56.5 -47.5l54 -32q41 -24 67 -56t26 -76zM437 705l-191 -139l-133 139l13 13l123 -128l177 129z" />
    <glyph glyph-name="scedilla" unicode="&#x15f;" horiz-adv-x="402" 
d="M334 116q0 -26 -10.5 -48.5t-30.5 -39t-48.5 -26.5t-64.5 -10q-37 0 -65.5 9.5t-49.5 25.5t-34 35.5t-20 39.5l17 9q14 -43 53 -71.5t101 -28.5q59 0 95.5 29t36.5 73q0 22 -7 40t-19 32.5t-28 27t-35 23.5l-54 32q-37 22 -59.5 52.5t-22.5 72.5q0 48 37 81.5t102 33.5
q26 0 48.5 -7.5t39.5 -19t29.5 -26t18.5 -28.5l-17 -9q-5 11 -15 23.5t-25 23t-34.5 17.5t-44.5 7q-55 0 -87 -27t-32 -69q0 -39 21.5 -65.5t56.5 -47.5l54 -32q41 -24 67 -56t26 -76zM181 0h21l-110 -165h-21z" />
    <glyph glyph-name="scircumflex" unicode="&#x15d;" horiz-adv-x="402" 
d="M334 116q0 -26 -10.5 -48.5t-30.5 -39t-48.5 -26.5t-64.5 -10q-37 0 -65.5 9.5t-49.5 25.5t-34 35.5t-20 39.5l17 9q14 -43 53 -71.5t101 -28.5q59 0 95.5 29t36.5 73q0 22 -7 40t-19 32.5t-28 27t-35 23.5l-54 32q-37 22 -59.5 52.5t-22.5 72.5q0 48 37 81.5t102 33.5
q26 0 48.5 -7.5t39.5 -19t29.5 -26t18.5 -28.5l-17 -9q-5 11 -15 23.5t-25 23t-34.5 17.5t-44.5 7q-55 0 -87 -27t-32 -69q0 -39 21.5 -65.5t56.5 -47.5l54 -32q41 -24 67 -56t26 -76zM96 579l191 139l133 -139l-13 -13l-123 128l-177 -129z" />
    <glyph glyph-name="uni0219" unicode="&#x219;" horiz-adv-x="402" 
d="M334 116q0 -26 -10.5 -48.5t-30.5 -39t-48.5 -26.5t-64.5 -10q-37 0 -65.5 9.5t-49.5 25.5t-34 35.5t-20 39.5l17 9q14 -43 53 -71.5t101 -28.5q59 0 95.5 29t36.5 73q0 22 -7 40t-19 32.5t-28 27t-35 23.5l-54 32q-37 22 -59.5 52.5t-22.5 72.5q0 48 37 81.5t102 33.5
q26 0 48.5 -7.5t39.5 -19t29.5 -26t18.5 -28.5l-17 -9q-5 11 -15 23.5t-25 23t-34.5 17.5t-44.5 7q-55 0 -87 -27t-32 -69q0 -39 21.5 -65.5t56.5 -47.5l54 -32q41 -24 67 -56t26 -76zM163 -50h21l-110 -165h-21z" />
    <glyph glyph-name="tcaron" unicode="&#x165;" horiz-adv-x="289" 
d="M56 500h116l30 140l21 10l-32 -150h139l-4 -19h-139l-73 -346q-13 -60 3.5 -88t78.5 -28h31l-4 -19h-28q-69 0 -92 30.5t-8 105.5l73 345h-112v19zM356 710l-68 -170h-17l65 170h20z" />
    <glyph glyph-name="uni0163" unicode="&#x163;" horiz-adv-x="289" 
d="M56 500h116l30 140l21 10l-32 -150h139l-4 -19h-139l-73 -346q-13 -60 3.5 -88t78.5 -28h31l-4 -19h-28q-69 0 -92 30.5t-8 105.5l73 345h-112v19zM122 -50h21l-110 -165h-21z" />
    <glyph glyph-name="uni021B" unicode="&#x21b;" horiz-adv-x="289" 
d="M56 500h116l30 140l21 10l-32 -150h139l-4 -19h-139l-73 -346q-13 -60 3.5 -88t78.5 -28h31l-4 -19h-28q-69 0 -92 30.5t-8 105.5l73 345h-112v19zM122 -50h21l-110 -165h-21z" />
    <glyph glyph-name="ubreve" unicode="&#x16d;" horiz-adv-x="577" 
d="M434 92q-32 -44 -80.5 -72t-111.5 -28q-100 0 -144.5 56t-24.5 153l63 299h19l-63 -299q-10 -44 -4 -79t25.5 -60t52 -38t76.5 -13q66 0 116 33t85 90l78 366h19l-106 -500h-19zM512 710q-16 -56 -51.5 -88.5t-99.5 -32.5q-69 0 -99.5 34.5t-22.5 86.5h18
q-7 -53 22 -77.5t83 -24.5q51 0 82 23t50 79h18z" />
    <glyph glyph-name="uhungarumlaut" unicode="&#x171;" horiz-adv-x="577" 
d="M434 92q-32 -44 -80.5 -72t-111.5 -28q-100 0 -144.5 56t-24.5 153l63 299h19l-63 -299q-10 -44 -4 -79t25.5 -60t52 -38t76.5 -13q66 0 116 33t85 90l78 366h19l-106 -500h-19zM562 710h23l-141 -160h-23zM400 710h23l-141 -160h-23z" />
    <glyph glyph-name="umacron" unicode="&#x16b;" horiz-adv-x="577" 
d="M434 92q-32 -44 -80.5 -72t-111.5 -28q-100 0 -144.5 56t-24.5 153l63 299h19l-63 -299q-10 -44 -4 -79t25.5 -60t52 -38t76.5 -13q66 0 116 33t85 90l78 366h19l-106 -500h-19zM238 680h278l-5 -19h-278z" />
    <glyph glyph-name="uogonek" unicode="&#x173;" horiz-adv-x="577" 
d="M368 -192q-27 0 -46.5 16.5t-19.5 47.5q0 22 11 43.5t28 39.5t37.5 32t38.5 21l17 84q-32 -44 -80.5 -72t-111.5 -28q-100 0 -144.5 56t-24.5 153l63 299h19l-63 -299q-10 -44 -4 -79t25.5 -60t52 -38t76.5 -13q66 0 116 33t85 90l78 366h19l-106 -500q-20 -8 -40 -21
t-36 -30t-26 -36.5t-10 -39.5q0 -26 17 -36t36 -10q12 0 23 3l-4 -19q-14 -3 -26 -3z" />
    <glyph glyph-name="uring" unicode="&#x16f;" horiz-adv-x="577" 
d="M434 92q-32 -44 -80.5 -72t-111.5 -28q-100 0 -144.5 56t-24.5 153l63 299h19l-63 -299q-10 -44 -4 -79t25.5 -60t52 -38t76.5 -13q66 0 116 33t85 90l78 366h19l-106 -500h-19zM454 671q0 -33 -23.5 -56.5t-56.5 -23.5t-56.5 23.5t-23.5 56.5t23.5 56.5t56.5 23.5
t56.5 -23.5t23.5 -56.5zM312 671q0 -26 18 -44.5t44 -18.5t44 18.5t18 44.5t-18 44.5t-44 18.5t-44 -18.5t-18 -44.5z" />
    <glyph glyph-name="utilde" unicode="&#x169;" horiz-adv-x="577" 
d="M434 92q-32 -44 -80.5 -72t-111.5 -28q-100 0 -144.5 56t-24.5 153l63 299h19l-63 -299q-10 -44 -4 -79t25.5 -60t52 -38t76.5 -13q66 0 116 33t85 90l78 366h19l-106 -500h-19zM195 582q11 45 38 67t57 22q26 0 45 -11t35.5 -24.5t32.5 -24.5t36 -11q28 0 47.5 18.5
t29.5 52.5h19q-14 -48 -39.5 -68.5t-56.5 -20.5q-24 0 -42 11t-34 24.5t-33.5 24.5t-39.5 11q-29 0 -47.5 -19t-28.5 -52h-19z" />
    <glyph glyph-name="uni1EE5" unicode="&#x1ee5;" horiz-adv-x="577" 
d="M434 92q-32 -44 -80.5 -72t-111.5 -28q-100 0 -144.5 56t-24.5 153l63 299h19l-63 -299q-10 -44 -4 -79t25.5 -60t52 -38t76.5 -13q66 0 116 33t85 90l78 366h19l-106 -500h-19zM192 -189l22 103h19l-22 -103h-19z" />
    <glyph glyph-name="wacute" unicode="&#x1e83;" horiz-adv-x="737" 
d="M485 -8l-74 461l-268 -461l-76 508h20l66 -453l269 461l73 -462l258 454h23zM563 710h23l-141 -160h-23z" />
    <glyph glyph-name="wcircumflex" unicode="&#x175;" horiz-adv-x="737" 
d="M485 -8l-74 461l-268 -461l-76 508h20l66 -453l269 461l73 -462l258 454h23zM288 579l191 139l133 -139l-13 -13l-123 128l-177 -129z" />
    <glyph glyph-name="wdieresis" unicode="&#x1e85;" horiz-adv-x="737" 
d="M485 -8l-74 461l-268 -461l-76 508h20l66 -453l269 461l73 -462l258 454h23zM539 584l22 103h19l-22 -103h-19zM319 584l22 103h19l-22 -103h-19z" />
    <glyph glyph-name="wgrave" unicode="&#x1e81;" horiz-adv-x="737" 
d="M485 -8l-74 461l-268 -461l-76 508h20l66 -453l269 461l73 -462l258 454h23zM347 710h19l73 -160h-19z" />
    <glyph glyph-name="ycircumflex" unicode="&#x177;" horiz-adv-x="515" 
d="M194 9l-131 491h21l124 -470l329 470h24l-480 -684h-23zM168 579l191 139l133 -139l-13 -13l-123 128l-177 -129z" />
    <glyph glyph-name="ygrave" unicode="&#x1ef3;" horiz-adv-x="515" 
d="M194 9l-131 491h21l124 -470l329 470h24l-480 -684h-23zM227 710h19l73 -160h-19z" />
    <glyph glyph-name="uni0233" unicode="&#x233;" horiz-adv-x="515" 
d="M194 9l-131 491h21l124 -470l329 470h24l-480 -684h-23zM200 680h278l-5 -19h-278z" />
    <glyph glyph-name="zacute" unicode="&#x17a;" horiz-adv-x="472" 
d="M450 481h-349l4 19h395l-488 -481h377l-4 -19h-423zM445 710h23l-141 -160h-23z" />
    <glyph glyph-name="zcaron" unicode="&#x17e;" horiz-adv-x="472" 
d="M450 481h-349l4 19h395l-488 -481h377l-4 -19h-423zM495 705l-191 -139l-133 139l13 13l123 -128l177 129z" />
    <glyph glyph-name="zdotaccent" unicode="&#x17c;" horiz-adv-x="472" 
d="M450 481h-349l4 19h395l-488 -481h377l-4 -19h-423zM311 584l22 103h19l-22 -103h-19z" />
    <glyph glyph-name="ellipsis" unicode="&#x2026;" horiz-adv-x="522" 
d="M54 103h19l-22 -103h-19zM228 103h19l-22 -103h-19zM402 103h19l-22 -103h-19z" />
    <glyph glyph-name="endash" unicode="&#x2013;" horiz-adv-x="561" 
d="M83 280h408l-4 -19h-408z" />
    <glyph glyph-name="emdash" unicode="&#x2014;" horiz-adv-x="869" 
d="M83 280h716l-4 -19h-716z" />
    <glyph glyph-name="guilsinglleft" unicode="&#x2039;" horiz-adv-x="284" 
d="M57 251l193 212l13 -13l-183 -202l96 -203l-17 -8z" />
    <glyph glyph-name="guilsinglright" unicode="&#x203a;" horiz-adv-x="282" 
d="M226 249l-193 -212l-13 13l183 202l-96 203l17 8z" />
    <glyph glyph-name="quoteleft" unicode="&#x2018;" horiz-adv-x="194" 
d="M157 566l-21 -97h-19l22 104l83 137h21z" />
    <glyph glyph-name="quoteright" unicode="&#x2019;" horiz-adv-x="197" 
d="M190 613l21 97h19l-22 -104l-83 -137h-21z" />
    <glyph glyph-name="quotedblleft" unicode="&#x201c;" horiz-adv-x="378" 
d="M157 566l-21 -97h-19l22 104l83 137h21zM341 566l-21 -97h-19l22 104l83 137h21z" />
    <glyph glyph-name="quotedblright" unicode="&#x201d;" horiz-adv-x="381" 
d="M190 613l21 97h19l-22 -104l-83 -137h-21zM374 613l21 97h19l-22 -104l-83 -137h-21z" />
    <glyph glyph-name="quotesinglbase" unicode="&#x201a;" horiz-adv-x="182" 
d="M40 6l21 97h19l-22 -104l-83 -137h-21z" />
    <glyph glyph-name="quotedblbase" unicode="&#x201e;" horiz-adv-x="366" 
d="M40 6l21 97h19l-22 -104l-83 -137h-21zM224 6l21 97h19l-22 -104l-83 -137h-21z" />
    <glyph glyph-name="bullet" unicode="&#x2022;" horiz-adv-x="445" 
d="M232 166q-28 0 -53 10.5t-43.5 29t-29 43.5t-10.5 53t10.5 53t29 43.5t43.5 29t53 10.5t53 -10.5t43.5 -29t29 -43.5t10.5 -53t-10.5 -53t-29 -43.5t-43.5 -29t-53 -10.5z" />
    <glyph glyph-name="minus" unicode="&#x2212;" horiz-adv-x="590" 
d="M79 280h440v-19h-440v19z" />
    <glyph glyph-name="Euro" unicode="&#x20ac;" horiz-adv-x="696" 
d="M55 277h132q-3 24 -3 48q0 29 4 57t12 54h-116l9 19h113q19 57 55 105t85.5 83t111.5 55t134 20q40 0 77 -8t69 -22l-9 -17q-29 13 -64 20.5t-73 7.5q-66 0 -124.5 -18t-105.5 -50.5t-82 -77t-54 -98.5h388l-9 -19h-385q-8 -26 -12 -54t-4 -57q0 -24 3 -48h313l-10 -19
h-300q9 -49 32.5 -94t61.5 -79t90.5 -54t120.5 -20q48 0 92 9l-4 -20q-21 -4 -43 -6t-45 -2q-65 0 -120.5 19.5t-97.5 55t-69.5 84t-37.5 107.5h-144z" />
    <glyph glyph-name="uniFB01" unicode="&#xfb01;" horiz-adv-x="491" 
d="M178 481h-122l4 19h128q-21 12 -35 36.5t-14 52.5q0 27 11.5 49.5t32 38t48.5 24.5t61 9h91l-4 -18h-83q-63 0 -100 -28t-37 -76q0 -35 24.5 -61.5t71.5 -26.5h84l-4 -19h-138l-102 -481h-19zM435 500h19l-106 -500h-19zM480 710q4 4 11 4t8 -4l-19 -90h-19z" />
    <glyph glyph-name="uniFB02" unicode="&#xfb02;" horiz-adv-x="492" 
d="M178 481h-122l4 19h128q-21 12 -35 36.5t-14 52.5q0 27 11.5 49.5t32 38t48.5 24.5t61 9h91l-4 -18h-83q-63 0 -100 -28t-37 -76q0 -35 24.5 -61.5t71.5 -26.5h84l-4 -19h-138l-102 -481h-19zM481 710h19l-151 -710h-19z" />
    <glyph glyph-name="glyph329" horiz-adv-x="159" 
d="M164 710q4 4 11 4t8 -4l-19 -90h-19z" />
    <glyph glyph-name="breve" unicode="&#x2d8;" 
d="M268 710q-16 -56 -51.5 -88.5t-99.5 -32.5q-69 0 -99.5 34.5t-22.5 86.5h18q-7 -53 22 -77.5t83 -24.5q51 0 82 23t50 79h18z" />
    <glyph glyph-name="caron" unicode="&#x2c7;" 
d="M287 705l-191 -139l-133 139l13 13l123 -128l177 129z" />
    <glyph glyph-name="circumflex" unicode="&#x2c6;" 
d="M-38 579l191 139l133 -139l-13 -13l-123 128l-177 -129z" />
    <glyph glyph-name="dotaccent" unicode="&#x2d9;" 
d="M103 584l22 103h19l-22 -103h-19z" />
    <glyph glyph-name="hungarumlaut" unicode="&#x2dd;" 
d="M262 710h23l-141 -160h-23zM100 710h23l-141 -160h-23z" />
    <glyph glyph-name="glyph335" 
d="M5 -50h21l-110 -165h-21z" />
    <glyph glyph-name="ogonek" unicode="&#x2db;" 
d="M-32 -192q-27 0 -46.5 16.5t-19.5 47.5q0 22 11 43.5t28 39.5t37.5 32t38.5 21l17 -8q-20 -8 -40 -21t-36 -30t-26 -36.5t-10 -39.5q0 -26 17 -36t36 -10q12 0 23 3l-4 -19q-14 -3 -26 -3z" />
    <glyph glyph-name="ring" unicode="&#x2da;" 
d="M210 671q0 -33 -23.5 -56.5t-56.5 -23.5t-56.5 23.5t-23.5 56.5t23.5 56.5t56.5 23.5t56.5 -23.5t23.5 -56.5zM68 671q0 -26 18 -44.5t44 -18.5t44 18.5t18 44.5t-18 44.5t-44 18.5t-44 -18.5t-18 -44.5z" />
    <glyph glyph-name="tilde" unicode="&#x2dc;" 
d="M-49 582q11 45 38 67t57 22q26 0 45 -11t35.5 -24.5t32.5 -24.5t36 -11q28 0 47.5 18.5t29.5 52.5h19q-14 -48 -39.5 -68.5t-56.5 -20.5q-24 0 -42 11t-34 24.5t-33.5 24.5t-39.5 11q-29 0 -47.5 -19t-28.5 -52h-19z" />
    <glyph glyph-name="glyph339" 
d="M164 710l-68 -170h-17l65 170h20z" />
    <glyph glyph-name="glyph340" 
d="M23 584l22 103h19l-22 -103h-19zM183 584l22 103h19l-22 -103h-19z" />
    <glyph glyph-name="glyph341" 
d="M-30 609l4 19h294l-4 -19h-294z" />
    <glyph glyph-name="glyph342" 
d="M-84 275l285 175l9 -15l-285 -175z" />
    <glyph glyph-name="glyph343" 
d="M225 913h23l-140 -145h-23z" />
    <glyph glyph-name="glyph344" 
d="M310 902q-16 -56 -51.5 -88.5t-99.5 -32.5q-69 0 -100 35t-22 86h18q-6 -54 22.5 -78t82.5 -24q51 0 82 23t50 79h18z" />
    <glyph glyph-name="glyph345" 
d="M343 910l-191 -139l-134 140l12 12l124 -129l180 130z" />
    <glyph glyph-name="glyph346" 
d="M-7 788l192 140l134 -140l-12 -12l-124 129l-180 -130z" />
    <glyph glyph-name="glyph347" 
d="M117 913h19l79 -145h-19z" />
    <glyph glyph-name="glyph348" 
d="M327 913h23l-140 -145h-23zM125 913h23l-140 -145h-23z" />
    <glyph glyph-name="glyph349" 
d="M29 850h278l-4 -19h-278z" />
    <glyph glyph-name="glyph350" 
d="M-32 -192q-27 0 -46.5 16.5t-19.5 47.5q0 22 11 43.5t28 39.5t37.5 32t38.5 21l17 -8q-20 -8 -40 -21t-36 -30t-26 -36.5t-10 -39.5q0 -26 17 -36t36 -10q12 0 23 3l-4 -19q-14 -3 -26 -3z" />
    <glyph glyph-name="glyph351" 
d="M-98 376h332l-4 -19h-332z" />
    <glyph glyph-name="glyph352" 
d="M-116 256l349 209l10 -15l-349 -209z" />
    <glyph glyph-name="glyph353" 
d="M-230 553h670l-4 -19h-670z" />
    </font>
</defs>
</svg>
