<?xml version="1.0" standalone="no"?>
<!DOCTYPE svg PUBLIC "-//W3C//DTD SVG 1.1//EN" "http://www.w3.org/Graphics/SVG/1.1/DTD/svg11.dtd" >
<svg xmlns="http://www.w3.org/2000/svg" xmlns:xlink="http://www.w3.org/1999/xlink" version="1.1">
<metadata>
Created by Christoph Koeberlin (http://christoph.koe.berlin)
Copyright (c) 2018 Swiss Typefaces Sarl. All rights reserved.
</metadata>
<defs>
<font id="Font" horiz-adv-x="620" >
  <font-face 
    font-family="Font"
    font-weight="250"
    font-stretch="normal"
    units-per-em="1000"
    panose-1="2 11 2 4 0 0 0 0 0 0"
    ascent="800"
    descent="-200"
    x-height="500"
    cap-height="710"
    bbox="-335 -215 1075 928"
    underline-thickness="19"
    underline-position="-99"
    unicode-range="U+000D-FB02"
  />
<missing-glyph horiz-adv-x="500" 
d="M0 710h500v-710h-500v710zM250 371l216 320h-432zM19 28l221 327l-221 327v-654zM481 28v654l-220 -327zM466 19l-216 320l-216 -320h432z" />
    <glyph glyph-name=".notdef" horiz-adv-x="500" 
d="M0 710h500v-710h-500v710zM250 371l216 320h-432zM19 28l221 327l-221 327v-654zM481 28v654l-220 -327zM466 19l-216 320l-216 -320h432z" />
    <glyph glyph-name="glyph1" horiz-adv-x="0" 
 />
    <glyph glyph-name="uni000D" unicode="&#xd;" horiz-adv-x="282" 
 />
    <glyph glyph-name="space" unicode=" " horiz-adv-x="282" 
 />
    <glyph glyph-name="exclam" unicode="!" horiz-adv-x="232" 
d="M105 508v202h22v-202l-4 -345h-15zM117 -4q-7 0 -10 4v102h19v-102q-3 -4 -9 -4z" />
    <glyph glyph-name="quotedbl" unicode="&#x22;" horiz-adv-x="379" 
d="M79 710h19v-225h-19v225zM281 710h19v-225h-19v225z" />
    <glyph glyph-name="numbersign" unicode="#" horiz-adv-x="749" 
d="M132 0l70 224h-165v19h171l73 231h-164v19h170l68 217h19l-68 -217h229l68 217h18l-68 -217h160v-19h-166l-72 -231h157v-19h-163l-70 -224h-19l70 224h-228l-70 -224h-20zM456 243l73 231h-229l-72 -231h228z" />
    <glyph glyph-name="dollar" unicode="$" horiz-adv-x="498" 
d="M234 -8q-61 2 -111.5 31t-81.5 71l16 13q29 -41 77.5 -68.5t107.5 -27.5q91 0 144 42t53 116q0 33 -12.5 59.5t-34 48t-51 38.5t-63.5 32l-75 32q-81 35 -113.5 80t-32.5 103q0 33 14 60.5t38.5 48t56.5 33t68 14.5v80h19v-80q48 -2 91.5 -21.5t73.5 -57.5l-16 -13
q-27 38 -67.5 55.5t-90.5 17.5q-32 0 -62.5 -9.5t-53.5 -27.5t-37 -43.5t-14 -56.5q0 -54 30.5 -95t106.5 -73l75 -32q37 -16 68.5 -34.5t54 -41.5t35 -51.5t12.5 -64.5t-13 -68t-39 -56t-64.5 -38.5t-89.5 -15.5v-80h-19v80z" />
    <glyph glyph-name="percent" unicode="%" horiz-adv-x="439" 
d="M219 443q-29 0 -53.5 10.5t-43.5 28.5t-29.5 43t-10.5 55t10.5 55.5t29.5 43.5t43.5 28.5t53.5 10.5t54 -10.5t44 -28.5t29.5 -43.5t10.5 -55.5t-10.5 -55t-29.5 -43t-44 -28.5t-54 -10.5zM219 461q26 0 48 9t37.5 25t24.5 37.5t9 47.5q0 52 -33.5 86t-85.5 34
q-26 0 -47.5 -9t-37 -25t-24.5 -38t-9 -48t9 -47.5t24.5 -37.5t37 -25t47.5 -9zM99 366h240v-19h-240v19zM219 -8q-29 0 -53.5 10.5t-43.5 28.5t-29.5 43t-10.5 55t10.5 55.5t29.5 43.5t43.5 28.5t53.5 10.5t54 -10.5t44 -28.5t29.5 -43.5t10.5 -55.5t-10.5 -55t-29.5 -43
t-44 -28.5t-54 -10.5zM219 10q26 0 48 9t37.5 25t24.5 37.5t9 47.5q0 52 -33.5 86t-85.5 34q-26 0 -47.5 -9t-37 -25t-24.5 -38t-9 -48t9 -47.5t24.5 -37.5t37 -25t47.5 -9z" />
    <glyph glyph-name="ampersand" unicode="&#x26;" horiz-adv-x="632" 
d="M256 -8q-48 0 -89 17.5t-71 48t-46.5 71t-16.5 86.5t16.5 86.5t46.5 71t71 48t89 17.5q33 0 68.5 -10.5t67.5 -35.5l-168 318h336v-19h-305l368 -691h-22l-123 231q3 -46 -11.5 -89t-43.5 -76.5t-71.5 -53.5t-95.5 -20zM256 11q44 0 81.5 16t64.5 44t42 65t15 79
q0 39 -14 75.5t-40.5 65t-64 46t-84.5 17.5q-44 0 -81.5 -16t-64.5 -44t-42 -65t-15 -79t15 -79t42 -65t64.5 -44t81.5 -16z" />
    <glyph glyph-name="quotesingle" unicode="'" horiz-adv-x="177" 
d="M79 710h19v-225h-19v225z" />
    <glyph glyph-name="parenleft" unicode="(" horiz-adv-x="223" 
d="M178.989 -108q-26.999 56 -45.4971 107.5q-18.499 51.5 -30.498 101q-12 49.5 -16.999 98.5q-5 49 -5 102q0 52 5 101.5q4.99902 49.5 16.999 99q11.999 49.5 30.498 101q18.498 51.5 45.4971 107.5l-17.999 8q-27.998 -60 -46.9971 -110t-30.498 -98.5t-16.499 -99
t-5 -109.5t5 -109.5t16.499 -99t30.498 -98.5t46.9971 -110z" />
    <glyph glyph-name="parenright" unicode=")" horiz-adv-x="223" 
d="M44 -108q27 56 45.5 107.5t30.5 101t17 98.5t5 102q0 52 -5 101.5t-17 99t-30.5 101t-45.5 107.5l18 8q28 -60 47 -110t30.5 -98.5t16.5 -99t5 -109.5t-5 -109.5t-16.5 -99t-30.5 -98.5t-47 -110z" />
    <glyph glyph-name="asterisk" unicode="*" horiz-adv-x="416" 
d="M111 443l82 113l-135 48l6 19l135 -47v134h19v-133l135 44l6 -18l-134 -44l83 -113l-17 -12l-82 113l-82 -114z" />
    <glyph glyph-name="plus" unicode="+" horiz-adv-x="590" 
d="M75 280h211v201h19v-201h210v-19h-210v-207h-19v207h-211v19z" />
    <glyph glyph-name="comma" unicode="," horiz-adv-x="181" 
d="M83 0v103h19v-104l-54 -137h-19z" />
    <glyph glyph-name="hyphen" unicode="-" horiz-adv-x="379" 
d="M76 280h227v-19h-227v19z" />
    <glyph glyph-name="period" unicode="." horiz-adv-x="169" 
d="M75 103h19v-103h-19v103z" />
    <glyph glyph-name="slash" unicode="/" horiz-adv-x="441" 
d="M385 710h21l-348 -710h-22z" />
    <glyph glyph-name="zero" unicode="0" horiz-adv-x="840" 
d="M420 -8q-77 0 -143 27.5t-115 76.5t-77 115.5t-28 143.5t28 143.5t77 115t115 76.5t143 28q76 0 142.5 -28t115.5 -76.5t77 -115t28 -143.5t-28 -143.5t-77 -115.5t-115.5 -76.5t-142.5 -27.5zM420 11q71 0 133.5 26t109 72t73.5 109t27 137t-27 137t-73.5 109t-109 72
t-133.5 26t-133.5 -26t-109 -72t-73.5 -109t-27 -137t27 -137t73.5 -109t109 -72t133.5 -26z" />
    <glyph glyph-name="one" unicode="1" horiz-adv-x="244" 
d="M112 699l19 19v-718h-19v699z" />
    <glyph glyph-name="two" unicode="2" horiz-adv-x="512" 
d="M379 375q-28 -23 -58.5 -33t-65.5 -10q-40 0 -75.5 14.5t-61.5 40.5t-41.5 61.5t-15.5 76.5t15.5 76.5t41.5 61.5t61.5 40.5t75.5 14.5t75.5 -14.5t61.5 -40.5t41.5 -61.5t15.5 -76.5q0 -56 -25.5 -107t-82.5 -114l-260 -285h383v-19h-425zM255 351q36 0 67.5 13.5
t55.5 36.5t37.5 55t13.5 69t-13.5 69t-37.5 55t-55.5 36.5t-67.5 13.5t-67.5 -13.5t-55.5 -36.5t-37.5 -55t-13.5 -69t13.5 -69t37.5 -55t55.5 -36.5t67.5 -13.5z" />
    <glyph glyph-name="three" unicode="3" horiz-adv-x="503" 
d="M226 -8q-63 0 -111 23t-78 65l17 11q28 -38 72.5 -59t99.5 -21q41 0 78.5 13t66 38.5t45 62.5t16.5 86q0 51 -17 88.5t-47 62.5t-69.5 37t-84.5 12h-39l197 280h-310v19h346l-197 -280q114 0 177.5 -58.5t63.5 -160.5q0 -51 -17.5 -91.5t-48 -69t-71.5 -43.5t-89 -15z
" />
    <glyph glyph-name="four" unicode="4" horiz-adv-x="601" 
d="M445 208h-428l447 510v-491h103v-19h-103v-208h-19v208zM445 227v441l-387 -441h387z" />
    <glyph glyph-name="five" unicode="5" horiz-adv-x="512" 
d="M238 -8q-63 0 -110 22.5t-77 63.5l16 12q28 -38 71.5 -58.5t99.5 -20.5q41 0 78.5 13.5t66 39.5t45 64t16.5 87t-16.5 87t-45 64t-66 39.5t-78.5 13.5q-38 0 -73.5 -11t-61.5 -31l-15 13v320h338v-19h-319v-288q32 19 65.5 27t65.5 8q48 0 89 -15.5t71.5 -45t48 -70.5
t17.5 -92t-17.5 -92t-48 -70.5t-71.5 -45t-89 -15.5z" />
    <glyph glyph-name="six" unicode="6" horiz-adv-x="535" 
d="M276 -8q-48 0 -89 17.5t-71 48t-46.5 71t-16.5 86.5q0 32 8.5 62.5t23.5 54.5l233 378h22l-191 -310q35 23 66.5 30.5t60.5 7.5q48 0 89 -17.5t71 -48t46.5 -71t16.5 -86.5t-16.5 -86.5t-46.5 -71t-71 -48t-89 -17.5zM276 11q44 0 81.5 16t64.5 44t42 65t15 79t-15 79
t-42 65t-64.5 44t-81.5 16t-81.5 -16t-64.5 -44t-42 -65t-15 -79t15 -79t42 -65t64.5 -44t81.5 -16z" />
    <glyph glyph-name="seven" unicode="7" horiz-adv-x="483" 
d="M447 691h-422v19h454l-377 -710h-23z" />
    <glyph glyph-name="eight" unicode="8" horiz-adv-x="554" 
d="M277 -8q-48 0 -89 17.5t-71 48t-46.5 71t-16.5 86.5q0 39 12 73.5t33.5 63t51.5 49t67 30.5q-42 17 -68 54t-26 84q0 31 12 58t32.5 47t48.5 32t60 12q33 0 61 -12t48.5 -32t32 -47t11.5 -58q0 -47 -25.5 -84.5t-67.5 -54.5q36 -9 66 -29.5t51.5 -49t33.5 -63t12 -73.5
q0 -46 -16.5 -86.5t-46.5 -71t-71 -48t-89 -17.5zM277 699q-29 0 -53 -10t-42 -28t-28 -41.5t-10 -50.5t10 -51t28 -41.5t42 -28t53 -10.5q28 0 52.5 10.5t42.5 28t28.5 41.5t10.5 51t-10.5 50.5t-28.5 41.5t-42.5 28t-52.5 10zM277 11q44 0 81.5 16t64.5 44t42 65t15 79
t-15 79t-42 65t-64.5 44t-81.5 16t-81.5 -16t-64.5 -44t-42 -65t-15 -79t15 -79t42 -65t64.5 -44t81.5 -16z" />
    <glyph glyph-name="nine" unicode="9" horiz-adv-x="535" 
d="M386 310q-35 -23 -66.5 -30.5t-60.5 -7.5q-48 0 -89 17.5t-71 48t-46.5 71t-16.5 86.5t16.5 86.5t46.5 71t71 48t89 17.5t89 -17.5t71 -48t46.5 -71t16.5 -86.5q0 -32 -8.5 -62.5t-23.5 -54.5l-233 -378h-22zM259 291q44 0 81.5 16t64.5 44t42 65t15 79t-15 79t-42 65
t-64.5 44t-81.5 16t-81.5 -16t-64.5 -44t-42 -65t-15 -79t15 -79t42 -65t64.5 -44t81.5 -16z" />
    <glyph glyph-name="colon" unicode=":" horiz-adv-x="169" 
d="M75 500h19v-103h-19v103zM75 103h19v-103h-19v103z" />
    <glyph glyph-name="semicolon" unicode=";" horiz-adv-x="214" 
d="M105 500h19v-103h-19v103zM105 0v103h19v-104l-54 -137h-19z" />
    <glyph glyph-name="equal" unicode="=" horiz-adv-x="590" 
d="M70 399h449v-19h-449v19zM70 161h449v-19h-449v19z" />
    <glyph glyph-name="question" unicode="?" horiz-adv-x="534" 
d="M219 302h36q41 0 77 15.5t63 42.5t42.5 63t15.5 77t-15.5 77t-42.5 63t-63 43t-77 16t-76.5 -16t-62.5 -43t-42.5 -63t-15.5 -77h-20q0 45 17 84.5t46.5 69.5t69 47t84.5 17t84.5 -17t69.5 -47t47 -69.5t17 -84.5t-17 -84.5t-47 -69t-69.5 -46.5t-84.5 -17h-36v19z
M241 -4q-7 0 -10 4v102h19v-102q-3 -4 -9 -4z" />
    <glyph glyph-name="at" unicode="@" horiz-adv-x="833" 
d="M410 -8q-82 0 -147.5 26.5t-112 73.5t-71.5 112t-25 142q0 79 30 147t83.5 118t127 78.5t159.5 28.5q78 0 140.5 -22t106.5 -62.5t68 -98t24 -128.5q0 -58 -14.5 -103t-37.5 -76t-53 -47t-60 -16q-38 0 -61 17.5t-31 43.5q-25 -24 -60.5 -42.5t-85.5 -18.5
q-40 0 -70 13.5t-50 36.5t-30 53t-10 62q0 44 16.5 84.5t45 71.5t68 49.5t86.5 18.5q43 0 77.5 -17.5t55.5 -45.5l9 42h18l-52 -248q-5 -24 -1 -43t14.5 -32t26.5 -20t35 -7q27 0 53 15t46.5 43.5t33 70t12.5 94.5q0 72 -24.5 127t-67.5 92t-102.5 56t-128.5 19
q-83 0 -152 -28t-119.5 -76t-78.5 -113t-28 -139q0 -72 24 -133t68 -105.5t106 -70t139 -25.5q53 0 105 10t97 32l7 -18q-47 -21 -102.5 -31.5t-106.5 -10.5zM249 330q0 -30 9.5 -57t28 -47t45.5 -31.5t62 -11.5q44 0 80.5 20t57.5 46q-1 14 2 31l40 187q-20 34 -55.5 51.5
t-73.5 17.5q-42 0 -77.5 -16.5t-62 -44.5t-41.5 -65.5t-15 -79.5z" />
    <glyph glyph-name="A" unicode="A" horiz-adv-x="672" 
d="M336 718l332 -718h-21l-115 249h-392l-115 -249h-21zM523 268l-187 406l-187 -406h374z" />
    <glyph glyph-name="B" unicode="B" horiz-adv-x="627" 
d="M113 710h215q49 0 85.5 -14.5t60.5 -38.5t36 -55.5t12 -66.5q0 -60 -28.5 -103t-85.5 -62q32 -5 61.5 -18.5t52.5 -36t36.5 -55t13.5 -74.5q0 -47 -16 -81.5t-45.5 -58t-71 -35t-92.5 -11.5h-234v710zM335 376q41 0 72 12t52 33t32 50t11 63q0 33 -11 61.5t-32.5 49.5
t-53 33.5t-72.5 12.5h-201v-315h203zM349 19q94 0 148.5 42t54.5 125q0 37 -12.5 68t-37.5 54t-63.5 36t-90.5 13h-216v-338h217z" />
    <glyph glyph-name="C" unicode="C" horiz-adv-x="724" 
d="M418 -7q-77 0 -142.5 27.5t-114.5 76.5t-76.5 115.5t-27.5 143.5t27.5 143.5t76.5 115t114.5 76.5t142.5 28q84 0 155 -32.5t113 -85.5l-15 -13q-42 51 -108.5 81.5t-144.5 30.5q-71 0 -133 -26t-108.5 -72t-73 -109t-26.5 -137t26.5 -137t73 -109t108.5 -72t133 -26
q78 0 144.5 30.5t108.5 81.5l15 -13q-42 -53 -113 -85.5t-155 -32.5z" />
    <glyph glyph-name="D" unicode="D" horiz-adv-x="751" 
d="M113 710h197q86 0 157 -27t121.5 -74.5t78.5 -113t28 -142.5t-28 -142t-78.5 -112t-121.5 -73t-157 -26h-197v710zM309 19q82 0 149.5 25t115.5 70t74.5 106.5t26.5 134.5t-26.5 134.5t-74.5 106.5t-115.5 70t-149.5 25h-177v-672h177z" />
    <glyph glyph-name="E" unicode="E" horiz-adv-x="547" 
d="M113 710h389v-19h-370v-315h310v-19h-310v-338h370v-19h-389v710z" />
    <glyph glyph-name="F" unicode="F" horiz-adv-x="511" 
d="M113 710h384v-19h-365v-315h295v-19h-295v-357h-19v710z" />
    <glyph glyph-name="G" unicode="G" horiz-adv-x="751" 
d="M419 -8q-77 0 -143 27.5t-115 76.5t-77 115.5t-28 143.5t27.5 143.5t76 115t114 76.5t142.5 28q82 0 149.5 -30.5t106.5 -78.5l-15 -13q-38 47 -100.5 75t-140.5 28q-71 0 -133 -26t-108 -72t-72.5 -109t-26.5 -137t27 -137t73.5 -109t109 -72t133.5 -26q78 0 142.5 24
t101.5 58v264h-257l9 19h267v-294q-18 -17 -45 -33t-61 -29t-73.5 -20.5t-83.5 -7.5z" />
    <glyph glyph-name="H" unicode="H" horiz-adv-x="766" 
d="M113 710h19v-334h502v334h19v-710h-19v357h-502v-357h-19v710z" />
    <glyph glyph-name="I" unicode="I" horiz-adv-x="245" 
d="M113 710h19v-710h-19v710z" />
    <glyph glyph-name="J" unicode="J" horiz-adv-x="521" 
d="M222 -8q-41 0 -77 12t-62 36t-41 60.5t-15 86.5h19q0 -84 45.5 -130t130.5 -46t130.5 46t45.5 130v523h19v-523q0 -50 -15 -86.5t-41.5 -60.5t-62 -36t-76.5 -12z" />
    <glyph glyph-name="K" unicode="K" horiz-adv-x="581" 
d="M113 710h19v-710h-19v710zM133 346l386 364h27l-386 -362l424 -348h-30z" />
    <glyph glyph-name="L" unicode="L" horiz-adv-x="517" 
d="M113 710h19v-691h370v-19h-389v710z" />
    <glyph glyph-name="M" unicode="M" horiz-adv-x="880" 
d="M113 718l327 -413l327 413v-718h-19v662l-308 -388l-308 388v-662h-19v718z" />
    <glyph glyph-name="N" unicode="N" horiz-adv-x="792" 
d="M132 665v-665h-19v718l547 -673v665h19v-718z" />
    <glyph glyph-name="O" unicode="O" horiz-adv-x="838" 
d="M419 -8q-77 0 -143 27.5t-115 76.5t-77 115.5t-28 143.5t28 143.5t77 115t115 76.5t143 28q76 0 142.5 -28t115.5 -76.5t77 -115t28 -143.5t-28 -143.5t-77 -115.5t-115.5 -76.5t-142.5 -27.5zM419 11q71 0 133.5 26t109 72t73.5 109t27 137t-27 137t-73.5 109t-109 72
t-133.5 26t-133.5 -26t-109 -72t-73.5 -109t-27 -137t27 -137t73.5 -109t109 -72t133.5 -26z" />
    <glyph glyph-name="P" unicode="P" horiz-adv-x="561" 
d="M113 710h195q55 0 96 -15t67.5 -41t39.5 -60t13 -73t-13 -73t-39.5 -60t-67 -41t-95.5 -15h-177v-332h-19v710zM312 351q48 0 84 13t60 36t36 54t12 67t-12 67t-36 54t-60 36t-84 13h-180v-340h180z" />
    <glyph glyph-name="Q" unicode="Q" horiz-adv-x="862" 
d="M419 -8q-77 0 -143 27.5t-115 76.5t-77 115.5t-28 143.5t28 143.5t77 115t115 76.5t143 28q76 0 142.5 -28t115.5 -76.5t77 -115t28 -143.5q0 -75 -26 -139t-72 -112l98 -98l-14 -14l-98 98q-48 -47 -112.5 -72.5t-138.5 -25.5zM419 11q69 0 130 24t107 69l-94 95l14 14
l94 -95q43 45 67.5 105.5t24.5 131.5q0 74 -27 137t-73.5 109t-109 72t-133.5 26t-133.5 -26t-109 -72t-73.5 -109t-27 -137t27 -137t73.5 -109t109 -72t133.5 -26z" />
    <glyph glyph-name="R" unicode="R" horiz-adv-x="596" 
d="M113 710h186q54 0 94 -13.5t65.5 -37.5t38 -56.5t12.5 -71.5q0 -38 -12 -71t-37.5 -57t-66 -37.5t-96.5 -13.5l292 -352h-24l-291 352h-142v-352h-19v710zM304 371q94 0 139.5 44t45.5 116t-45.5 116t-139.5 44h-172v-320h172z" />
    <glyph glyph-name="S" unicode="S" horiz-adv-x="509" 
d="M249 -8q-63 0 -116 29t-85 73l16 13q29 -41 77.5 -68.5t107.5 -27.5q91 0 144 42t53 116q0 33 -12.5 59.5t-34 48t-51 38.5t-63.5 32l-75 32q-81 35 -113.5 80t-32.5 103q0 34 15.5 63t41.5 49.5t60.5 32t72.5 11.5q50 0 95 -20t76 -59l-16 -13q-27 38 -67.5 55.5
t-90.5 17.5q-32 0 -62.5 -9.5t-53.5 -27.5t-37 -43.5t-14 -56.5q0 -54 30.5 -95t106.5 -73l75 -32q37 -16 68.5 -34.5t54 -41.5t35 -51.5t12.5 -64.5q0 -38 -14 -70.5t-41.5 -56.5t-68 -37.5t-93.5 -13.5z" />
    <glyph glyph-name="T" unicode="T" horiz-adv-x="493" 
d="M237 691h-222v19h463v-19h-222v-691h-19v691z" />
    <glyph glyph-name="U" unicode="U" horiz-adv-x="724" 
d="M362 -8q-124 0 -192 68.5t-68 199.5v450h19v-450q0 -126 65 -187.5t176 -61.5t176 61.5t65 187.5v450h19v-450q0 -131 -68 -199.5t-192 -68.5z" />
    <glyph glyph-name="V" unicode="V" horiz-adv-x="650" 
d="M13 710h21l291 -671l291 671h21l-312 -718z" />
    <glyph glyph-name="W" unicode="W" horiz-adv-x="874" 
d="M24 710h21l191 -656l201 664l201 -664l191 656h21l-212 -718l-201 659l-201 -659z" />
    <glyph glyph-name="X" unicode="X" horiz-adv-x="610" 
d="M293 370l-260 340h24l248 -324l248 324h24l-260 -340l283 -370h-24l-271 354l-271 -354h-24z" />
    <glyph glyph-name="Y" unicode="Y" horiz-adv-x="577" 
d="M279 302l-259 408h22l247 -388l246 388h22l-259 -408v-302h-19v302z" />
    <glyph glyph-name="Z" unicode="Z" horiz-adv-x="559" 
d="M495 691h-435v19h471l-489 -691h490v-19h-527z" />
    <glyph glyph-name="bracketleft" unicode="[" horiz-adv-x="266" 
d="M243.985 -115v19h-119.993v792h119.993v19h-138.992v-830h138.992z" />
    <glyph glyph-name="bracketright" unicode="]" horiz-adv-x="266" 
d="M22 -115v19h120v792h-120v19h139v-830h-139z" />
    <glyph glyph-name="underscore" unicode="_" horiz-adv-x="515" 
d="M48 0h419v-19h-419v19z" />
    <glyph glyph-name="grave" unicode="`" horiz-adv-x="0" 
d="M-120 710h21l108 -160h-21z" />
    <glyph glyph-name="a" unicode="a" 
d="M511 82q-35 -42 -86.5 -66t-114.5 -24q-57 0 -105 20.5t-82 55.5t-53 82t-19 100t19 100t53 82t82 55.5t105 20.5q63 0 114.5 -24t86.5 -66v82h19v-500h-19v82zM310 11q64 0 116.5 27.5t84.5 72.5v276q-32 47 -84.5 74.5t-116.5 27.5q-52 0 -96 -18.5t-75.5 -51
t-49.5 -76t-18 -93.5t18 -93.5t49.5 -76t75.5 -51t96 -18.5z" />
    <glyph glyph-name="b" unicode="b" 
d="M90 710h19v-292q34 42 86 66t115 24q57 0 105 -20.5t82 -55.5t53 -82t19 -100t-19 -100t-53 -82t-82 -55.5t-105 -20.5q-63 0 -115 24t-86 66v-82h-19v710zM310 489q-65 0 -117 -27.5t-84 -74.5v-276q32 -45 84.5 -72.5t116.5 -27.5q52 0 96 18.5t75.5 51t49.5 76
t18 93.5t-18 93.5t-49.5 76t-75.5 51t-96 18.5z" />
    <glyph glyph-name="c" unicode="c" horiz-adv-x="533" 
d="M310 -8q-57 0 -105 20.5t-82 55.5t-53 82t-19 100t19 100t53 82t82 55.5t105 20.5t104 -20t82 -55l-15 -15q-32 33 -75 52t-96 19q-52 0 -96 -18.5t-75.5 -51t-49.5 -76t-18 -93.5t18 -93.5t49.5 -76t75.5 -51t96 -18.5q53 0 96 19t75 51l14 -15q-34 -35 -81 -54.5
t-104 -19.5z" />
    <glyph glyph-name="d" unicode="d" 
d="M511 0v82q-34 -42 -86 -66t-115 -24q-57 0 -105 20.5t-82 55.5t-53 82t-19 100t19 100t53 82t82 55.5t105 20.5q63 0 115 -24t86 -66v292h19v-710h-19zM310 489q-52 0 -96 -18.5t-75.5 -51t-49.5 -76t-18 -93.5t18 -93.5t49.5 -76t75.5 -51t96 -18.5q64 0 116.5 27.5
t84.5 72.5v276q-32 47 -84 74.5t-117 27.5z" />
    <glyph glyph-name="e" unicode="e" horiz-adv-x="576" 
d="M310 -8q-57 0 -105 20.5t-82 55.5t-53 82t-19 100t18 100t51 82t79 55.5t101 20.5q51 0 94 -17.5t73.5 -50t48 -78.5t17.5 -103h-462v-9q0 -50 18 -93.5t49.5 -76t75.5 -51t96 -18.5q55 0 102 20.5t79 52.5l14 -15q-34 -35 -84.5 -56t-110.5 -21zM300 489
q-47 0 -87 -16.5t-70 -45t-48.5 -67t-22.5 -83.5h440q-8 104 -65 158t-147 54z" />
    <glyph glyph-name="f" unicode="f" horiz-adv-x="303" 
d="M139 481h-132v19h130q-27 14 -43 38.5t-16 56.5q0 52 37 83.5t105 31.5h75v-18h-83q-54 0 -84 -27.5t-30 -69.5q0 -41 30 -68t84 -27h84v-19h-138v-481h-19v481z" />
    <glyph glyph-name="g" unicode="g" horiz-adv-x="616" 
d="M296 -194q-60 0 -117 21t-91 56l14 15q32 -32 85.5 -52.5t108.5 -20.5q108 0 168 48t60 134q0 32 -6 57t-14 40q-35 -42 -87 -67t-116 -25q-54 0 -99.5 19t-78.5 52t-52 78.5t-19 98.5t19 98.5t52 78.5t78.5 52t99.5 19q63 0 114.5 -24t86.5 -66v82h19v-379
q9 -26 16 -52.5t7 -62.5q0 -54 -21 -92t-55.5 -62t-79 -35t-92.5 -11zM301 31q63 0 116 27.5t85 73.5v256q-32 46 -85 73.5t-116 27.5q-48 0 -90 -17.5t-73 -48t-48.5 -72.5t-17.5 -91t17.5 -91t48.5 -72.5t73 -48t90 -17.5z" />
    <glyph glyph-name="h" unicode="h" horiz-adv-x="581" 
d="M90 710h19v-316q24 48 72 81t117 33q100 0 150 -56t50 -146v-306h-19v299q0 90 -47 140t-134 50q-72 0 -120.5 -40t-68.5 -101v-348h-19v710z" />
    <glyph glyph-name="i" unicode="i" horiz-adv-x="199" 
d="M90 500h19v-500h-19v500zM90 710q3 4 10 4q6 0 9 -4v-90h-19v90z" />
    <glyph glyph-name="j" unicode="j" horiz-adv-x="207" 
d="M-19 -165h8q33 0 54 8t33.5 24t17 41t4.5 60v532h19v-548q0 -72 -30 -104t-99 -32h-7v19zM98 710q3 4 10 4q6 0 9 -4v-90h-19v90z" />
    <glyph glyph-name="k" unicode="k" horiz-adv-x="471" 
d="M109 253l296 247h30l-296 -245l333 -255h-32zM109 710v-710h-19v710h19z" />
    <glyph glyph-name="l" unicode="l" horiz-adv-x="199" 
d="M90 710h19v-710h-19v710z" />
    <glyph glyph-name="m" unicode="m" horiz-adv-x="889" 
d="M438 299q0 41 -9.5 75.5t-29 60t-49.5 40t-72 14.5q-64 0 -106.5 -37t-62.5 -103v-349h-19v500h19v-102q23 51 65 80.5t104 29.5q72 0 113.5 -34t56.5 -92q21 58 67 92t112 34q46 0 80 -14.5t56 -41.5t32.5 -64t10.5 -82v-306h-19v299q0 41 -9.5 75.5t-29 60t-49.5 40
t-72 14.5q-67 0 -111 -40t-61 -109q1 -8 1.5 -16.5t0.5 -17.5v-306h-19v299z" />
    <glyph glyph-name="n" unicode="n" horiz-adv-x="581" 
d="M90 500h19v-106q24 48 72 81t117 33q100 0 150 -56t50 -146v-306h-19v299q0 90 -47 140t-134 50q-72 0 -120.5 -40t-68.5 -101v-348h-19v500z" />
    <glyph glyph-name="o" unicode="o" 
d="M310 -8q-57 0 -105 20.5t-82 55.5t-53 82t-19 100t19 100t53 82t82 55.5t105 20.5t105 -20.5t82 -55.5t53 -82t19 -100t-19 -100t-53 -82t-82 -55.5t-105 -20.5zM310 11q52 0 96 18.5t75.5 51t49.5 76t18 93.5t-18 93.5t-49.5 76t-75.5 51t-96 18.5t-96 -18.5t-75.5 -51
t-49.5 -76t-18 -93.5t18 -93.5t49.5 -76t75.5 -51t96 -18.5z" />
    <glyph glyph-name="p" unicode="p" 
d="M109 500v-82q34 42 86 66t115 24q57 0 105 -20.5t82 -55.5t53 -82t19 -100t-19 -100t-53 -82t-82 -55.5t-105 -20.5q-63 0 -115 24t-86 66v-266h-19v684h19zM310 11q52 0 96 18.5t75.5 51t49.5 76t18 93.5t-18 93.5t-49.5 76t-75.5 51t-96 18.5q-64 0 -116.5 -27.5
t-84.5 -72.5v-276q32 -47 84 -74.5t117 -27.5z" />
    <glyph glyph-name="q" unicode="q" 
d="M530 -184h-19v266q-34 -42 -86 -66t-115 -24q-57 0 -105 20.5t-82 55.5t-53 82t-19 100t19 100t53 82t82 55.5t105 20.5q63 0 115 -24t86 -66v82h19v-684zM310 11q65 0 117 27.5t84 74.5v276q-32 45 -84.5 72.5t-116.5 27.5q-52 0 -96 -18.5t-75.5 -51t-49.5 -76
t-18 -93.5t18 -93.5t49.5 -76t75.5 -51t96 -18.5z" />
    <glyph glyph-name="r" unicode="r" horiz-adv-x="322" 
d="M90 500h19v-96q20 45 62 74.5t107 29.5q8 0 16 -0.5t16 -1.5v-20q-8 1 -16 1.5t-16 0.5q-70 0 -112.5 -38.5t-56.5 -96.5v-353h-19v500z" />
    <glyph glyph-name="s" unicode="s" horiz-adv-x="404" 
d="M206 -8q-35 0 -62.5 10.5t-48 27t-34 36t-20.5 38.5l19 8q20 -47 55 -74t91 -27q63 0 99.5 29.5t36.5 78.5q0 26 -8 45.5t-23.5 34.5t-37 26t-48.5 21l-53 19q-59 21 -83.5 53.5t-24.5 74.5q0 51 37 83t101 32q48 0 79 -20.5t48 -49.5l-18 -10q-14 25 -38 43t-71 18
q-59 0 -88.5 -27t-29.5 -70t26.5 -69t78.5 -45l56 -20q59 -22 88 -54.5t29 -83.5q0 -26 -10.5 -49.5t-30.5 -41t-49 -27.5t-66 -10z" />
    <glyph glyph-name="t" unicode="t" horiz-adv-x="298" 
d="M250 0q-69 0 -99 32t-30 104v345h-109l-5 19h114v141l19 9v-150h147l-5 -19h-142v-329q0 -36 5 -61t18 -41t35.5 -23.5t58.5 -7.5h27v-19h-34z" />
    <glyph glyph-name="u" unicode="u" horiz-adv-x="581" 
d="M472 106q-25 -49 -72.5 -81.5t-116.5 -32.5q-100 0 -150 56t-50 146v306h19v-299q0 -90 47 -140t134 -50q71 0 120 40t69 100v349h19v-500h-19v106z" />
    <glyph glyph-name="v" unicode="v" horiz-adv-x="514" 
d="M9 500h22l226 -466l227 466h21l-248 -508z" />
    <glyph glyph-name="w" unicode="w" horiz-adv-x="740" 
d="M16 500h22l161 -454l171 462l171 -462l161 454h22l-182 -505h-2l-170 458l-170 -458h-2z" />
    <glyph glyph-name="x" unicode="x" horiz-adv-x="498" 
d="M237 257l-208 243h24l196 -229l196 229h23l-207 -242l220 -258h-24l-208 244l-209 -244h-23z" />
    <glyph glyph-name="y" unicode="y" horiz-adv-x="516" 
d="M247 8l-236 492h22l224 -470l229 470h21l-333 -684h-23z" />
    <glyph glyph-name="z" unicode="z" horiz-adv-x="475" 
d="M406 481h-353v19h395l-390 -481h381v-19h-423z" />
    <glyph glyph-name="braceleft" unicode="{" horiz-adv-x="263" 
d="M240.985 -115v19h-4q-33.998 0 -55.9961 7.5q-21.999 7.5 -34.998 23.5t-17.499 41.5t-4.5 60.5v149q0 48 -8.99902 75.5q-9 27.5 -40.998 39.5q31.998 13 40.998 40.5q8.99902 27.5 8.99902 75.5v146q0 35 4.5 60t16.999 41.5t34.498 24q21.998 7.5 55.9961 7.5h5v19h-7
q-68.9951 0 -98.9932 -32q-29.999 -32 -29.999 -104v-171q0 -20 -1.99902 -37.5q-2 -17.5 -9 -31q-6.99902 -13.5 -20.499 -21q-13.499 -7.5 -36.4971 -7.5h-2v-19h2q22.998 0 36.4971 -8q13.5 -8 20.499 -21q7 -13 9 -31q1.99902 -18 1.99902 -37v-174q0 -72 29.999 -104
q29.998 -32 98.9932 -32h7z" />
    <glyph glyph-name="bar" unicode="|" horiz-adv-x="229" 
d="M105 710h19v-894h-19v894z" />
    <glyph glyph-name="braceright" unicode="}" horiz-adv-x="263" 
d="M22 -115v19h4q34 0 56 7.5t35 23.5t17.5 41.5t4.5 60.5v149q0 48 9 75.5t41 39.5q-32 13 -41 40.5t-9 75.5v146q0 35 -4.5 60t-17 41.5t-34.5 24t-56 7.5h-5v19h7q69 0 99 -32t30 -104v-171q0 -20 2 -37.5t9 -31t20.5 -21t36.5 -7.5h2v-19h-2q-23 0 -36.5 -8t-20.5 -21
t-9 -31t-2 -37v-174q0 -72 -30 -104t-99 -32h-7z" />
    <glyph glyph-name="uni00A0" unicode="&#xa0;" horiz-adv-x="282" 
 />
    <glyph glyph-name="exclamdown" unicode="&#xa1;" horiz-adv-x="216" 
d="M109 504q6 0 9 -4v-102h-19v102q3 4 10 4zM115 337l4 -345v-176h-22v176l3 345h15z" />
    <glyph glyph-name="sterling" unicode="&#xa3;" horiz-adv-x="536" 
d="M54 19h146v331h-146v19h145q-45 23 -73.5 66t-28.5 99q0 39 14.5 72.5t39.5 58.5t58.5 39t71.5 14t71.5 -14t58.5 -39t39.5 -58.5t14.5 -72.5h-20q0 35 -13 65.5t-35 52.5t-52 34.5t-64 12.5t-64 -12.5t-52 -34.5t-35 -52.5t-13 -65.5t13 -65.5t35 -52.5t52 -34.5
t64 -12.5h97v-19h-159v-331h279v-19h-444v19z" />
    <glyph glyph-name="yen" unicode="&#xa5;" horiz-adv-x="599" 
d="M119 321h159l-247 389h22l247 -388l246 388h22l-247 -389h159v-19h-171v-82h171v-19h-171v-201h-19v201h-171v19h171v82h-171v19z" />
    <glyph glyph-name="dieresis" unicode="&#xa8;" horiz-adv-x="0" 
d="M101 584v103h19v-103h-19zM-119 584v103h19v-103h-19z" />
    <glyph glyph-name="copyright" unicode="&#xa9;" horiz-adv-x="834" 
d="M417 -7q-75 0 -140.5 28.5t-115 78t-78 115t-28.5 140.5t28.5 140.5t78 115t115 78t140.5 28.5t140.5 -28.5t115 -78t78 -115t28.5 -140.5t-28.5 -140.5t-78 -115t-115 -78t-140.5 -28.5zM418 11q71 0 133.5 27t109 73.5t73 109.5t26.5 134t-27 133.5t-73.5 109.5
t-108.5 74.5t-133 27.5t-133.5 -27.5t-109.5 -74.5t-74 -109.5t-27 -133.5t27 -134t73.5 -109.5t109 -73.5t134.5 -27zM432 184q-36 0 -67 13t-54.5 36t-36.5 54.5t-13 67.5q0 37 13 68.5t36.5 54.5t54.5 36t67 13q42 0 75.5 -16t53.5 -42l-14 -12q-19 23 -49 37.5t-66 14.5
q-32 0 -59.5 -11.5t-48 -32.5t-32 -49t-11.5 -61t11.5 -61t32 -48.5t48 -32t59.5 -11.5q36 0 66 14.5t49 37.5l14 -12q-20 -26 -53.5 -42t-75.5 -16z" />
    <glyph glyph-name="guillemotleft" unicode="&#xab;" horiz-adv-x="471" 
d="M246 250l147 213l15 -11l-139 -202l139 -202l-15 -11zM56 250l147 213l15 -11l-139 -202l139 -202l-15 -11z" />
    <glyph glyph-name="uni00AD" unicode="&#xad;" horiz-adv-x="379" 
d="M76 282h227v-23h-227v23z" />
    <glyph glyph-name="macron" unicode="&#xaf;" horiz-adv-x="0" 
d="M-139 680h278v-19h-278v19z" />
    <glyph glyph-name="degree" unicode="&#xb0;" horiz-adv-x="356" 
d="M178 470q-25 0 -47.5 9.5t-39 26t-26 39t-9.5 47.5t9.5 47.5t26 39t39 26t47.5 9.5t47.5 -9.5t39 -26t26 -39t9.5 -47.5t-9.5 -47.5t-26 -39t-39 -26t-47.5 -9.5zM178 488q21 0 40 8t33.5 22.5t22.5 33.5t8 40t-8 40t-22.5 33.5t-33.5 22.5t-40 8t-40 -8t-33.5 -22.5
t-22.5 -33.5t-8 -40t8 -40t22.5 -33.5t33.5 -22.5t40 -8z" />
    <glyph glyph-name="acute" unicode="&#xb4;" horiz-adv-x="0" 
d="M119.992 710h-20.998l-107.993 -160h20.998z" />
    <glyph glyph-name="periodcentered" unicode="&#xb7;" horiz-adv-x="169" 
d="M75 301h19v-103h-19v103z" />
    <glyph glyph-name="cedilla" unicode="&#xb8;" horiz-adv-x="0" 
d="M19 0h21l-110 -165h-21z" />
    <glyph glyph-name="guillemotright" unicode="&#xbb;" horiz-adv-x="471" 
d="M253 48l139 202l-139 202l15 11l147 -213l-147 -213zM63 48l139 202l-139 202l15 11l147 -213l-147 -213z" />
    <glyph glyph-name="questiondown" unicode="&#xbf;" horiz-adv-x="515" 
d="M269 500q3 4 9 4q7 0 10 -4v-102h-19v102zM264 -194q-45 0 -84.5 17t-69.5 47t-47 69.5t-17 84.5t17 84.5t47 69t69.5 46.5t84.5 17h36v-19h-36q-41 0 -77 -16t-63 -43t-42.5 -63t-15.5 -76q0 -41 15.5 -77t42.5 -63t63 -43t77 -16q40 0 76 16t63 43t42.5 63t15.5 77h20
q0 -45 -17 -84.5t-46.5 -69.5t-69 -47t-84.5 -17z" />
    <glyph glyph-name="Agrave" unicode="&#xc0;" horiz-adv-x="672" 
d="M336 718l332 -718h-21l-115 249h-392l-115 -249h-21zM523 268l-187 406l-187 -406h374zM215 913h21l110 -145h-21z" />
    <glyph glyph-name="Aacute" unicode="&#xc1;" horiz-adv-x="672" 
d="M336 718l332 -718h-21l-115 249h-392l-115 -249h-21zM523 268l-187 406l-187 -406h374zM456.972 913h-20.998l-109.993 -145h20.998z" />
    <glyph glyph-name="Acircumflex" unicode="&#xc2;" horiz-adv-x="672" 
d="M336 718l332 -718h-21l-115 249h-392l-115 -249h-21zM523 268l-187 406l-187 -406h374zM172 789l164 139l164 -139l-11 -13l-153 129l-153 -129z" />
    <glyph glyph-name="Atilde" unicode="&#xc3;" horiz-adv-x="672" 
d="M336 718l332 -718h-21l-115 249h-392l-115 -249h-21zM523 268l-187 406l-187 -406h374zM178 813q8 37 28 58t50 21q25 0 45.5 -11t39 -24t37 -24t38.5 -11q28 0 42.5 18t19.5 52h19l-2 -10q-8 -38 -28 -58.5t-51 -20.5q-23 0 -42.5 11t-38 24t-38 24t-41.5 11
q-29 0 -42 -18.5t-19 -51.5h-19z" />
    <glyph glyph-name="Adieresis" unicode="&#xc4;" horiz-adv-x="672" 
d="M336 718l332 -718h-21l-115 249h-392l-115 -249h-21zM523 268l-187 406l-187 -406h374zM437 788v103h19v-103h-19zM217 788v103h19v-103h-19z" />
    <glyph glyph-name="Aring" unicode="&#xc5;" horiz-adv-x="672" 
d="M336 718l332 -718h-21l-115 249h-392l-115 -249h-21zM523 268l-187 406l-187 -406h374zM336 756q-33 0 -56.5 23.5t-23.5 56.5t23.5 56.5t56.5 23.5t56.5 -23.5t23.5 -56.5t-23.5 -56.5t-56.5 -23.5zM336 773q26 0 44 18.5t18 44.5t-18 44.5t-44 18.5t-44 -18.5
t-18 -44.5t18 -44.5t44 -18.5z" />
    <glyph glyph-name="AE" unicode="&#xc6;" horiz-adv-x="1055" 
d="M11 0l322 696l-6 14h391l9 -19h-370l145 -315h319l9 -19h-319l155 -338h371l9 -19h-392l-115 249h-392l-115 -249h-21zM530 268l-187 406l-187 -406h374z" />
    <glyph glyph-name="Ccedilla" unicode="&#xc7;" horiz-adv-x="724" 
d="M418 -7q-77 0 -142.5 27.5t-114.5 76.5t-76.5 115.5t-27.5 143.5t27.5 143.5t76.5 115t114.5 76.5t142.5 28q84 0 155 -32.5t113 -85.5l-15 -13q-42 51 -108.5 81.5t-144.5 30.5q-71 0 -133 -26t-108.5 -72t-73 -109t-26.5 -137t26.5 -137t73 -109t108.5 -72t133 -26
q78 0 144.5 30.5t108.5 81.5l15 -13q-42 -53 -113 -85.5t-155 -32.5zM423 0h21l-110 -165h-21z" />
    <glyph glyph-name="Egrave" unicode="&#xc8;" horiz-adv-x="547" 
d="M113 710h389v-19h-370v-315h310v-19h-310v-338h370v-19h-389v710zM195 913h21l110 -145h-21z" />
    <glyph glyph-name="Eacute" unicode="&#xc9;" horiz-adv-x="547" 
d="M113 710h389v-19h-370v-315h310v-19h-310v-338h370v-19h-389v710zM436.974 913h-20.999l-109.993 -145h20.999z" />
    <glyph glyph-name="Ecircumflex" unicode="&#xca;" horiz-adv-x="547" 
d="M113 710h389v-19h-370v-315h310v-19h-310v-338h370v-19h-389v710zM152 789l164 139l164 -139l-11 -13l-153 129l-153 -129z" />
    <glyph glyph-name="Edieresis" unicode="&#xcb;" horiz-adv-x="547" 
d="M113 710h389v-19h-370v-315h310v-19h-310v-338h370v-19h-389v710zM417 788v103h19v-103h-19zM197 788v103h19v-103h-19z" />
    <glyph glyph-name="Igrave" unicode="&#xcc;" horiz-adv-x="245" 
d="M113 710h19v-710h-19v710zM1 913h21l110 -145h-21z" />
    <glyph glyph-name="Iacute" unicode="&#xcd;" horiz-adv-x="245" 
d="M113 710h19v-710h-19v710zM242.985 913h-20.999l-109.993 -145h20.999z" />
    <glyph glyph-name="Icircumflex" unicode="&#xce;" horiz-adv-x="245" 
d="M113 710h19v-710h-19v710zM-42 789l164 139l164 -139l-11 -13l-153 129l-153 -129z" />
    <glyph glyph-name="Idieresis" unicode="&#xcf;" horiz-adv-x="245" 
d="M113 710h19v-710h-19v710zM223 788v103h19v-103h-19zM3 788v103h19v-103h-19z" />
    <glyph glyph-name="Eth" unicode="&#xd0;" horiz-adv-x="762" 
d="M124 710h197q86 0 157 -27t121.5 -74.5t78.5 -113t28 -142.5t-28 -142t-78.5 -112t-121.5 -73t-157 -26h-197v710zM320 19q82 0 149.5 25t115.5 70t74.5 106.5t26.5 134.5t-26.5 134.5t-74.5 106.5t-115.5 70t-149.5 25h-177v-672h177zM4 377h332v-19h-332v19z" />
    <glyph glyph-name="Ntilde" unicode="&#xd1;" horiz-adv-x="792" 
d="M132 665v-665h-19v718l547 -673v665h19v-718zM248 813q8 37 28 58t50 21q25 0 45.5 -11t39 -24t37 -24t38.5 -11q28 0 42.5 18t19.5 52h19l-2 -10q-8 -38 -28 -58.5t-51 -20.5q-23 0 -42.5 11t-38 24t-38 24t-41.5 11q-29 0 -42 -18.5t-19 -51.5h-19z" />
    <glyph glyph-name="Ograve" unicode="&#xd2;" horiz-adv-x="838" 
d="M419 -8q-77 0 -143 27.5t-115 76.5t-77 115.5t-28 143.5t28 143.5t77 115t115 76.5t143 28q76 0 142.5 -28t115.5 -76.5t77 -115t28 -143.5t-28 -143.5t-77 -115.5t-115.5 -76.5t-142.5 -27.5zM419 11q71 0 133.5 26t109 72t73.5 109t27 137t-27 137t-73.5 109t-109 72
t-133.5 26t-133.5 -26t-109 -72t-73.5 -109t-27 -137t27 -137t73.5 -109t109 -72t133.5 -26zM298 913h21l110 -145h-21z" />
    <glyph glyph-name="Oacute" unicode="&#xd3;" horiz-adv-x="838" 
d="M419 -8q-77 0 -143 27.5t-115 76.5t-77 115.5t-28 143.5t28 143.5t77 115t115 76.5t143 28q76 0 142.5 -28t115.5 -76.5t77 -115t28 -143.5t-28 -143.5t-77 -115.5t-115.5 -76.5t-142.5 -27.5zM419 11q71 0 133.5 26t109 72t73.5 109t27 137t-27 137t-73.5 109t-109 72
t-133.5 26t-133.5 -26t-109 -72t-73.5 -109t-27 -137t27 -137t73.5 -109t109 -72t133.5 -26zM539.967 913h-20.998l-109.994 -145h20.999z" />
    <glyph glyph-name="Ocircumflex" unicode="&#xd4;" horiz-adv-x="838" 
d="M419 -8q-77 0 -143 27.5t-115 76.5t-77 115.5t-28 143.5t28 143.5t77 115t115 76.5t143 28q76 0 142.5 -28t115.5 -76.5t77 -115t28 -143.5t-28 -143.5t-77 -115.5t-115.5 -76.5t-142.5 -27.5zM419 11q71 0 133.5 26t109 72t73.5 109t27 137t-27 137t-73.5 109t-109 72
t-133.5 26t-133.5 -26t-109 -72t-73.5 -109t-27 -137t27 -137t73.5 -109t109 -72t133.5 -26zM255 789l164 139l164 -139l-11 -13l-153 129l-153 -129z" />
    <glyph glyph-name="Otilde" unicode="&#xd5;" horiz-adv-x="838" 
d="M419 -8q-77 0 -143 27.5t-115 76.5t-77 115.5t-28 143.5t28 143.5t77 115t115 76.5t143 28q76 0 142.5 -28t115.5 -76.5t77 -115t28 -143.5t-28 -143.5t-77 -115.5t-115.5 -76.5t-142.5 -27.5zM419 11q71 0 133.5 26t109 72t73.5 109t27 137t-27 137t-73.5 109t-109 72
t-133.5 26t-133.5 -26t-109 -72t-73.5 -109t-27 -137t27 -137t73.5 -109t109 -72t133.5 -26zM261 813q8 37 28 58t50 21q25 0 45.5 -11t39 -24t37 -24t38.5 -11q28 0 42.5 18t19.5 52h19l-2 -10q-8 -38 -28 -58.5t-51 -20.5q-23 0 -42.5 11t-38 24t-38 24t-41.5 11
q-29 0 -42 -18.5t-19 -51.5h-19z" />
    <glyph glyph-name="Odieresis" unicode="&#xd6;" horiz-adv-x="838" 
d="M419 -8q-77 0 -143 27.5t-115 76.5t-77 115.5t-28 143.5t28 143.5t77 115t115 76.5t143 28q76 0 142.5 -28t115.5 -76.5t77 -115t28 -143.5t-28 -143.5t-77 -115.5t-115.5 -76.5t-142.5 -27.5zM419 11q71 0 133.5 26t109 72t73.5 109t27 137t-27 137t-73.5 109t-109 72
t-133.5 26t-133.5 -26t-109 -72t-73.5 -109t-27 -137t27 -137t73.5 -109t109 -72t133.5 -26zM520 788v103h19v-103h-19zM300 788v103h19v-103h-19z" />
    <glyph glyph-name="multiply" unicode="&#xd7;" horiz-adv-x="590" 
d="M135 125l146 146l-149 149l14 14l149 -149l142 142l13 -14l-141 -141l148 -149l-14 -14l-148 149l-147 -147z" />
    <glyph glyph-name="Oslash" unicode="&#xd8;" horiz-adv-x="838" 
d="M127 -46l74 107q-21 16 -40 35q-49 49 -77 115.5t-28 143.5t28 143.5t77 115t115 76.5t143 28q76 0 142 -28q32 -13 59 -31l76 108l15 -11l-76 -108q22 -16 42 -35q49 -48 77 -114.5t28 -143.5t-28 -143.5t-77 -115.5t-115.5 -76.5t-142.5 -27.5q-77 0 -143 27
q-32 13 -59 31l-75 -107zM419 11q71 0 133.5 26t109 72t73.5 109t27 137t-27 137t-74 109q-17 17 -37 31l-396 -566q27 -17 57 -29q63 -26 134 -26zM552 673q-62 26 -133 26t-133.5 -26t-109 -72t-73.5 -109t-27 -137t27 -137t73 -109q17 -17 37 -32l396 566q-27 17 -57 30z
" />
    <glyph glyph-name="Ugrave" unicode="&#xd9;" horiz-adv-x="724" 
d="M362 -8q-124 0 -192 68.5t-68 199.5v450h19v-450q0 -126 65 -187.5t176 -61.5t176 61.5t65 187.5v450h19v-450q0 -131 -68 -199.5t-192 -68.5zM241 913h21l110 -145h-21z" />
    <glyph glyph-name="Uacute" unicode="&#xda;" horiz-adv-x="724" 
d="M362 -8q-124 0 -192 68.5t-68 199.5v450h19v-450q0 -126 65 -187.5t176 -61.5t176 61.5t65 187.5v450h19v-450q0 -131 -68 -199.5t-192 -68.5zM482.971 913h-20.999l-109.993 -145h20.999z" />
    <glyph glyph-name="Ucircumflex" unicode="&#xdb;" horiz-adv-x="724" 
d="M362 -8q-124 0 -192 68.5t-68 199.5v450h19v-450q0 -126 65 -187.5t176 -61.5t176 61.5t65 187.5v450h19v-450q0 -131 -68 -199.5t-192 -68.5zM198 789l164 139l164 -139l-11 -13l-153 129l-153 -129z" />
    <glyph glyph-name="Udieresis" unicode="&#xdc;" horiz-adv-x="724" 
d="M362 -8q-124 0 -192 68.5t-68 199.5v450h19v-450q0 -126 65 -187.5t176 -61.5t176 61.5t65 187.5v450h19v-450q0 -131 -68 -199.5t-192 -68.5zM463 788v103h19v-103h-19zM243 788v103h19v-103h-19z" />
    <glyph glyph-name="Yacute" unicode="&#xdd;" horiz-adv-x="577" 
d="M279 302l-259 408h22l247 -388l246 388h22l-259 -408v-302h-19v302zM409.975 913h-20.998l-109.993 -145h20.998z" />
    <glyph glyph-name="Thorn" unicode="&#xde;" horiz-adv-x="573" 
d="M113 710h19v-158h176q55 0 96 -15t67.5 -41t39.5 -60t13 -73t-13 -73t-39.5 -60t-67 -41t-95.5 -15h-177v-174h-19v710zM132 533v-340h180q48 0 84 13t60 36t36 54t12 67t-12 67t-36 54t-60 36t-84 13h-180z" />
    <glyph glyph-name="germandbls" unicode="&#xdf;" horiz-adv-x="526" 
d="M470 45q0 43 -15.5 81.5t-44 67t-69 45t-91.5 16.5v18l155 208h-296v-481h-19v574q0 72 30 104t99 32h28v-19h-21q-36 0 -58.5 -7.5t-35.5 -23.5t-18 -41t-5 -61v-58h333l-169 -227q48 -4 87.5 -22.5t68.5 -49t45 -70.5t16 -86q0 -48 -17.5 -89.5t-49 -72.5t-75.5 -49
t-98 -18v19q51 0 91.5 16.5t69 45t44 67t15.5 81.5z" />
    <glyph glyph-name="agrave" unicode="&#xe0;" 
d="M511 82q-35 -42 -86.5 -66t-114.5 -24q-57 0 -105 20.5t-82 55.5t-53 82t-19 100t19 100t53 82t82 55.5t105 20.5q63 0 114.5 -24t86.5 -66v82h19v-500h-19v82zM310 11q64 0 116.5 27.5t84.5 72.5v276q-32 47 -84.5 74.5t-116.5 27.5q-52 0 -96 -18.5t-75.5 -51
t-49.5 -76t-18 -93.5t18 -93.5t49.5 -76t75.5 -51t96 -18.5zM199 710h21l108 -160h-21z" />
    <glyph glyph-name="aacute" unicode="&#xe1;" 
d="M511 82q-35 -42 -86.5 -66t-114.5 -24q-57 0 -105 20.5t-82 55.5t-53 82t-19 100t19 100t53 82t82 55.5t105 20.5q63 0 114.5 -24t86.5 -66v82h19v-500h-19v82zM310 11q64 0 116.5 27.5t84.5 72.5v276q-32 47 -84.5 74.5t-116.5 27.5q-52 0 -96 -18.5t-75.5 -51
t-49.5 -76t-18 -93.5t18 -93.5t49.5 -76t75.5 -51t96 -18.5zM434.974 710h-20.999l-107.993 -160h20.999z" />
    <glyph glyph-name="acircumflex" unicode="&#xe2;" 
d="M511 82q-35 -42 -86.5 -66t-114.5 -24q-57 0 -105 20.5t-82 55.5t-53 82t-19 100t19 100t53 82t82 55.5t105 20.5q63 0 114.5 -24t86.5 -66v82h19v-500h-19v82zM310 11q64 0 116.5 27.5t84.5 72.5v276q-32 47 -84.5 74.5t-116.5 27.5q-52 0 -96 -18.5t-75.5 -51
t-49.5 -76t-18 -93.5t18 -93.5t49.5 -76t75.5 -51t96 -18.5zM465 579l-12 -13l-138 128l-138 -128l-12 13l150 139z" />
    <glyph glyph-name="atilde" unicode="&#xe3;" 
d="M511 82q-35 -42 -86.5 -66t-114.5 -24q-57 0 -105 20.5t-82 55.5t-53 82t-19 100t19 100t53 82t82 55.5t105 20.5q63 0 114.5 -24t86.5 -66v82h19v-500h-19v82zM310 11q64 0 116.5 27.5t84.5 72.5v276q-32 47 -84.5 74.5t-116.5 27.5q-52 0 -96 -18.5t-75.5 -51
t-49.5 -76t-18 -93.5t18 -93.5t49.5 -76t75.5 -51t96 -18.5zM157 592q8 37 28 58t50 21q25 0 45.5 -11t39 -24t37 -24t38.5 -11q28 0 42.5 18t19.5 52h19l-2 -10q-8 -38 -28 -58.5t-51 -20.5q-23 0 -42.5 11t-38 24t-38 24t-41.5 11q-29 0 -42 -18.5t-19 -51.5h-19z" />
    <glyph glyph-name="adieresis" unicode="&#xe4;" 
d="M511 82q-35 -42 -86.5 -66t-114.5 -24q-57 0 -105 20.5t-82 55.5t-53 82t-19 100t19 100t53 82t82 55.5t105 20.5q63 0 114.5 -24t86.5 -66v82h19v-500h-19v82zM310 11q64 0 116.5 27.5t84.5 72.5v276q-32 47 -84.5 74.5t-116.5 27.5q-52 0 -96 -18.5t-75.5 -51
t-49.5 -76t-18 -93.5t18 -93.5t49.5 -76t75.5 -51t96 -18.5zM416 584v103h19v-103h-19zM196 584v103h19v-103h-19z" />
    <glyph glyph-name="aring" unicode="&#xe5;" 
d="M511 82q-35 -42 -86.5 -66t-114.5 -24q-57 0 -105 20.5t-82 55.5t-53 82t-19 100t19 100t53 82t82 55.5t105 20.5q63 0 114.5 -24t86.5 -66v82h19v-500h-19v82zM310 11q64 0 116.5 27.5t84.5 72.5v276q-32 47 -84.5 74.5t-116.5 27.5q-52 0 -96 -18.5t-75.5 -51
t-49.5 -76t-18 -93.5t18 -93.5t49.5 -76t75.5 -51t96 -18.5zM315 591q-33 0 -56.5 23.5t-23.5 56.5t23.5 56.5t56.5 23.5t56.5 -23.5t23.5 -56.5t-23.5 -56.5t-56.5 -23.5zM315 608q26 0 44 18.5t18 44.5t-18 44.5t-44 18.5t-44 -18.5t-18 -44.5t18 -44.5t44 -18.5z" />
    <glyph glyph-name="ae" unicode="&#xe6;" horiz-adv-x="972" 
d="M901 69q-34 -35 -84.5 -56t-110.5 -21q-75 0 -134.5 34.5t-92.5 94.5q-42 -69 -104.5 -99t-136.5 -30q-44 0 -79.5 12t-60.5 33t-38.5 50.5t-13.5 65.5t13.5 65.5t38.5 50.5t60.5 33t79.5 12q60 0 113 -18t95 -50v70q0 90 -51 131.5t-134 41.5q-57 0 -102.5 -20.5
t-73.5 -51.5l-14 17q31 30 78 52t112 22q34 0 68.5 -8.5t63 -27t48 -49.5t23.5 -76q13 38 36.5 68t54 50.5t66.5 31.5t75 11q44 0 85.5 -14.5t74 -45t52.5 -77.5t21 -112h-462v-7q0 -51 18 -95t49.5 -76.5t75.5 -51t96 -18.5q55 0 102 20.5t79 52.5zM239 11q74 0 133.5 32
t98.5 95q-17 36 -22 82q-40 36 -94 55.5t-116 19.5q-41 0 -73 -10.5t-54 -29.5t-34 -45t-12 -57t12 -57t34 -45t54 -29.5t73 -10.5zM696 489q-44 0 -83.5 -15.5t-70 -43.5t-50.5 -67t-24 -86h440q-8 104 -65 158t-147 54z" />
    <glyph glyph-name="ccedilla" unicode="&#xe7;" horiz-adv-x="533" 
d="M310 -8q-57 0 -105 20.5t-82 55.5t-53 82t-19 100t19 100t53 82t82 55.5t105 20.5t104 -20t82 -55l-15 -15q-32 33 -75 52t-96 19q-52 0 -96 -18.5t-75.5 -51t-49.5 -76t-18 -93.5t18 -93.5t49.5 -76t75.5 -51t96 -18.5q53 0 96 19t75 51l14 -15q-34 -35 -81 -54.5
t-104 -19.5zM319 0h21l-110 -165h-21z" />
    <glyph glyph-name="egrave" unicode="&#xe8;" horiz-adv-x="576" 
d="M310 -8q-57 0 -105 20.5t-82 55.5t-53 82t-19 100t18 100t51 82t79 55.5t101 20.5q51 0 94 -17.5t73.5 -50t48 -78.5t17.5 -103h-462v-9q0 -50 18 -93.5t49.5 -76t75.5 -51t96 -18.5q55 0 102 20.5t79 52.5l14 -15q-34 -35 -84.5 -56t-110.5 -21zM300 489
q-47 0 -87 -16.5t-70 -45t-48.5 -67t-22.5 -83.5h440q-8 104 -65 158t-147 54zM186 710h21l108 -160h-21z" />
    <glyph glyph-name="eacute" unicode="&#xe9;" horiz-adv-x="576" 
d="M310 -8q-57 0 -105 20.5t-82 55.5t-53 82t-19 100t18 100t51 82t79 55.5t101 20.5q51 0 94 -17.5t73.5 -50t48 -78.5t17.5 -103h-462v-9q0 -50 18 -93.5t49.5 -76t75.5 -51t96 -18.5q55 0 102 20.5t79 52.5l14 -15q-34 -35 -84.5 -56t-110.5 -21zM300 489
q-47 0 -87 -16.5t-70 -45t-48.5 -67t-22.5 -83.5h440q-8 104 -65 158t-147 54zM421.975 710h-20.999l-107.993 -160h20.998z" />
    <glyph glyph-name="ecircumflex" unicode="&#xea;" horiz-adv-x="576" 
d="M310 -8q-57 0 -105 20.5t-82 55.5t-53 82t-19 100t18 100t51 82t79 55.5t101 20.5q51 0 94 -17.5t73.5 -50t48 -78.5t17.5 -103h-462v-9q0 -50 18 -93.5t49.5 -76t75.5 -51t96 -18.5q55 0 102 20.5t79 52.5l14 -15q-34 -35 -84.5 -56t-110.5 -21zM300 489
q-47 0 -87 -16.5t-70 -45t-48.5 -67t-22.5 -83.5h440q-8 104 -65 158t-147 54zM452 579l-12 -13l-138 128l-138 -128l-12 13l150 139z" />
    <glyph glyph-name="edieresis" unicode="&#xeb;" horiz-adv-x="576" 
d="M310 -8q-57 0 -105 20.5t-82 55.5t-53 82t-19 100t18 100t51 82t79 55.5t101 20.5q51 0 94 -17.5t73.5 -50t48 -78.5t17.5 -103h-462v-9q0 -50 18 -93.5t49.5 -76t75.5 -51t96 -18.5q55 0 102 20.5t79 52.5l14 -15q-34 -35 -84.5 -56t-110.5 -21zM300 489
q-47 0 -87 -16.5t-70 -45t-48.5 -67t-22.5 -83.5h440q-8 104 -65 158t-147 54zM403 584v103h19v-103h-19zM183 584v103h19v-103h-19z" />
    <glyph glyph-name="igrave" unicode="&#xec;" horiz-adv-x="199" 
d="M90 500h19v-500h-19v500zM-17 710h21l108 -160h-21z" />
    <glyph glyph-name="iacute" unicode="&#xed;" horiz-adv-x="199" 
d="M90 500h19v-500h-19v500zM218.986 710h-20.998l-107.994 -160h20.999z" />
    <glyph glyph-name="icircumflex" unicode="&#xee;" horiz-adv-x="199" 
d="M90 500h19v-500h-19v500zM249 579l-12 -13l-138 128l-138 -128l-12 13l150 139z" />
    <glyph glyph-name="idieresis" unicode="&#xef;" horiz-adv-x="199" 
d="M90 500h19v-500h-19v500zM9 584v103h19v-103h-19zM169 584v103h19v-103h-19z" />
    <glyph glyph-name="eth" unicode="&#xf0;" 
d="M569 250q0 -53 -19 -100t-53 -82t-82 -55.5t-105 -20.5t-105 20.5t-82 55.5t-53 82t-19 100t19 100t53 82t82 55.5t105 20.5q32 0 66.5 -7.5t74.5 -30.5l-99 139h-142v19h128l-58 82h23l58 -82h137v-19h-123l147 -207q23 -32 35 -70.5t12 -81.5zM310 11q52 0 96 18.5
t75.5 51t49.5 76t18 93.5t-18 93.5t-49.5 76t-75.5 51t-96 18.5t-96 -18.5t-75.5 -51t-49.5 -76t-18 -93.5t18 -93.5t49.5 -76t75.5 -51t96 -18.5z" />
    <glyph glyph-name="ntilde" unicode="&#xf1;" horiz-adv-x="581" 
d="M90 500h19v-106q24 48 72 81t117 33q100 0 150 -56t50 -146v-306h-19v299q0 90 -47 140t-134 50q-72 0 -120.5 -40t-68.5 -101v-348h-19v500zM139 592q8 37 28 58t50 21q25 0 45.5 -11t39 -24t37 -24t38.5 -11q28 0 42.5 18t19.5 52h19l-2 -10q-8 -38 -28 -58.5
t-51 -20.5q-23 0 -42.5 11t-38 24t-38 24t-41.5 11q-29 0 -42 -18.5t-19 -51.5h-19z" />
    <glyph glyph-name="ograve" unicode="&#xf2;" 
d="M310 -8q-57 0 -105 20.5t-82 55.5t-53 82t-19 100t19 100t53 82t82 55.5t105 20.5t105 -20.5t82 -55.5t53 -82t19 -100t-19 -100t-53 -82t-82 -55.5t-105 -20.5zM310 11q52 0 96 18.5t75.5 51t49.5 76t18 93.5t-18 93.5t-49.5 76t-75.5 51t-96 18.5t-96 -18.5t-75.5 -51
t-49.5 -76t-18 -93.5t18 -93.5t49.5 -76t75.5 -51t96 -18.5zM194 710h21l108 -160h-21z" />
    <glyph glyph-name="oacute" unicode="&#xf3;" 
d="M310 -8q-57 0 -105 20.5t-82 55.5t-53 82t-19 100t19 100t53 82t82 55.5t105 20.5t105 -20.5t82 -55.5t53 -82t19 -100t-19 -100t-53 -82t-82 -55.5t-105 -20.5zM310 11q52 0 96 18.5t75.5 51t49.5 76t18 93.5t-18 93.5t-49.5 76t-75.5 51t-96 18.5t-96 -18.5t-75.5 -51
t-49.5 -76t-18 -93.5t18 -93.5t49.5 -76t75.5 -51t96 -18.5zM429.974 710h-20.999l-107.993 -160h20.999z" />
    <glyph glyph-name="ocircumflex" unicode="&#xf4;" 
d="M310 -8q-57 0 -105 20.5t-82 55.5t-53 82t-19 100t19 100t53 82t82 55.5t105 20.5t105 -20.5t82 -55.5t53 -82t19 -100t-19 -100t-53 -82t-82 -55.5t-105 -20.5zM310 11q52 0 96 18.5t75.5 51t49.5 76t18 93.5t-18 93.5t-49.5 76t-75.5 51t-96 18.5t-96 -18.5t-75.5 -51
t-49.5 -76t-18 -93.5t18 -93.5t49.5 -76t75.5 -51t96 -18.5zM460 579l-12 -13l-138 128l-138 -128l-12 13l150 139z" />
    <glyph glyph-name="otilde" unicode="&#xf5;" 
d="M310 -8q-57 0 -105 20.5t-82 55.5t-53 82t-19 100t19 100t53 82t82 55.5t105 20.5t105 -20.5t82 -55.5t53 -82t19 -100t-19 -100t-53 -82t-82 -55.5t-105 -20.5zM310 11q52 0 96 18.5t75.5 51t49.5 76t18 93.5t-18 93.5t-49.5 76t-75.5 51t-96 18.5t-96 -18.5t-75.5 -51
t-49.5 -76t-18 -93.5t18 -93.5t49.5 -76t75.5 -51t96 -18.5zM152 592q8 37 28 58t50 21q25 0 45.5 -11t39 -24t37 -24t38.5 -11q28 0 42.5 18t19.5 52h19l-2 -10q-8 -38 -28 -58.5t-51 -20.5q-23 0 -42.5 11t-38 24t-38 24t-41.5 11q-29 0 -42 -18.5t-19 -51.5h-19z" />
    <glyph glyph-name="odieresis" unicode="&#xf6;" 
d="M310 -8q-57 0 -105 20.5t-82 55.5t-53 82t-19 100t19 100t53 82t82 55.5t105 20.5t105 -20.5t82 -55.5t53 -82t19 -100t-19 -100t-53 -82t-82 -55.5t-105 -20.5zM310 11q52 0 96 18.5t75.5 51t49.5 76t18 93.5t-18 93.5t-49.5 76t-75.5 51t-96 18.5t-96 -18.5t-75.5 -51
t-49.5 -76t-18 -93.5t18 -93.5t49.5 -76t75.5 -51t96 -18.5zM411 584v103h19v-103h-19zM191 584v103h19v-103h-19z" />
    <glyph glyph-name="divide" unicode="&#xf7;" horiz-adv-x="590" 
d="M285 357v103h19v-103h-19zM75 280h440v-19h-440v19zM285 81v103h19v-103h-19z" />
    <glyph glyph-name="oslash" unicode="&#xf8;" 
d="M76 -50l71 96q-13 10 -24 22q-34 35 -53 82t-19 100t19 100t53 82t82 55.5t105 20.5t105 -21q23 -10 42 -23l73 98l15 -11l-73 -98q13 -9 25 -21q34 -35 53 -82t19 -100t-19 -100t-53 -82t-82 -55.5t-105 -20.5t-105 20q-23 10 -43 23l-72 -96zM310 11q52 0 96 18.5
t75.5 51t49.5 76t18 93.5t-18 93.5t-50 75.5q-9 10 -20 19l-288 -387q19 -13 41 -22q44 -18 96 -18zM406 470q-44 19 -96 19t-96 -18.5t-75.5 -51t-49.5 -76t-18 -93.5t18 -93.5t49 -76.5q10 -10 20 -19l288 388q-19 12 -40 21z" />
    <glyph glyph-name="ugrave" unicode="&#xf9;" horiz-adv-x="581" 
d="M472 106q-25 -49 -72.5 -81.5t-116.5 -32.5q-100 0 -150 56t-50 146v306h19v-299q0 -90 47 -140t134 -50q71 0 120 40t69 100v349h19v-500h-19v106zM173 710h21l108 -160h-21z" />
    <glyph glyph-name="uacute" unicode="&#xfa;" horiz-adv-x="581" 
d="M472 106q-25 -49 -72.5 -81.5t-116.5 -32.5q-100 0 -150 56t-50 146v306h19v-299q0 -90 47 -140t134 -50q71 0 120 40t69 100v349h19v-500h-19v106zM408.975 710h-20.998l-107.994 -160h20.999z" />
    <glyph glyph-name="ucircumflex" unicode="&#xfb;" horiz-adv-x="581" 
d="M472 106q-25 -49 -72.5 -81.5t-116.5 -32.5q-100 0 -150 56t-50 146v306h19v-299q0 -90 47 -140t134 -50q71 0 120 40t69 100v349h19v-500h-19v106zM439 579l-12 -13l-138 128l-138 -128l-12 13l150 139z" />
    <glyph glyph-name="udieresis" unicode="&#xfc;" horiz-adv-x="581" 
d="M472 106q-25 -49 -72.5 -81.5t-116.5 -32.5q-100 0 -150 56t-50 146v306h19v-299q0 -90 47 -140t134 -50q71 0 120 40t69 100v349h19v-500h-19v106zM390 584v103h19v-103h-19zM170 584v103h19v-103h-19z" />
    <glyph glyph-name="yacute" unicode="&#xfd;" horiz-adv-x="516" 
d="M247 8l-236 492h22l224 -470l229 470h21l-333 -684h-23zM378.977 710h-20.998l-107.994 -160h20.999z" />
    <glyph glyph-name="thorn" unicode="&#xfe;" 
d="M90 -184v894h19v-292q35 42 86.5 66t114.5 24q57 0 105 -20.5t82 -55.5t53 -82t19 -100t-19 -100t-53 -82t-82 -55.5t-105 -20.5q-63 0 -115 24t-86 66v-266h-19zM310 489q-64 0 -116.5 -27.5t-84.5 -74.5v-276q33 -47 85.5 -73.5t115.5 -26.5q52 0 96 18.5t75.5 51
t49.5 76t18 93.5t-18 93.5t-49.5 76t-75.5 51t-96 18.5z" />
    <glyph glyph-name="ydieresis" unicode="&#xff;" horiz-adv-x="516" 
d="M247 8l-236 492h22l224 -470l229 470h21l-333 -684h-23zM360 584v103h19v-103h-19zM140 584v103h19v-103h-19z" />
    <glyph glyph-name="Abreve" unicode="&#x102;" horiz-adv-x="672" 
d="M336 718l332 -718h-21l-115 249h-392l-115 -249h-21zM523 268l-187 406l-187 -406h374zM337 781q-64 0 -98.5 32.5t-38.5 88.5h18q8 -56 38 -79t81 -23t80.5 23t37.5 79h18q-4 -56 -38 -88.5t-98 -32.5z" />
    <glyph glyph-name="Amacron" unicode="&#x100;" horiz-adv-x="672" 
d="M336 718l332 -718h-21l-115 249h-392l-115 -249h-21zM523 268l-187 406l-187 -406h374zM197 850h278v-19h-278v19z" />
    <glyph glyph-name="Aogonek" unicode="&#x104;" horiz-adv-x="672" 
d="M336 718l332 -718q-16 -7 -31.5 -18t-28 -25t-20 -31t-7.5 -36q0 -18 6 -30t15 -19.5t20.5 -10.5t22.5 -3q15 0 28 4t19 9v-20q-10 -6 -24.5 -9t-25.5 -3q-32 0 -56.5 21t-24.5 60q0 18 7 35.5t19 32.5t27 27t31 20l-113 245h-392l-115 -249h-21zM523 268l-187 406
l-187 -406h374z" />
    <glyph glyph-name="Cacute" unicode="&#x106;" horiz-adv-x="724" 
d="M418 -7q-77 0 -142.5 27.5t-114.5 76.5t-76.5 115.5t-27.5 143.5t27.5 143.5t76.5 115t114.5 76.5t142.5 28q84 0 155 -32.5t113 -85.5l-15 -13q-42 51 -108.5 81.5t-144.5 30.5q-71 0 -133 -26t-108.5 -72t-73 -109t-26.5 -137t26.5 -137t73 -109t108.5 -72t133 -26
q78 0 144.5 30.5t108.5 81.5l15 -13q-42 -53 -113 -85.5t-155 -32.5zM536.967 913h-20.998l-109.993 -145h20.998z" />
    <glyph glyph-name="Ccaron" unicode="&#x10c;" horiz-adv-x="724" 
d="M418 -7q-77 0 -142.5 27.5t-114.5 76.5t-76.5 115.5t-27.5 143.5t27.5 143.5t76.5 115t114.5 76.5t142.5 28q84 0 155 -32.5t113 -85.5l-15 -13q-42 51 -108.5 81.5t-144.5 30.5q-71 0 -133 -26t-108.5 -72t-73 -109t-26.5 -137t26.5 -137t73 -109t108.5 -72t133 -26
q78 0 144.5 30.5t108.5 81.5l15 -13q-42 -53 -113 -85.5t-155 -32.5zM579.965 914.944l-163.99 -138.991l-163.99 138.991l11 12.999l152.99 -128.992l152.99 128.992z" />
    <glyph glyph-name="Ccircumflex" unicode="&#x108;" horiz-adv-x="724" 
d="M418 -7q-77 0 -142.5 27.5t-114.5 76.5t-76.5 115.5t-27.5 143.5t27.5 143.5t76.5 115t114.5 76.5t142.5 28q84 0 155 -32.5t113 -85.5l-15 -13q-42 51 -108.5 81.5t-144.5 30.5q-71 0 -133 -26t-108.5 -72t-73 -109t-26.5 -137t26.5 -137t73 -109t108.5 -72t133 -26
q78 0 144.5 30.5t108.5 81.5l15 -13q-42 -53 -113 -85.5t-155 -32.5zM252 789l164 139l164 -139l-11 -13l-153 129l-153 -129z" />
    <glyph glyph-name="Cdotaccent" unicode="&#x10a;" horiz-adv-x="724" 
d="M418 -7q-77 0 -142.5 27.5t-114.5 76.5t-76.5 115.5t-27.5 143.5t27.5 143.5t76.5 115t114.5 76.5t142.5 28q84 0 155 -32.5t113 -85.5l-15 -13q-42 51 -108.5 81.5t-144.5 30.5q-71 0 -133 -26t-108.5 -72t-73 -109t-26.5 -137t26.5 -137t73 -109t108.5 -72t133 -26
q78 0 144.5 30.5t108.5 81.5l15 -13q-42 -53 -113 -85.5t-155 -32.5zM407 788v103h19v-103h-19z" />
    <glyph glyph-name="Dcaron" unicode="&#x10e;" horiz-adv-x="751" 
d="M113 710h197q86 0 157 -27t121.5 -74.5t78.5 -113t28 -142.5t-28 -142t-78.5 -112t-121.5 -73t-157 -26h-197v710zM309 19q82 0 149.5 25t115.5 70t74.5 106.5t26.5 134.5t-26.5 134.5t-74.5 106.5t-115.5 70t-149.5 25h-177v-672h177zM502.97 914.944l-163.99 -138.991
l-163.99 138.991l10.999 12.999l152.991 -128.992l152.99 128.992z" />
    <glyph glyph-name="Dcroat" unicode="&#x110;" horiz-adv-x="762" 
d="M124 710h197q86 0 157 -27t121.5 -74.5t78.5 -113t28 -142.5t-28 -142t-78.5 -112t-121.5 -73t-157 -26h-197v710zM320 19q82 0 149.5 25t115.5 70t74.5 106.5t26.5 134.5t-26.5 134.5t-74.5 106.5t-115.5 70t-149.5 25h-177v-672h177zM4 377h332v-19h-332v19z" />
    <glyph glyph-name="Ebreve" unicode="&#x114;" horiz-adv-x="547" 
d="M113 710h389v-19h-370v-315h310v-19h-310v-338h370v-19h-389v710zM317 781q-64 0 -98.5 32.5t-38.5 88.5h18q8 -56 38 -79t81 -23t80.5 23t37.5 79h18q-4 -56 -38 -88.5t-98 -32.5z" />
    <glyph glyph-name="Ecaron" unicode="&#x11a;" horiz-adv-x="547" 
d="M113 710h389v-19h-370v-315h310v-19h-310v-338h370v-19h-389v710zM479.971 914.944l-163.99 -138.991l-163.99 138.991l11 12.999l152.99 -128.992l152.991 128.992z" />
    <glyph glyph-name="Emacron" unicode="&#x112;" horiz-adv-x="547" 
d="M113 710h389v-19h-370v-315h310v-19h-310v-338h370v-19h-389v710zM177 850h278v-19h-278v19z" />
    <glyph glyph-name="Eogonek" unicode="&#x118;" horiz-adv-x="547" 
d="M113 710h389v-19h-370v-315h310v-19h-310v-338h370v-19h-389v710zM476 -192q-32 0 -56.5 21t-24.5 60q0 19 7.5 37.5t20 33.5t28 27t32.5 20l19 -7q-16 -7 -31.5 -18t-28 -25t-20 -31t-7.5 -36q0 -18 6 -30t15 -19.5t20.5 -10.5t22.5 -3q15 0 28 4t19 9v-20
q-10 -6 -24.5 -9t-25.5 -3z" />
    <glyph glyph-name="Edotaccent" unicode="&#x116;" horiz-adv-x="547" 
d="M113 710h389v-19h-370v-315h310v-19h-310v-338h370v-19h-389v710zM307 788v103h19v-103h-19z" />
    <glyph glyph-name="Gbreve" unicode="&#x11e;" horiz-adv-x="751" 
d="M419 -8q-77 0 -143 27.5t-115 76.5t-77 115.5t-28 143.5t27.5 143.5t76 115t114 76.5t142.5 28q82 0 149.5 -30.5t106.5 -78.5l-15 -13q-38 47 -100.5 75t-140.5 28q-71 0 -133 -26t-108 -72t-72.5 -109t-26.5 -137t27 -137t73.5 -109t109 -72t133.5 -26q78 0 142.5 24
t101.5 58v264h-257l9 19h267v-294q-18 -17 -45 -33t-61 -29t-73.5 -20.5t-83.5 -7.5zM418 781q-64 0 -98.5 32.5t-38.5 88.5h18q8 -56 38 -79t81 -23t80.5 23t37.5 79h18q-4 -56 -38 -88.5t-98 -32.5z" />
    <glyph glyph-name="Gcircumflex" unicode="&#x11c;" horiz-adv-x="751" 
d="M419 -8q-77 0 -143 27.5t-115 76.5t-77 115.5t-28 143.5t27.5 143.5t76 115t114 76.5t142.5 28q82 0 149.5 -30.5t106.5 -78.5l-15 -13q-38 47 -100.5 75t-140.5 28q-71 0 -133 -26t-108 -72t-72.5 -109t-26.5 -137t27 -137t73.5 -109t109 -72t133.5 -26q78 0 142.5 24
t101.5 58v264h-257l9 19h267v-294q-18 -17 -45 -33t-61 -29t-73.5 -20.5t-83.5 -7.5zM253 789l164 139l164 -139l-11 -13l-153 129l-153 -129z" />
    <glyph glyph-name="uni0122" unicode="&#x122;" horiz-adv-x="751" 
d="M419 -8q-77 0 -143 27.5t-115 76.5t-77 115.5t-28 143.5t27.5 143.5t76 115t114 76.5t142.5 28q82 0 149.5 -30.5t106.5 -78.5l-15 -13q-38 47 -100.5 75t-140.5 28q-71 0 -133 -26t-108 -72t-72.5 -109t-26.5 -137t27 -137t73.5 -109t109 -72t133.5 -26q78 0 142.5 24
t101.5 58v264h-257l9 19h267v-294q-18 -17 -45 -33t-61 -29t-73.5 -20.5t-83.5 -7.5zM409 -50h21l-110 -165h-21z" />
    <glyph glyph-name="Gdotaccent" unicode="&#x120;" horiz-adv-x="751" 
d="M419 -8q-77 0 -143 27.5t-115 76.5t-77 115.5t-28 143.5t27.5 143.5t76 115t114 76.5t142.5 28q82 0 149.5 -30.5t106.5 -78.5l-15 -13q-38 47 -100.5 75t-140.5 28q-71 0 -133 -26t-108 -72t-72.5 -109t-26.5 -137t27 -137t73.5 -109t109 -72t133.5 -26q78 0 142.5 24
t101.5 58v264h-257l9 19h267v-294q-18 -17 -45 -33t-61 -29t-73.5 -20.5t-83.5 -7.5zM408 788v103h19v-103h-19z" />
    <glyph glyph-name="Hbar" unicode="&#x126;" horiz-adv-x="766" 
d="M113 710h19v-334h502v334h19v-710h-19v357h-502v-357h-19v710zM48 553h670v-19h-670v19z" />
    <glyph glyph-name="Hcircumflex" unicode="&#x124;" horiz-adv-x="766" 
d="M113 710h19v-334h502v334h19v-710h-19v357h-502v-357h-19v710zM219 789l164 139l164 -139l-11 -13l-153 129l-153 -129z" />
    <glyph glyph-name="Ibreve" unicode="&#x12c;" horiz-adv-x="245" 
d="M113 710h19v-710h-19v710zM123 781q-64 0 -98.5 32.5t-38.5 88.5h18q8 -56 38 -79t81 -23t80.5 23t37.5 79h18q-4 -56 -38 -88.5t-98 -32.5z" />
    <glyph glyph-name="Idotaccent" unicode="&#x130;" horiz-adv-x="245" 
d="M113 710h19v-710h-19v710zM113 788v103h19v-103h-19z" />
    <glyph glyph-name="Imacron" unicode="&#x12a;" horiz-adv-x="245" 
d="M113 710h19v-710h-19v710zM-17 850h278v-19h-278v19z" />
    <glyph glyph-name="Iogonek" unicode="&#x12e;" horiz-adv-x="245" 
d="M113 710h19v-710h-19v710zM106 -192q-32 0 -56.5 21t-24.5 60q0 19 7.5 37.5t20 33.5t28 27t32.5 20l19 -7q-16 -7 -31.5 -18t-28 -25t-20 -31t-7.5 -36q0 -18 6 -30t15 -19.5t20.5 -10.5t22.5 -3q15 0 28 4t19 9v-20q-10 -6 -24.5 -9t-25.5 -3z" />
    <glyph glyph-name="Itilde" unicode="&#x128;" horiz-adv-x="245" 
d="M113 710h19v-710h-19v710zM-36 813q8 37 28 58t50 21q25 0 45.5 -11t39 -24t37 -24t38.5 -11q28 0 42.5 18t19.5 52h19l-2 -10q-8 -38 -28 -58.5t-51 -20.5q-23 0 -42.5 11t-38 24t-38 24t-41.5 11q-29 0 -42 -18.5t-19 -51.5h-19z" />
    <glyph glyph-name="uni1ECA" unicode="&#x1eca;" horiz-adv-x="245" 
d="M113 710h19v-710h-19v710zM112 -189v103h19v-103h-19z" />
    <glyph glyph-name="Jcircumflex" unicode="&#x134;" horiz-adv-x="521" 
d="M222 -8q-41 0 -77 12t-62 36t-41 60.5t-15 86.5h19q0 -84 45.5 -130t130.5 -46t130.5 46t45.5 130v523h19v-523q0 -50 -15 -86.5t-41.5 -60.5t-62 -36t-76.5 -12zM243 789l164 139l164 -139l-11 -13l-153 129l-153 -129z" />
    <glyph glyph-name="uni0136" unicode="&#x136;" horiz-adv-x="581" 
d="M113 710h19v-710h-19v710zM133 346l386 364h27l-386 -362l424 -348h-30zM332 -50h21l-110 -165h-21z" />
    <glyph glyph-name="Lacute" unicode="&#x139;" horiz-adv-x="517" 
d="M113 710h19v-691h370v-19h-389v710zM243.985 913h-20.999l-109.993 -145h20.999z" />
    <glyph glyph-name="Lcaron" unicode="&#x13d;" horiz-adv-x="518" 
d="M113 710h19v-691h370v-19h-389v710zM321 710h20l-32 -170h-17z" />
    <glyph glyph-name="uni013B" unicode="&#x13b;" horiz-adv-x="517" 
d="M113 710h19v-691h370v-19h-389v710zM298 -50h21l-110 -165h-21z" />
    <glyph glyph-name="Ldot" unicode="&#x13f;" horiz-adv-x="519" 
d="M113 710h19v-691h370v-19h-389v710zM363 316v103h19v-103h-19z" />
    <glyph glyph-name="Lslash" unicode="&#x141;" horiz-adv-x="563" 
d="M159 710h19v-691h370v-19h-389v710zM12 267l305 209l10 -15l-305 -209z" />
    <glyph glyph-name="Nacute" unicode="&#x143;" horiz-adv-x="792" 
d="M132 665v-665h-19v718l547 -673v665h19v-718zM526.968 913h-20.999l-109.993 -145h20.999z" />
    <glyph glyph-name="Ncaron" unicode="&#x147;" horiz-adv-x="792" 
d="M132 665v-665h-19v718l547 -673v665h19v-718zM569.965 914.944l-163.989 -138.991l-163.99 138.991l10.999 12.999l152.991 -128.992l152.99 128.992z" />
    <glyph glyph-name="uni0145" unicode="&#x145;" horiz-adv-x="792" 
d="M132 665v-665h-19v718l547 -673v665h19v-718zM391 -50h21l-110 -165h-21z" />
    <glyph glyph-name="OE" unicode="&#x152;" horiz-adv-x="1120" 
d="M419 -8q-77 0 -143 27.5t-115 76.5t-77 115.5t-28 143.5t28 143.5t77 115t115 76.5t143 28q81 0 149 -30t118 -84v106h389v-19h-370v-109q33 -42 53 -94t23 -112h234v-19h-233v-2q0 -66 -20.5 -123.5t-56.5 -104.5v-108h370v-19h-389v105q-50 -53 -118 -83t-149 -30z
M419 11q71 0 133.5 26t109 72t73.5 109t27 137t-27 137t-73.5 109t-109 72t-133.5 26t-133.5 -26t-109 -72t-73.5 -109t-27 -137t27 -137t73.5 -109t109 -72t133.5 -26z" />
    <glyph glyph-name="Obreve" unicode="&#x14e;" horiz-adv-x="838" 
d="M419 -8q-77 0 -143 27.5t-115 76.5t-77 115.5t-28 143.5t28 143.5t77 115t115 76.5t143 28q76 0 142.5 -28t115.5 -76.5t77 -115t28 -143.5t-28 -143.5t-77 -115.5t-115.5 -76.5t-142.5 -27.5zM419 11q71 0 133.5 26t109 72t73.5 109t27 137t-27 137t-73.5 109t-109 72
t-133.5 26t-133.5 -26t-109 -72t-73.5 -109t-27 -137t27 -137t73.5 -109t109 -72t133.5 -26zM420 781q-64 0 -98.5 32.5t-38.5 88.5h18q8 -56 38 -79t81 -23t80.5 23t37.5 79h18q-4 -56 -38 -88.5t-98 -32.5z" />
    <glyph glyph-name="Ohungarumlaut" unicode="&#x150;" horiz-adv-x="838" 
d="M419 -8q-77 0 -143 27.5t-115 76.5t-77 115.5t-28 143.5t28 143.5t77 115t115 76.5t143 28q76 0 142.5 -28t115.5 -76.5t77 -115t28 -143.5t-28 -143.5t-77 -115.5t-115.5 -76.5t-142.5 -27.5zM419 11q71 0 133.5 26t109 72t73.5 109t27 137t-27 137t-73.5 109t-109 72
t-133.5 26t-133.5 -26t-109 -72t-73.5 -109t-27 -137t27 -137t73.5 -109t109 -72t133.5 -26zM430 913h21l-110 -145h-21zM630 913h21l-110 -145h-21z" />
    <glyph glyph-name="Omacron" unicode="&#x14c;" horiz-adv-x="838" 
d="M419 -8q-77 0 -143 27.5t-115 76.5t-77 115.5t-28 143.5t28 143.5t77 115t115 76.5t143 28q76 0 142.5 -28t115.5 -76.5t77 -115t28 -143.5t-28 -143.5t-77 -115.5t-115.5 -76.5t-142.5 -27.5zM419 11q71 0 133.5 26t109 72t73.5 109t27 137t-27 137t-73.5 109t-109 72
t-133.5 26t-133.5 -26t-109 -72t-73.5 -109t-27 -137t27 -137t73.5 -109t109 -72t133.5 -26zM280 850h278v-19h-278v19z" />
    <glyph glyph-name="uni1ECC" unicode="&#x1ecc;" horiz-adv-x="838" 
d="M419 -8q-77 0 -143 27.5t-115 76.5t-77 115.5t-28 143.5t28 143.5t77 115t115 76.5t143 28q76 0 142.5 -28t115.5 -76.5t77 -115t28 -143.5t-28 -143.5t-77 -115.5t-115.5 -76.5t-142.5 -27.5zM419 11q71 0 133.5 26t109 72t73.5 109t27 137t-27 137t-73.5 109t-109 72
t-133.5 26t-133.5 -26t-109 -72t-73.5 -109t-27 -137t27 -137t73.5 -109t109 -72t133.5 -26zM409 -189v103h19v-103h-19z" />
    <glyph glyph-name="Racute" unicode="&#x154;" horiz-adv-x="596" 
d="M113 710h186q54 0 94 -13.5t65.5 -37.5t38 -56.5t12.5 -71.5q0 -38 -12 -71t-37.5 -57t-66 -37.5t-96.5 -13.5l292 -352h-24l-291 352h-142v-352h-19v710zM304 371q94 0 139.5 44t45.5 116t-45.5 116t-139.5 44h-172v-320h172zM416.975 913h-20.999l-109.993 -145h20.999
z" />
    <glyph glyph-name="Rcaron" unicode="&#x158;" horiz-adv-x="596" 
d="M113 710h186q54 0 94 -13.5t65.5 -37.5t38 -56.5t12.5 -71.5q0 -38 -12 -71t-37.5 -57t-66 -37.5t-96.5 -13.5l292 -352h-24l-291 352h-142v-352h-19v710zM304 371q94 0 139.5 44t45.5 116t-45.5 116t-139.5 44h-172v-320h172zM459.972 914.944l-163.989 -138.991
l-163.99 138.991l10.999 12.999l152.991 -128.992l152.99 128.992z" />
    <glyph glyph-name="uni0156" unicode="&#x156;" horiz-adv-x="596" 
d="M113 710h186q54 0 94 -13.5t65.5 -37.5t38 -56.5t12.5 -71.5q0 -38 -12 -71t-37.5 -57t-66 -37.5t-96.5 -13.5l292 -352h-24l-291 352h-142v-352h-19v710zM304 371q94 0 139.5 44t45.5 116t-45.5 116t-139.5 44h-172v-320h172zM337 -50h21l-110 -165h-21z" />
    <glyph glyph-name="Sacute" unicode="&#x15a;" horiz-adv-x="509" 
d="M249 -8q-63 0 -116 29t-85 73l16 13q29 -41 77.5 -68.5t107.5 -27.5q91 0 144 42t53 116q0 33 -12.5 59.5t-34 48t-51 38.5t-63.5 32l-75 32q-81 35 -113.5 80t-32.5 103q0 34 15.5 63t41.5 49.5t60.5 32t72.5 11.5q50 0 95 -20t76 -59l-16 -13q-27 38 -67.5 55.5
t-90.5 17.5q-32 0 -62.5 -9.5t-53.5 -27.5t-37 -43.5t-14 -56.5q0 -54 30.5 -95t106.5 -73l75 -32q37 -16 68.5 -34.5t54 -41.5t35 -51.5t12.5 -64.5q0 -38 -14 -70.5t-41.5 -56.5t-68 -37.5t-93.5 -13.5zM373.978 913h-20.999l-109.993 -145h20.999z" />
    <glyph glyph-name="Scaron" unicode="&#x160;" horiz-adv-x="509" 
d="M249 -8q-63 0 -116 29t-85 73l16 13q29 -41 77.5 -68.5t107.5 -27.5q91 0 144 42t53 116q0 33 -12.5 59.5t-34 48t-51 38.5t-63.5 32l-75 32q-81 35 -113.5 80t-32.5 103q0 34 15.5 63t41.5 49.5t60.5 32t72.5 11.5q50 0 95 -20t76 -59l-16 -13q-27 38 -67.5 55.5
t-90.5 17.5q-32 0 -62.5 -9.5t-53.5 -27.5t-37 -43.5t-14 -56.5q0 -54 30.5 -95t106.5 -73l75 -32q37 -16 68.5 -34.5t54 -41.5t35 -51.5t12.5 -64.5q0 -38 -14 -70.5t-41.5 -56.5t-68 -37.5t-93.5 -13.5zM416.975 914.944l-163.99 -138.991l-163.99 138.991l11 12.999
l152.99 -128.992l152.991 128.992z" />
    <glyph glyph-name="Scedilla" unicode="&#x15e;" horiz-adv-x="509" 
d="M249 -8q-63 0 -116 29t-85 73l16 13q29 -41 77.5 -68.5t107.5 -27.5q91 0 144 42t53 116q0 33 -12.5 59.5t-34 48t-51 38.5t-63.5 32l-75 32q-81 35 -113.5 80t-32.5 103q0 34 15.5 63t41.5 49.5t60.5 32t72.5 11.5q50 0 95 -20t76 -59l-16 -13q-27 38 -67.5 55.5
t-90.5 17.5q-32 0 -62.5 -9.5t-53.5 -27.5t-37 -43.5t-14 -56.5q0 -54 30.5 -95t106.5 -73l75 -32q37 -16 68.5 -34.5t54 -41.5t35 -51.5t12.5 -64.5q0 -38 -14 -70.5t-41.5 -56.5t-68 -37.5t-93.5 -13.5zM268 0h21l-110 -165h-21z" />
    <glyph glyph-name="Scircumflex" unicode="&#x15c;" horiz-adv-x="509" 
d="M249 -8q-63 0 -116 29t-85 73l16 13q29 -41 77.5 -68.5t107.5 -27.5q91 0 144 42t53 116q0 33 -12.5 59.5t-34 48t-51 38.5t-63.5 32l-75 32q-81 35 -113.5 80t-32.5 103q0 34 15.5 63t41.5 49.5t60.5 32t72.5 11.5q50 0 95 -20t76 -59l-16 -13q-27 38 -67.5 55.5
t-90.5 17.5q-32 0 -62.5 -9.5t-53.5 -27.5t-37 -43.5t-14 -56.5q0 -54 30.5 -95t106.5 -73l75 -32q37 -16 68.5 -34.5t54 -41.5t35 -51.5t12.5 -64.5q0 -38 -14 -70.5t-41.5 -56.5t-68 -37.5t-93.5 -13.5zM89 789l164 139l164 -139l-11 -13l-153 129l-153 -129z" />
    <glyph glyph-name="uni0218" unicode="&#x218;" horiz-adv-x="509" 
d="M249 -8q-63 0 -116 29t-85 73l16 13q29 -41 77.5 -68.5t107.5 -27.5q91 0 144 42t53 116q0 33 -12.5 59.5t-34 48t-51 38.5t-63.5 32l-75 32q-81 35 -113.5 80t-32.5 103q0 34 15.5 63t41.5 49.5t60.5 32t72.5 11.5q50 0 95 -20t76 -59l-16 -13q-27 38 -67.5 55.5
t-90.5 17.5q-32 0 -62.5 -9.5t-53.5 -27.5t-37 -43.5t-14 -56.5q0 -54 30.5 -95t106.5 -73l75 -32q37 -16 68.5 -34.5t54 -41.5t35 -51.5t12.5 -64.5q0 -38 -14 -70.5t-41.5 -56.5t-68 -37.5t-93.5 -13.5zM252 -50h21l-110 -165h-21z" />
    <glyph glyph-name="Tcaron" unicode="&#x164;" horiz-adv-x="493" 
d="M237 691h-222v19h463v-19h-222v-691h-19v691zM409.975 914.944l-163.989 -138.991l-163.99 138.991l10.999 12.999l152.991 -128.992l152.99 128.992z" />
    <glyph glyph-name="uni0162" unicode="&#x162;" horiz-adv-x="493" 
d="M237 691h-222v19h463v-19h-222v-691h-19v691zM236 -50h21l-110 -165h-21z" />
    <glyph glyph-name="uni021A" unicode="&#x21a;" horiz-adv-x="493" 
d="M237 691h-222v19h463v-19h-222v-691h-19v691zM236 -50h21l-110 -165h-21z" />
    <glyph glyph-name="Ubreve" unicode="&#x16c;" horiz-adv-x="724" 
d="M362 -8q-124 0 -192 68.5t-68 199.5v450h19v-450q0 -126 65 -187.5t176 -61.5t176 61.5t65 187.5v450h19v-450q0 -131 -68 -199.5t-192 -68.5zM363 781q-64 0 -98.5 32.5t-38.5 88.5h18q8 -56 38 -79t81 -23t80.5 23t37.5 79h18q-4 -56 -38 -88.5t-98 -32.5z" />
    <glyph glyph-name="Uhungarumlaut" unicode="&#x170;" horiz-adv-x="724" 
d="M362 -8q-124 0 -192 68.5t-68 199.5v450h19v-450q0 -126 65 -187.5t176 -61.5t176 61.5t65 187.5v450h19v-450q0 -131 -68 -199.5t-192 -68.5zM373 913h21l-110 -145h-21zM573 913h21l-110 -145h-21z" />
    <glyph glyph-name="Umacron" unicode="&#x16a;" horiz-adv-x="724" 
d="M362 -8q-124 0 -192 68.5t-68 199.5v450h19v-450q0 -126 65 -187.5t176 -61.5t176 61.5t65 187.5v450h19v-450q0 -131 -68 -199.5t-192 -68.5zM223 850h278v-19h-278v19z" />
    <glyph glyph-name="Uogonek" unicode="&#x172;" horiz-adv-x="724" 
d="M362 -8q-124 0 -192 68.5t-68 199.5v450h19v-450q0 -126 65 -187.5t176 -61.5t176 61.5t65 187.5v450h19v-450q0 -131 -68 -199.5t-192 -68.5zM385 -192q-32 0 -56.5 21t-24.5 60q0 19 7.5 37.5t20 33.5t28 27t32.5 20l19 -7q-16 -7 -31.5 -18t-28 -25t-20 -31t-7.5 -36
q0 -18 6 -30t15 -19.5t20.5 -10.5t22.5 -3q15 0 28 4t19 9v-20q-10 -6 -24.5 -9t-25.5 -3z" />
    <glyph glyph-name="Uring" unicode="&#x16e;" horiz-adv-x="724" 
d="M362 -8q-124 0 -192 68.5t-68 199.5v450h19v-450q0 -126 65 -187.5t176 -61.5t176 61.5t65 187.5v450h19v-450q0 -131 -68 -199.5t-192 -68.5zM362 756q-33 0 -56.5 23.5t-23.5 56.5t23.5 56.5t56.5 23.5t56.5 -23.5t23.5 -56.5t-23.5 -56.5t-56.5 -23.5zM362 773
q26 0 44 18.5t18 44.5t-18 44.5t-44 18.5t-44 -18.5t-18 -44.5t18 -44.5t44 -18.5z" />
    <glyph glyph-name="Utilde" unicode="&#x168;" horiz-adv-x="724" 
d="M362 -8q-124 0 -192 68.5t-68 199.5v450h19v-450q0 -126 65 -187.5t176 -61.5t176 61.5t65 187.5v450h19v-450q0 -131 -68 -199.5t-192 -68.5zM204 813q8 37 28 58t50 21q25 0 45.5 -11t39 -24t37 -24t38.5 -11q28 0 42.5 18t19.5 52h19l-2 -10q-8 -38 -28 -58.5
t-51 -20.5q-23 0 -42.5 11t-38 24t-38 24t-41.5 11q-29 0 -42 -18.5t-19 -51.5h-19z" />
    <glyph glyph-name="uni1EE4" unicode="&#x1ee4;" horiz-adv-x="724" 
d="M362 -8q-124 0 -192 68.5t-68 199.5v450h19v-450q0 -126 65 -187.5t176 -61.5t176 61.5t65 187.5v450h19v-450q0 -131 -68 -199.5t-192 -68.5zM353 -189v103h19v-103h-19z" />
    <glyph glyph-name="Wacute" unicode="&#x1e82;" horiz-adv-x="874" 
d="M24 710h21l191 -656l201 664l201 -664l191 656h21l-212 -718l-201 659l-201 -659zM557.966 913h-20.999l-109.993 -145h20.999z" />
    <glyph glyph-name="Wcircumflex" unicode="&#x174;" horiz-adv-x="874" 
d="M24 710h21l191 -656l201 664l201 -664l191 656h21l-212 -718l-201 659l-201 -659zM273 789l164 139l164 -139l-11 -13l-153 129l-153 -129z" />
    <glyph glyph-name="Wdieresis" unicode="&#x1e84;" horiz-adv-x="874" 
d="M24 710h21l191 -656l201 664l201 -664l191 656h21l-212 -718l-201 659l-201 -659zM538 788v103h19v-103h-19zM318 788v103h19v-103h-19z" />
    <glyph glyph-name="Wgrave" unicode="&#x1e80;" horiz-adv-x="874" 
d="M24 710h21l191 -656l201 664l201 -664l191 656h21l-212 -718l-201 659l-201 -659zM316 913h21l110 -145h-21z" />
    <glyph glyph-name="Ycircumflex" unicode="&#x176;" horiz-adv-x="577" 
d="M279 302l-259 408h22l247 -388l246 388h22l-259 -408v-302h-19v302zM125 789l164 139l164 -139l-11 -13l-153 129l-153 -129z" />
    <glyph glyph-name="Ydieresis" unicode="&#x178;" horiz-adv-x="577" 
d="M279 302l-259 408h22l247 -388l246 388h22l-259 -408v-302h-19v302zM390 788v103h19v-103h-19zM170 788v103h19v-103h-19z" />
    <glyph glyph-name="Ygrave" unicode="&#x1ef2;" horiz-adv-x="577" 
d="M279 302l-259 408h22l247 -388l246 388h22l-259 -408v-302h-19v302zM168 913h21l110 -145h-21z" />
    <glyph glyph-name="uni0232" unicode="&#x232;" horiz-adv-x="577" 
d="M279 302l-259 408h22l247 -388l246 388h22l-259 -408v-302h-19v302zM150 850h278v-19h-278v19z" />
    <glyph glyph-name="Zacute" unicode="&#x179;" horiz-adv-x="559" 
d="M495 691h-435v19h471l-489 -691h490v-19h-527zM414.975 913h-20.999l-109.993 -145h20.999z" />
    <glyph glyph-name="Zcaron" unicode="&#x17d;" horiz-adv-x="559" 
d="M495 691h-435v19h471l-489 -691h490v-19h-527zM457.972 914.944l-163.989 -138.991l-163.99 138.991l10.999 12.999l152.991 -128.992l152.99 128.992z" />
    <glyph glyph-name="Zdotaccent" unicode="&#x17b;" horiz-adv-x="559" 
d="M495 691h-435v19h471l-489 -691h490v-19h-527zM285 788v103h19v-103h-19z" />
    <glyph glyph-name="uni1E9E" unicode="&#x1e9e;" horiz-adv-x="601" 
d="M113 710h376l-184 -252h14q48 0 90 -17t73.5 -47.5t49.5 -72.5t18 -92t-18 -92t-49.5 -72.5t-73.5 -47.5t-90 -17h-37v19h37q44 0 82.5 15.5t67 43.5t45 66.5t16.5 84.5t-16.5 84.5t-45 66.5t-67 43.5t-82.5 15.5h-37v19l171 233h-321v-691h-19v710z" />
    <glyph glyph-name="abreve" unicode="&#x103;" 
d="M511 82q-35 -42 -86.5 -66t-114.5 -24q-57 0 -105 20.5t-82 55.5t-53 82t-19 100t19 100t53 82t82 55.5t105 20.5q63 0 114.5 -24t86.5 -66v82h19v-500h-19v82zM310 11q64 0 116.5 27.5t84.5 72.5v276q-32 47 -84.5 74.5t-116.5 27.5q-52 0 -96 -18.5t-75.5 -51
t-49.5 -76t-18 -93.5t18 -93.5t49.5 -76t75.5 -51t96 -18.5zM316 589q-64 0 -98.5 32.5t-38.5 88.5h18q8 -56 38 -79t81 -23t80.5 23t37.5 79h18q-4 -56 -38 -88.5t-98 -32.5z" />
    <glyph glyph-name="amacron" unicode="&#x101;" 
d="M511 82q-35 -42 -86.5 -66t-114.5 -24q-57 0 -105 20.5t-82 55.5t-53 82t-19 100t19 100t53 82t82 55.5t105 20.5q63 0 114.5 -24t86.5 -66v82h19v-500h-19v82zM310 11q64 0 116.5 27.5t84.5 72.5v276q-32 47 -84.5 74.5t-116.5 27.5q-52 0 -96 -18.5t-75.5 -51
t-49.5 -76t-18 -93.5t18 -93.5t49.5 -76t75.5 -51t96 -18.5zM176 680h278v-19h-278v19z" />
    <glyph glyph-name="aogonek" unicode="&#x105;" 
d="M511 82q-35 -42 -86.5 -66t-114.5 -24q-57 0 -105 20.5t-82 55.5t-53 82t-19 100t19 100t53 82t82 55.5t105 20.5q63 0 114.5 -24t86.5 -66v82h19v-500h-19v82zM310 11q64 0 116.5 27.5t84.5 72.5v276q-32 47 -84.5 74.5t-116.5 27.5q-52 0 -96 -18.5t-75.5 -51
t-49.5 -76t-18 -93.5t18 -93.5t49.5 -76t75.5 -51t96 -18.5zM504 -192q-32 0 -56.5 21t-24.5 60q0 19 7.5 37.5t20 33.5t28 27t32.5 20l19 -7q-16 -7 -31.5 -18t-28 -25t-20 -31t-7.5 -36q0 -18 6 -30t15 -19.5t20.5 -10.5t22.5 -3q15 0 28 4t19 9v-20q-10 -6 -24.5 -9
t-25.5 -3z" />
    <glyph glyph-name="cacute" unicode="&#x107;" horiz-adv-x="533" 
d="M310 -8q-57 0 -105 20.5t-82 55.5t-53 82t-19 100t19 100t53 82t82 55.5t105 20.5t104 -20t82 -55l-15 -15q-32 33 -75 52t-96 19q-52 0 -96 -18.5t-75.5 -51t-49.5 -76t-18 -93.5t18 -93.5t49.5 -76t75.5 -51t96 -18.5q53 0 96 19t75 51l14 -15q-34 -35 -81 -54.5
t-104 -19.5zM429.974 710h-20.999l-107.993 -160h20.999z" />
    <glyph glyph-name="ccaron" unicode="&#x10d;" horiz-adv-x="533" 
d="M310 -8q-57 0 -105 20.5t-82 55.5t-53 82t-19 100t19 100t53 82t82 55.5t105 20.5t104 -20t82 -55l-15 -15q-32 33 -75 52t-96 19q-52 0 -96 -18.5t-75.5 -51t-49.5 -76t-18 -93.5t18 -93.5t49.5 -76t75.5 -51t96 -18.5q53 0 96 19t75 51l14 -15q-34 -35 -81 -54.5
t-104 -19.5zM159.99 704.957l11.999 12.999l137.992 -127.992l137.991 127.992l11.999 -12.999l-149.99 -138.991z" />
    <glyph glyph-name="ccircumflex" unicode="&#x109;" horiz-adv-x="533" 
d="M310 -8q-57 0 -105 20.5t-82 55.5t-53 82t-19 100t19 100t53 82t82 55.5t105 20.5t104 -20t82 -55l-15 -15q-32 33 -75 52t-96 19q-52 0 -96 -18.5t-75.5 -51t-49.5 -76t-18 -93.5t18 -93.5t49.5 -76t75.5 -51t96 -18.5q53 0 96 19t75 51l14 -15q-34 -35 -81 -54.5
t-104 -19.5zM460 579l-12 -13l-138 128l-138 -128l-12 13l150 139z" />
    <glyph glyph-name="cdotaccent" unicode="&#x10b;" horiz-adv-x="533" 
d="M310 -8q-57 0 -105 20.5t-82 55.5t-53 82t-19 100t19 100t53 82t82 55.5t105 20.5t104 -20t82 -55l-15 -15q-32 33 -75 52t-96 19q-52 0 -96 -18.5t-75.5 -51t-49.5 -76t-18 -93.5t18 -93.5t49.5 -76t75.5 -51t96 -18.5q53 0 96 19t75 51l14 -15q-34 -35 -81 -54.5
t-104 -19.5zM301 584v103h19v-103h-19z" />
    <glyph glyph-name="dcaron" unicode="&#x10f;" horiz-adv-x="644" 
d="M511 0v82q-34 -42 -86 -66t-115 -24q-57 0 -105 20.5t-82 55.5t-53 82t-19 100t19 100t53 82t82 55.5t105 20.5q63 0 115 -24t86 -66v292h19v-710h-19zM310 489q-52 0 -96 -18.5t-75.5 -51t-49.5 -76t-18 -93.5t18 -93.5t49.5 -76t75.5 -51t96 -18.5q64 0 116.5 27.5
t84.5 72.5v276q-32 47 -84 74.5t-117 27.5zM640 710h20l-32 -170h-17z" />
    <glyph glyph-name="dcroat" unicode="&#x111;" 
d="M511 0v82q-34 -42 -86 -66t-115 -24q-57 0 -105 20.5t-82 55.5t-53 82t-19 100t19 100t53 82t82 55.5t105 20.5q63 0 115 -24t86 -66v292h19v-710h-19zM310 489q-52 0 -96 -18.5t-75.5 -51t-49.5 -76t-18 -93.5t18 -93.5t49.5 -76t75.5 -51t96 -18.5q64 0 116.5 27.5
t84.5 72.5v276q-32 47 -84 74.5t-117 27.5zM322 628h294v-19h-294v19z" />
    <glyph glyph-name="ebreve" unicode="&#x115;" horiz-adv-x="576" 
d="M310 -8q-57 0 -105 20.5t-82 55.5t-53 82t-19 100t18 100t51 82t79 55.5t101 20.5q51 0 94 -17.5t73.5 -50t48 -78.5t17.5 -103h-462v-9q0 -50 18 -93.5t49.5 -76t75.5 -51t96 -18.5q55 0 102 20.5t79 52.5l14 -15q-34 -35 -84.5 -56t-110.5 -21zM300 489
q-47 0 -87 -16.5t-70 -45t-48.5 -67t-22.5 -83.5h440q-8 104 -65 158t-147 54zM303 589q-64 0 -98.5 32.5t-38.5 88.5h18q8 -56 38 -79t81 -23t80.5 23t37.5 79h18q-4 -56 -38 -88.5t-98 -32.5z" />
    <glyph glyph-name="ecaron" unicode="&#x11b;" horiz-adv-x="576" 
d="M310 -8q-57 0 -105 20.5t-82 55.5t-53 82t-19 100t18 100t51 82t79 55.5t101 20.5q51 0 94 -17.5t73.5 -50t48 -78.5t17.5 -103h-462v-9q0 -50 18 -93.5t49.5 -76t75.5 -51t96 -18.5q55 0 102 20.5t79 52.5l14 -15q-34 -35 -84.5 -56t-110.5 -21zM300 489
q-47 0 -87 -16.5t-70 -45t-48.5 -67t-22.5 -83.5h440q-8 104 -65 158t-147 54zM151.99 704.957l12 12.999l137.991 -127.992l137.991 127.992l12 -12.999l-149.991 -138.991z" />
    <glyph glyph-name="emacron" unicode="&#x113;" horiz-adv-x="576" 
d="M310 -8q-57 0 -105 20.5t-82 55.5t-53 82t-19 100t18 100t51 82t79 55.5t101 20.5q51 0 94 -17.5t73.5 -50t48 -78.5t17.5 -103h-462v-9q0 -50 18 -93.5t49.5 -76t75.5 -51t96 -18.5q55 0 102 20.5t79 52.5l14 -15q-34 -35 -84.5 -56t-110.5 -21zM300 489
q-47 0 -87 -16.5t-70 -45t-48.5 -67t-22.5 -83.5h440q-8 104 -65 158t-147 54zM163 680h278v-19h-278v19z" />
    <glyph glyph-name="eogonek" unicode="&#x119;" horiz-adv-x="576" 
d="M498 -180q-10 -6 -24.5 -9t-25.5 -3q-32 0 -57.5 21.5t-25.5 65.5q0 26 14.5 57.5t44.5 62.5q-26 -11 -55 -17t-59 -6q-57 0 -105 20.5t-82 55.5t-53 82t-19 100t18 100t51 82t79 55.5t101 20.5q51 0 94 -17.5t73.5 -50t48 -78.5t17.5 -103h-462v-9q0 -50 18 -93.5
t49.5 -76t75.5 -51t96 -18.5q55 0 102 20.5t79 52.5l14 -15q-19 -16 -40 -35.5t-39 -41t-29.5 -46t-11.5 -50.5q0 -21 6 -34t16 -21t21.5 -11t22.5 -3q15 0 28 4t19 9v-20zM300 489q-47 0 -87 -16.5t-70 -45t-48.5 -67t-22.5 -83.5h440q-8 104 -65 158t-147 54z" />
    <glyph glyph-name="edotaccent" unicode="&#x117;" horiz-adv-x="576" 
d="M310 -8q-57 0 -105 20.5t-82 55.5t-53 82t-19 100t18 100t51 82t79 55.5t101 20.5q51 0 94 -17.5t73.5 -50t48 -78.5t17.5 -103h-462v-9q0 -50 18 -93.5t49.5 -76t75.5 -51t96 -18.5q55 0 102 20.5t79 52.5l14 -15q-34 -35 -84.5 -56t-110.5 -21zM300 489
q-47 0 -87 -16.5t-70 -45t-48.5 -67t-22.5 -83.5h440q-8 104 -65 158t-147 54zM293 584v103h19v-103h-19z" />
    <glyph glyph-name="gbreve" unicode="&#x11f;" horiz-adv-x="616" 
d="M296 -194q-60 0 -117 21t-91 56l14 15q32 -32 85.5 -52.5t108.5 -20.5q108 0 168 48t60 134q0 32 -6 57t-14 40q-35 -42 -87 -67t-116 -25q-54 0 -99.5 19t-78.5 52t-52 78.5t-19 98.5t19 98.5t52 78.5t78.5 52t99.5 19q63 0 114.5 -24t86.5 -66v82h19v-379
q9 -26 16 -52.5t7 -62.5q0 -54 -21 -92t-55.5 -62t-79 -35t-92.5 -11zM301 31q63 0 116 27.5t85 73.5v256q-32 46 -85 73.5t-116 27.5q-48 0 -90 -17.5t-73 -48t-48.5 -72.5t-17.5 -91t17.5 -91t48.5 -72.5t73 -48t90 -17.5zM301 589q-64 0 -98.5 32.5t-38.5 88.5h18
q8 -56 38 -79t81 -23t80.5 23t37.5 79h18q-4 -56 -38 -88.5t-98 -32.5z" />
    <glyph glyph-name="gcircumflex" unicode="&#x11d;" horiz-adv-x="616" 
d="M296 -194q-60 0 -117 21t-91 56l14 15q32 -32 85.5 -52.5t108.5 -20.5q108 0 168 48t60 134q0 32 -6 57t-14 40q-35 -42 -87 -67t-116 -25q-54 0 -99.5 19t-78.5 52t-52 78.5t-19 98.5t19 98.5t52 78.5t78.5 52t99.5 19q63 0 114.5 -24t86.5 -66v82h19v-379
q9 -26 16 -52.5t7 -62.5q0 -54 -21 -92t-55.5 -62t-79 -35t-92.5 -11zM301 31q63 0 116 27.5t85 73.5v256q-32 46 -85 73.5t-116 27.5q-48 0 -90 -17.5t-73 -48t-48.5 -72.5t-17.5 -91t17.5 -91t48.5 -72.5t73 -48t90 -17.5zM450 579l-12 -13l-138 128l-138 -128l-12 13
l150 139z" />
    <glyph glyph-name="uni0123" unicode="&#x123;" horiz-adv-x="616" 
d="M296 -194q-60 0 -117 21t-91 56l14 15q32 -32 85.5 -52.5t108.5 -20.5q108 0 168 48t60 134q0 32 -6 57t-14 40q-35 -42 -87 -67t-116 -25q-54 0 -99.5 19t-78.5 52t-52 78.5t-19 98.5t19 98.5t52 78.5t78.5 52t99.5 19q63 0 114.5 -24t86.5 -66v82h19v-379
q9 -26 16 -52.5t7 -62.5q0 -54 -21 -92t-55.5 -62t-79 -35t-92.5 -11zM301 31q63 0 116 27.5t85 73.5v256q-32 46 -85 73.5t-116 27.5q-48 0 -90 -17.5t-73 -48t-48.5 -72.5t-17.5 -91t17.5 -91t48.5 -72.5t73 -48t90 -17.5zM309.981 544.967h-20.999l109.993 164.99h20.999
z" />
    <glyph glyph-name="gdotaccent" unicode="&#x121;" horiz-adv-x="616" 
d="M296 -194q-60 0 -117 21t-91 56l14 15q32 -32 85.5 -52.5t108.5 -20.5q108 0 168 48t60 134q0 32 -6 57t-14 40q-35 -42 -87 -67t-116 -25q-54 0 -99.5 19t-78.5 52t-52 78.5t-19 98.5t19 98.5t52 78.5t78.5 52t99.5 19q63 0 114.5 -24t86.5 -66v82h19v-379
q9 -26 16 -52.5t7 -62.5q0 -54 -21 -92t-55.5 -62t-79 -35t-92.5 -11zM301 31q63 0 116 27.5t85 73.5v256q-32 46 -85 73.5t-116 27.5q-48 0 -90 -17.5t-73 -48t-48.5 -72.5t-17.5 -91t17.5 -91t48.5 -72.5t73 -48t90 -17.5zM291 584v103h19v-103h-19z" />
    <glyph glyph-name="hbar" unicode="&#x127;" horiz-adv-x="581" 
d="M90 710h19v-316q24 48 72 81t117 33q100 0 150 -56t50 -146v-306h-19v299q0 90 -47 140t-134 50q-72 0 -120.5 -40t-68.5 -101v-348h-19v710zM4 628h294v-19h-294v19z" />
    <glyph glyph-name="hcircumflex" unicode="&#x125;" horiz-adv-x="581" 
d="M90 710h19v-316q24 48 72 81t117 33q100 0 150 -56t50 -146v-306h-19v299q0 90 -47 140t-134 50q-72 0 -120.5 -40t-68.5 -101v-348h-19v710zM138 789l164 139l164 -139l-11 -13l-153 129l-153 -129z" />
    <glyph glyph-name="dotlessi" unicode="&#x131;" horiz-adv-x="199" 
d="M90 500h19v-500h-19v500z" />
    <glyph glyph-name="ibreve" unicode="&#x12d;" horiz-adv-x="199" 
d="M90 500h19v-500h-19v500zM100 589q-64 0 -98.5 32.5t-38.5 88.5h18q8 -56 38 -79t81 -23t80.5 23t37.5 79h18q-4 -56 -38 -88.5t-98 -32.5z" />
    <glyph glyph-name="imacron" unicode="&#x12b;" horiz-adv-x="199" 
d="M90 500h19v-500h-19v500zM-40 680h278v-19h-278v19z" />
    <glyph glyph-name="iogonek" unicode="&#x12f;" horiz-adv-x="200" 
d="M91 500h19v-500h-19v500zM91 710q3 4 10 4q6 0 9 -4v-90h-19v90zM84 -192q-32 0 -56.5 21t-24.5 60q0 19 7.5 37.5t20 33.5t28 27t32.5 20l19 -7q-16 -7 -31.5 -18t-28 -25t-20 -31t-7.5 -36q0 -18 6 -30t15 -19.5t20.5 -10.5t22.5 -3q15 0 28 4t19 9v-20
q-10 -6 -24.5 -9t-25.5 -3z" />
    <glyph glyph-name="itilde" unicode="&#x129;" horiz-adv-x="199" 
d="M90 500h19v-500h-19v500zM-59 592q8 37 28 58t50 21q25 0 45.5 -11t39 -24t37 -24t38.5 -11q28 0 42.5 18t19.5 52h19l-2 -10q-8 -38 -28 -58.5t-51 -20.5q-23 0 -42.5 11t-38 24t-38 24t-41.5 11q-29 0 -42 -18.5t-19 -51.5h-19z" />
    <glyph glyph-name="uni1ECB" unicode="&#x1ecb;" horiz-adv-x="199" 
d="M90 500h19v-500h-19v500zM90 710q3 4 10 4q6 0 9 -4v-90h-19v90zM90 -189v103h19v-103h-19z" />
    <glyph glyph-name="uni0237" unicode="&#x237;" horiz-adv-x="207" 
d="M-19 -165h8q33 0 54 8t33.5 24t17 41t4.5 60v532h19v-548q0 -72 -30 -104t-99 -32h-7v19z" />
    <glyph glyph-name="jcircumflex" unicode="&#x135;" horiz-adv-x="207" 
d="M-19 -165h8q33 0 54 8t33.5 24t17 41t4.5 60v532h19v-548q0 -72 -30 -104t-99 -32h-7v19zM257 579l-12 -13l-138 128l-138 -128l-12 13l150 139z" />
    <glyph glyph-name="uni0137" unicode="&#x137;" horiz-adv-x="471" 
d="M109 253l296 247h30l-296 -245l333 -255h-32zM109 710v-710h-19v710h19zM260 -50h21l-110 -165h-21z" />
    <glyph glyph-name="lacute" unicode="&#x13a;" horiz-adv-x="199" 
d="M90 710h19v-710h-19v710zM218.986 920h-20.998l-107.994 -160h20.999z" />
    <glyph glyph-name="lcaron" unicode="&#x13e;" horiz-adv-x="223" 
d="M90 710h19v-710h-19v710zM219 710h20l-32 -170h-17z" />
    <glyph glyph-name="uni013C" unicode="&#x13c;" horiz-adv-x="199" 
d="M90 710h19v-710h-19v710zM90 -50h21l-110 -165h-21z" />
    <glyph glyph-name="ldot" unicode="&#x140;" horiz-adv-x="260" 
d="M90 710h19v-710h-19v710zM220 318v103h19v-103h-19z" />
    <glyph glyph-name="lslash" unicode="&#x142;" horiz-adv-x="299" 
d="M142 710h19v-710h-19v710zM19 289l253 174l10 -15l-253 -174z" />
    <glyph glyph-name="nacute" unicode="&#x144;" horiz-adv-x="581" 
d="M90 500h19v-106q24 48 72 81t117 33q100 0 150 -56t50 -146v-306h-19v299q0 90 -47 140t-134 50q-72 0 -120.5 -40t-68.5 -101v-348h-19v500zM416.975 710h-20.999l-107.993 -160h20.999z" />
    <glyph glyph-name="ncaron" unicode="&#x148;" horiz-adv-x="581" 
d="M90 500h19v-106q24 48 72 81t117 33q100 0 150 -56t50 -146v-306h-19v299q0 90 -47 140t-134 50q-72 0 -120.5 -40t-68.5 -101v-348h-19v500zM146.991 704.957l11.999 12.999l137.991 -127.992l137.992 127.992l11.999 -12.999l-149.991 -138.991z" />
    <glyph glyph-name="uni0146" unicode="&#x146;" horiz-adv-x="581" 
d="M90 500h19v-106q24 48 72 81t117 33q100 0 150 -56t50 -146v-306h-19v299q0 90 -47 140t-134 50q-72 0 -120.5 -40t-68.5 -101v-348h-19v500zM285 -50h21l-110 -165h-21z" />
    <glyph glyph-name="oe" unicode="&#x153;" horiz-adv-x="1074" 
d="M1003 69q-34 -35 -84.5 -56t-110.5 -21q-44 0 -83.5 12.5t-72 35.5t-57 57t-36.5 78q-13 -44 -37 -78t-57 -57t-72.5 -35.5t-82.5 -12.5q-57 0 -105 20.5t-82 55.5t-53 82t-19 100t19 100t53 82t82 55.5t105 20.5q43 0 82.5 -12.5t72 -36t57 -57.5t37.5 -78
q25 89 89.5 136t149.5 48q43 0 84.5 -14.5t74.5 -45t53.5 -78t20.5 -111.5h-462v-3q0 -54 18 -99t50 -77.5t76 -50.5t95 -18q55 0 102 20.5t79 52.5zM310 11q52 0 96 18.5t75.5 51t49.5 76t18 93.5t-18 93.5t-49.5 76t-75.5 51t-96 18.5t-96 -18.5t-75.5 -51t-49.5 -76
t-18 -93.5t18 -93.5t49.5 -76t75.5 -51t96 -18.5zM798 489q-48 0 -88 -17t-70 -46t-48 -67.5t-22 -81.5h440q-8 104 -65 158t-147 54z" />
    <glyph glyph-name="obreve" unicode="&#x14f;" 
d="M310 -8q-57 0 -105 20.5t-82 55.5t-53 82t-19 100t19 100t53 82t82 55.5t105 20.5t105 -20.5t82 -55.5t53 -82t19 -100t-19 -100t-53 -82t-82 -55.5t-105 -20.5zM310 11q52 0 96 18.5t75.5 51t49.5 76t18 93.5t-18 93.5t-49.5 76t-75.5 51t-96 18.5t-96 -18.5t-75.5 -51
t-49.5 -76t-18 -93.5t18 -93.5t49.5 -76t75.5 -51t96 -18.5zM311 589q-64 0 -98.5 32.5t-38.5 88.5h18q8 -56 38 -79t81 -23t80.5 23t37.5 79h18q-4 -56 -38 -88.5t-98 -32.5z" />
    <glyph glyph-name="ohungarumlaut" unicode="&#x151;" 
d="M310 -8q-57 0 -105 20.5t-82 55.5t-53 82t-19 100t19 100t53 82t82 55.5t105 20.5t105 -20.5t82 -55.5t53 -82t19 -100t-19 -100t-53 -82t-82 -55.5t-105 -20.5zM310 11q52 0 96 18.5t75.5 51t49.5 76t18 93.5t-18 93.5t-49.5 76t-75.5 51t-96 18.5t-96 -18.5t-75.5 -51
t-49.5 -76t-18 -93.5t18 -93.5t49.5 -76t75.5 -51t96 -18.5zM343 710h21l-107 -160h-21zM503 710h21l-107 -160h-21z" />
    <glyph glyph-name="omacron" unicode="&#x14d;" 
d="M310 -8q-57 0 -105 20.5t-82 55.5t-53 82t-19 100t19 100t53 82t82 55.5t105 20.5t105 -20.5t82 -55.5t53 -82t19 -100t-19 -100t-53 -82t-82 -55.5t-105 -20.5zM310 11q52 0 96 18.5t75.5 51t49.5 76t18 93.5t-18 93.5t-49.5 76t-75.5 51t-96 18.5t-96 -18.5t-75.5 -51
t-49.5 -76t-18 -93.5t18 -93.5t49.5 -76t75.5 -51t96 -18.5zM171 680h278v-19h-278v19z" />
    <glyph glyph-name="uni1ECD" unicode="&#x1ecd;" 
d="M310 -8q-57 0 -105 20.5t-82 55.5t-53 82t-19 100t19 100t53 82t82 55.5t105 20.5t105 -20.5t82 -55.5t53 -82t19 -100t-19 -100t-53 -82t-82 -55.5t-105 -20.5zM310 11q52 0 96 18.5t75.5 51t49.5 76t18 93.5t-18 93.5t-49.5 76t-75.5 51t-96 18.5t-96 -18.5t-75.5 -51
t-49.5 -76t-18 -93.5t18 -93.5t49.5 -76t75.5 -51t96 -18.5zM301 -188v103h19v-103h-19z" />
    <glyph glyph-name="racute" unicode="&#x155;" horiz-adv-x="322" 
d="M90 500h19v-96q20 45 62 74.5t107 29.5q8 0 16 -0.5t16 -1.5v-20q-8 1 -16 1.5t-16 0.5q-70 0 -112.5 -38.5t-56.5 -96.5v-353h-19v500zM316.98 710h-20.998l-107.994 -160h20.999z" />
    <glyph glyph-name="rcaron" unicode="&#x159;" horiz-adv-x="322" 
d="M90 500h19v-96q20 45 62 74.5t107 29.5q8 0 16 -0.5t16 -1.5v-20q-8 1 -16 1.5t-16 0.5q-70 0 -112.5 -38.5t-56.5 -96.5v-353h-19v500zM46.9971 704.957l11.999 12.999l137.992 -127.992l137.991 127.992l11.999 -12.999l-149.99 -138.991z" />
    <glyph glyph-name="uni0157" unicode="&#x157;" horiz-adv-x="322" 
d="M90 500h19v-96q20 45 62 74.5t107 29.5q8 0 16 -0.5t16 -1.5v-20q-8 1 -16 1.5t-16 0.5q-70 0 -112.5 -38.5t-56.5 -96.5v-353h-19v500zM89 -50h21l-110 -165h-21z" />
    <glyph glyph-name="sacute" unicode="&#x15b;" horiz-adv-x="404" 
d="M206 -8q-35 0 -62.5 10.5t-48 27t-34 36t-20.5 38.5l19 8q20 -47 55 -74t91 -27q63 0 99.5 29.5t36.5 78.5q0 26 -8 45.5t-23.5 34.5t-37 26t-48.5 21l-53 19q-59 21 -83.5 53.5t-24.5 74.5q0 51 37 83t101 32q48 0 79 -20.5t48 -49.5l-18 -10q-14 25 -38 43t-71 18
q-59 0 -88.5 -27t-29.5 -70t26.5 -69t78.5 -45l56 -20q59 -22 88 -54.5t29 -83.5q0 -26 -10.5 -49.5t-30.5 -41t-49 -27.5t-66 -10zM321.98 710h-20.999l-107.993 -160h20.999z" />
    <glyph glyph-name="scaron" unicode="&#x161;" horiz-adv-x="404" 
d="M206 -8q-35 0 -62.5 10.5t-48 27t-34 36t-20.5 38.5l19 8q20 -47 55 -74t91 -27q63 0 99.5 29.5t36.5 78.5q0 26 -8 45.5t-23.5 34.5t-37 26t-48.5 21l-53 19q-59 21 -83.5 53.5t-24.5 74.5q0 51 37 83t101 32q48 0 79 -20.5t48 -49.5l-18 -10q-14 25 -38 43t-71 18
q-59 0 -88.5 -27t-29.5 -70t26.5 -69t78.5 -45l56 -20q59 -22 88 -54.5t29 -83.5q0 -26 -10.5 -49.5t-30.5 -41t-49 -27.5t-66 -10zM51.9971 704.957l11.999 12.999l137.991 -127.992l137.992 127.992l11.999 -12.999l-149.991 -138.991z" />
    <glyph glyph-name="scedilla" unicode="&#x15f;" horiz-adv-x="404" 
d="M206 -8q-35 0 -62.5 10.5t-48 27t-34 36t-20.5 38.5l19 8q20 -47 55 -74t91 -27q63 0 99.5 29.5t36.5 78.5q0 26 -8 45.5t-23.5 34.5t-37 26t-48.5 21l-53 19q-59 21 -83.5 53.5t-24.5 74.5q0 51 37 83t101 32q48 0 79 -20.5t48 -49.5l-18 -10q-14 25 -38 43t-71 18
q-59 0 -88.5 -27t-29.5 -70t26.5 -69t78.5 -45l56 -20q59 -22 88 -54.5t29 -83.5q0 -26 -10.5 -49.5t-30.5 -41t-49 -27.5t-66 -10zM225 0h21l-110 -165h-21z" />
    <glyph glyph-name="scircumflex" unicode="&#x15d;" horiz-adv-x="404" 
d="M206 -8q-35 0 -62.5 10.5t-48 27t-34 36t-20.5 38.5l19 8q20 -47 55 -74t91 -27q63 0 99.5 29.5t36.5 78.5q0 26 -8 45.5t-23.5 34.5t-37 26t-48.5 21l-53 19q-59 21 -83.5 53.5t-24.5 74.5q0 51 37 83t101 32q48 0 79 -20.5t48 -49.5l-18 -10q-14 25 -38 43t-71 18
q-59 0 -88.5 -27t-29.5 -70t26.5 -69t78.5 -45l56 -20q59 -22 88 -54.5t29 -83.5q0 -26 -10.5 -49.5t-30.5 -41t-49 -27.5t-66 -10zM352 579l-12 -13l-138 128l-138 -128l-12 13l150 139z" />
    <glyph glyph-name="uni0219" unicode="&#x219;" horiz-adv-x="404" 
d="M206 -8q-35 0 -62.5 10.5t-48 27t-34 36t-20.5 38.5l19 8q20 -47 55 -74t91 -27q63 0 99.5 29.5t36.5 78.5q0 26 -8 45.5t-23.5 34.5t-37 26t-48.5 21l-53 19q-59 21 -83.5 53.5t-24.5 74.5q0 51 37 83t101 32q48 0 79 -20.5t48 -49.5l-18 -10q-14 25 -38 43t-71 18
q-59 0 -88.5 -27t-29.5 -70t26.5 -69t78.5 -45l56 -20q59 -22 88 -54.5t29 -83.5q0 -26 -10.5 -49.5t-30.5 -41t-49 -27.5t-66 -10zM196 -50h21l-110 -165h-21z" />
    <glyph glyph-name="tcaron" unicode="&#x165;" horiz-adv-x="298" 
d="M250 0q-69 0 -99 32t-30 104v345h-109l-5 19h114v141l19 9v-150h147l-5 -19h-142v-329q0 -36 5 -61t18 -41t35.5 -23.5t58.5 -7.5h27v-19h-34zM260 710h20l-32 -170h-17z" />
    <glyph glyph-name="uni0163" unicode="&#x163;" horiz-adv-x="298" 
d="M250 0q-69 0 -99 32t-30 104v345h-109l-5 19h114v141l19 9v-150h147l-5 -19h-142v-329q0 -36 5 -61t18 -41t35.5 -23.5t58.5 -7.5h27v-19h-34zM185 -50h21l-110 -165h-21z" />
    <glyph glyph-name="uni021B" unicode="&#x21b;" horiz-adv-x="298" 
d="M250 0q-69 0 -99 32t-30 104v345h-109l-5 19h114v141l19 9v-150h147l-5 -19h-142v-329q0 -36 5 -61t18 -41t35.5 -23.5t58.5 -7.5h27v-19h-34zM185 -50h21l-110 -165h-21z" />
    <glyph glyph-name="ubreve" unicode="&#x16d;" horiz-adv-x="581" 
d="M472 106q-25 -49 -72.5 -81.5t-116.5 -32.5q-100 0 -150 56t-50 146v306h19v-299q0 -90 47 -140t134 -50q71 0 120 40t69 100v349h19v-500h-19v106zM290 589q-64 0 -98.5 32.5t-38.5 88.5h18q8 -56 38 -79t81 -23t80.5 23t37.5 79h18q-4 -56 -38 -88.5t-98 -32.5z" />
    <glyph glyph-name="uhungarumlaut" unicode="&#x171;" horiz-adv-x="581" 
d="M472 106q-25 -49 -72.5 -81.5t-116.5 -32.5q-100 0 -150 56t-50 146v306h19v-299q0 -90 47 -140t134 -50q71 0 120 40t69 100v349h19v-500h-19v106zM322 710h21l-107 -160h-21zM482 710h21l-107 -160h-21z" />
    <glyph glyph-name="umacron" unicode="&#x16b;" horiz-adv-x="581" 
d="M472 106q-25 -49 -72.5 -81.5t-116.5 -32.5q-100 0 -150 56t-50 146v306h19v-299q0 -90 47 -140t134 -50q71 0 120 40t69 100v349h19v-500h-19v106zM150 680h278v-19h-278v19z" />
    <glyph glyph-name="uogonek" unicode="&#x173;" horiz-adv-x="581" 
d="M472 106q-25 -49 -72.5 -81.5t-116.5 -32.5q-100 0 -150 56t-50 146v306h19v-299q0 -90 47 -140t134 -50q71 0 120 40t69 100v349h19v-500h-19v106zM465 -192q-32 0 -56.5 21t-24.5 60q0 19 7.5 37.5t20 33.5t28 27t32.5 20l19 -7q-16 -7 -31.5 -18t-28 -25t-20 -31
t-7.5 -36q0 -18 6 -30t15 -19.5t20.5 -10.5t22.5 -3q15 0 28 4t19 9v-20q-10 -6 -24.5 -9t-25.5 -3z" />
    <glyph glyph-name="uring" unicode="&#x16f;" horiz-adv-x="581" 
d="M472 106q-25 -49 -72.5 -81.5t-116.5 -32.5q-100 0 -150 56t-50 146v306h19v-299q0 -90 47 -140t134 -50q71 0 120 40t69 100v349h19v-500h-19v106zM289 591q-33 0 -56.5 23.5t-23.5 56.5t23.5 56.5t56.5 23.5t56.5 -23.5t23.5 -56.5t-23.5 -56.5t-56.5 -23.5zM289 608
q26 0 44 18.5t18 44.5t-18 44.5t-44 18.5t-44 -18.5t-18 -44.5t18 -44.5t44 -18.5z" />
    <glyph glyph-name="utilde" unicode="&#x169;" horiz-adv-x="581" 
d="M472 106q-25 -49 -72.5 -81.5t-116.5 -32.5q-100 0 -150 56t-50 146v306h19v-299q0 -90 47 -140t134 -50q71 0 120 40t69 100v349h19v-500h-19v106zM131 592q8 37 28 58t50 21q25 0 45.5 -11t39 -24t37 -24t38.5 -11q28 0 42.5 18t19.5 52h19l-2 -10q-8 -38 -28 -58.5
t-51 -20.5q-23 0 -42.5 11t-38 24t-38 24t-41.5 11q-29 0 -42 -18.5t-19 -51.5h-19z" />
    <glyph glyph-name="uni1EE5" unicode="&#x1ee5;" horiz-adv-x="581" 
d="M472 106q-25 -49 -72.5 -81.5t-116.5 -32.5q-100 0 -150 56t-50 146v306h19v-299q0 -90 47 -140t134 -50q71 0 120 40t69 100v349h19v-500h-19v106zM274 -189v103h19v-103h-19z" />
    <glyph glyph-name="wacute" unicode="&#x1e83;" horiz-adv-x="740" 
d="M16 500h22l161 -454l171 462l171 -462l161 454h22l-182 -505h-2l-170 458l-170 -458h-2zM489.97 710h-20.998l-107.994 -160h20.999z" />
    <glyph glyph-name="wcircumflex" unicode="&#x175;" horiz-adv-x="740" 
d="M16 500h22l161 -454l171 462l171 -462l161 454h22l-182 -505h-2l-170 458l-170 -458h-2zM520 579l-12 -13l-138 128l-138 -128l-12 13l150 139z" />
    <glyph glyph-name="wdieresis" unicode="&#x1e85;" horiz-adv-x="740" 
d="M16 500h22l161 -454l171 462l171 -462l161 454h22l-182 -505h-2l-170 458l-170 -458h-2zM471 584v103h19v-103h-19zM251 584v103h19v-103h-19z" />
    <glyph glyph-name="wgrave" unicode="&#x1e81;" horiz-adv-x="740" 
d="M16 500h22l161 -454l171 462l171 -462l161 454h22l-182 -505h-2l-170 458l-170 -458h-2zM254 710h21l108 -160h-21z" />
    <glyph glyph-name="ycircumflex" unicode="&#x177;" horiz-adv-x="516" 
d="M247 8l-236 492h22l224 -470l229 470h21l-333 -684h-23zM409 579l-12 -13l-138 128l-138 -128l-12 13l150 139z" />
    <glyph glyph-name="ygrave" unicode="&#x1ef3;" horiz-adv-x="516" 
d="M247 8l-236 492h22l224 -470l229 470h21l-333 -684h-23zM143 710h21l108 -160h-21z" />
    <glyph glyph-name="uni0233" unicode="&#x233;" horiz-adv-x="516" 
d="M247 8l-236 492h22l224 -470l229 470h21l-333 -684h-23zM120 680h278v-19h-278v19z" />
    <glyph glyph-name="zacute" unicode="&#x17a;" horiz-adv-x="475" 
d="M406 481h-353v19h395l-390 -481h381v-19h-423zM372.978 710h-20.999l-107.993 -160h20.998z" />
    <glyph glyph-name="zcaron" unicode="&#x17e;" horiz-adv-x="475" 
d="M406 481h-353v19h395l-390 -481h381v-19h-423zM102.994 704.957l11.999 12.999l137.991 -127.992l137.992 127.992l11.999 -12.999l-149.991 -138.991z" />
    <glyph glyph-name="zdotaccent" unicode="&#x17c;" horiz-adv-x="475" 
d="M406 481h-353v19h395l-390 -481h381v-19h-423zM244 584v103h19v-103h-19z" />
    <glyph glyph-name="ellipsis" unicode="&#x2026;" horiz-adv-x="507" 
d="M75 103h19v-103h-19v103zM244 103h19v-103h-19v103zM413 103h19v-103h-19v103z" />
    <glyph glyph-name="endash" unicode="&#x2013;" horiz-adv-x="560" 
d="M76 280h408v-19h-408v19z" />
    <glyph glyph-name="emdash" unicode="&#x2014;" horiz-adv-x="868" 
d="M76 280h716v-19h-716v19z" />
    <glyph glyph-name="guilsinglleft" unicode="&#x2039;" horiz-adv-x="281" 
d="M56 250l147 213l15 -11l-139 -202l139 -202l-15 -11z" />
    <glyph glyph-name="guilsinglright" unicode="&#x203a;" horiz-adv-x="281" 
d="M63 48l139 202l-139 202l15 11l147 -213l-147 -213z" />
    <glyph glyph-name="quoteleft" unicode="&#x2018;" horiz-adv-x="190" 
d="M91 572v-103h-19v104l54 137h19z" />
    <glyph glyph-name="quoteright" unicode="&#x2019;" horiz-adv-x="192" 
d="M112 607v103h19v-104l-54 -137h-19z" />
    <glyph glyph-name="quotedblleft" unicode="&#x201c;" horiz-adv-x="374" 
d="M91 572v-103h-19v104l54 137h19zM275 572v-103h-19v104l54 137h19z" />
    <glyph glyph-name="quotedblright" unicode="&#x201d;" horiz-adv-x="376" 
d="M112 607v103h19v-104l-54 -137h-19zM296 607v103h19v-104l-54 -137h-19z" />
    <glyph glyph-name="quotesinglbase" unicode="&#x201a;" horiz-adv-x="181" 
d="M83 0v103h19v-104l-54 -137h-19z" />
    <glyph glyph-name="quotedblbase" unicode="&#x201e;" horiz-adv-x="365" 
d="M83 0v103h19v-104l-54 -137h-19zM267 0v103h19v-104l-54 -137h-19z" />
    <glyph glyph-name="bullet" unicode="&#x2022;" horiz-adv-x="444" 
d="M222 166q-28 0 -53 10.5t-43.5 29t-29 43.5t-10.5 53t10.5 53t29 43.5t43.5 29t53 10.5t53 -10.5t43.5 -29t29 -43.5t10.5 -53t-10.5 -53t-29 -43.5t-43.5 -29t-53 -10.5z" />
    <glyph glyph-name="minus" unicode="&#x2212;" horiz-adv-x="590" 
d="M75 280h440v-19h-440v19z" />
    <glyph glyph-name="Euro" unicode="&#x20ac;" horiz-adv-x="753" 
d="M46 277h108q-8 40 -8 78q0 42 9 81h-115l6 19h113q16 58 49 106.5t78.5 83t102.5 54t120 19.5q56 0 106 -14.5t92 -41.5l-6 -19q-43 29 -91 42.5t-101 13.5q-59 0 -111.5 -17.5t-96 -50t-75 -77.5t-46.5 -99h457l-6 -19h-456q-9 -39 -9 -81q0 -38 8 -78h403l-7 -19h-391
q15 -55 46.5 -100.5t75 -78t96.5 -50.5t112 -18q60 0 109 17t83 40v-20q-28 -20 -78.5 -38t-113.5 -18q-64 0 -121 19.5t-103 55t-79 84t-48 107.5h-119z" />
    <glyph glyph-name="uniFB01" unicode="&#xfb01;" horiz-adv-x="502" 
d="M139 481h-132v19h130q-27 14 -43 38.5t-16 56.5q0 52 37 83.5t105 31.5h75v-18h-83q-54 0 -84 -27.5t-30 -69.5q0 -41 30 -68t84 -27h84v-19h-138v-481h-19v481zM393 500h19v-500h-19v500zM393 710q3 4 10 4q6 0 9 -4v-90h-19v90z" />
    <glyph glyph-name="uniFB02" unicode="&#xfb02;" horiz-adv-x="502" 
d="M139 481h-132v19h130q-27 14 -43 38.5t-16 56.5q0 52 37 83.5t105 31.5h75v-18h-83q-54 0 -84 -27.5t-30 -69.5q0 -41 30 -68t84 -27h84v-19h-138v-481h-19v481zM393 710h19v-710h-19v710z" />
    <glyph glyph-name="glyph329" horiz-adv-x="161" 
d="M71 710q3 4 10 4q6 0 9 -4v-90h-19v90z" />
    <glyph glyph-name="breve" unicode="&#x2d8;" horiz-adv-x="0" 
d="M1 589q-64 0 -98.5 32.5t-38.5 88.5h18q8 -56 38 -79t81 -23t80.5 23t37.5 79h18q-4 -56 -38 -88.5t-98 -32.5z" />
    <glyph glyph-name="caron" unicode="&#x2c7;" horiz-adv-x="0" 
d="M-149.991 704.957l12 12.999l137.991 -127.992l137.991 127.992l12 -12.999l-149.991 -138.991z" />
    <glyph glyph-name="circumflex" unicode="&#x2c6;" horiz-adv-x="0" 
d="M150 579l-12 -13l-138 128l-138 -128l-12 13l150 139z" />
    <glyph glyph-name="dotaccent" unicode="&#x2d9;" horiz-adv-x="0" 
d="M-9 584v103h19v-103h-19z" />
    <glyph glyph-name="hungarumlaut" unicode="&#x2dd;" horiz-adv-x="0" 
d="M-35 710h21l-107 -160h-21zM125 710h21l-107 -160h-21z" />
    <glyph glyph-name="glyph335" horiz-adv-x="0" 
d="M-10 -50h21l-110 -165h-21z" />
    <glyph glyph-name="ogonek" unicode="&#x2db;" horiz-adv-x="0" 
d="M15 -192q-32 0 -56.5 21t-24.5 60q0 19 7.5 37.5t20 33.5t28 27t32.5 20l19 -7q-16 -7 -31.5 -18t-28 -25t-20 -31t-7.5 -36q0 -18 6 -30t15 -19.5t20.5 -10.5t22.5 -3q15 0 28 4t19 9v-20q-10 -6 -24.5 -9t-25.5 -3z" />
    <glyph glyph-name="ring" unicode="&#x2da;" horiz-adv-x="0" 
d="M0 591q-33 0 -56.5 23.5t-23.5 56.5t23.5 56.5t56.5 23.5t56.5 -23.5t23.5 -56.5t-23.5 -56.5t-56.5 -23.5zM0 608q26 0 44 18.5t18 44.5t-18 44.5t-44 18.5t-44 -18.5t-18 -44.5t18 -44.5t44 -18.5z" />
    <glyph glyph-name="tilde" unicode="&#x2dc;" horiz-adv-x="0" 
d="M-158 592q8 37 28 58t50 21q25 0 45.5 -11t39 -24t37 -24t38.5 -11q28 0 42.5 18t19.5 52h19l-2 -10q-8 -38 -28 -58.5t-51 -20.5q-23 0 -42.5 11t-38 24t-38 24t-41.5 11q-29 0 -42 -18.5t-19 -51.5h-19z" />
    <glyph glyph-name="glyph339" horiz-adv-x="0" 
d="M5 710h20l-32 -170h-17z" />
    <glyph glyph-name="glyph340" horiz-adv-x="0" 
d="M-90 584v103h19v-103h-19zM70 584v103h19v-103h-19z" />
    <glyph glyph-name="glyph341" horiz-adv-x="0" 
d="M-147 628h294v-19h-294v19z" />
    <glyph glyph-name="glyph342" horiz-adv-x="0" 
d="M-132 276l253 174l10 -15l-253 -174z" />
    <glyph glyph-name="glyph343" horiz-adv-x="0" 
d="M1 781q-64 0 -98.5 32.5t-38.5 88.5h18q8 -56 38 -79t81 -23t80.5 23t37.5 79h18q-4 -56 -38 -88.5t-98 -32.5z" />
    <glyph glyph-name="glyph344" horiz-adv-x="0" 
d="M-164 789l164 139l164 -139l-11 -13l-153 129l-153 -129z" />
    <glyph glyph-name="glyph345" horiz-adv-x="0" 
d="M-121 913h21l110 -145h-21z" />
    <glyph glyph-name="glyph346" horiz-adv-x="0" 
d="M-55 913h21l-110 -145h-21zM145 913h21l-110 -145h-21z" />
    <glyph glyph-name="glyph347" horiz-adv-x="0" 
d="M-139 850h278v-19h-278v19z" />
    <glyph glyph-name="glyph348" horiz-adv-x="0" 
d="M16 -192q-32 0 -56.5 21t-24.5 60q0 19 7.5 37.5t20 33.5t28 27t32.5 20l19 -7q-16 -7 -31.5 -18t-28 -25t-20 -31t-7.5 -36q0 -18 6 -30t15 -19.5t20.5 -10.5t22.5 -3q15 0 28 4t19 9v-20q-10 -6 -24.5 -9t-25.5 -3z" />
    <glyph glyph-name="glyph349" horiz-adv-x="0" 
d="M-166 376h332v-19h-332v19z" />
    <glyph glyph-name="glyph350" horiz-adv-x="0" 
d="M-157 255l305 209l10 -15l-305 -209z" />
    <glyph glyph-name="glyph351" horiz-adv-x="0" 
d="M-335 553h670v-19h-670v19z" />
    </font>
</defs>
</svg>
