<?xml version="1.0" standalone="no"?>
<!DOCTYPE svg PUBLIC "-//W3C//DTD SVG 1.1//EN" "http://www.w3.org/Graphics/SVG/1.1/DTD/svg11.dtd" >
<svg xmlns="http://www.w3.org/2000/svg" xmlns:xlink="http://www.w3.org/1999/xlink" version="1.1">
<metadata>
Created by Christoph Koeberlin (http://christoph.koe.berlin)
Copyright (c) 2018 Swiss Typefaces Sarl. All rights reserved.
</metadata>
<defs>
<font id="Font" horiz-adv-x="0" >
  <font-face 
    font-family="Font"
    font-weight="275"
    font-style="italic"
    font-stretch="normal"
    units-per-em="1000"
    panose-1="2 11 3 4 0 0 0 0 0 0"
    ascent="800"
    descent="-200"
    x-height="500"
    cap-height="710"
    bbox="-244 -215 1153 929"
    underline-thickness="50"
    underline-position="-115"
    slope="-12"
    unicode-range="U+000D-FB02"
  />
<missing-glyph horiz-adv-x="496" 
d="M4 19l147 691h496l-4 -19l-147 -691h-496zM325 370l281 321h-429zM25 29l288 328l-149 325zM483 28l139 653l-289 -329zM40 19h429l-147 320z" />
    <glyph glyph-name=".notdef" horiz-adv-x="496" 
d="M4 19l147 691h496l-4 -19l-147 -691h-496zM325 370l281 321h-429zM25 29l288 328l-149 325zM483 28l139 653l-289 -329zM40 19h429l-147 320z" />
    <glyph glyph-name="glyph1" 
 />
    <glyph glyph-name="A" unicode="A" horiz-adv-x="696" 
d="M570 213h-346l-145 -213h-69l491 718l185 -718h-62zM556 269l-79 317l-215 -317h294z" />
    <glyph glyph-name="glyph3" horiz-adv-x="686" 
d="M533 297h-360l-63 -297h-60l150 710h480l-150 -710h-60zM185 355h360l63 297h-360z" />
    <glyph glyph-name="AE" unicode="&#xc6;" horiz-adv-x="1010" 
d="M511 213h-347l-145 -213h-69l449 655l-14 55h390l15 -58h-332l67 -258h284l15 -59h-284l71 -277h332l15 -58h-393zM497 269l-81 317l-214 -317h295z" />
    <glyph glyph-name="Aacute" unicode="&#xc1;" horiz-adv-x="670" 
d="M570 213h-346l-145 -213h-69l491 718l185 -718h-62zM556 269l-79 317l-215 -317h294zM541 913h75l-142 -145h-53z" />
    <glyph glyph-name="Abreve" unicode="&#x102;" horiz-adv-x="670" 
d="M570 213h-346l-145 -213h-69l491 718l185 -718h-62zM556 269l-79 317l-215 -317h294zM615 906q-11 -60 -50.5 -95t-114.5 -35q-71 0 -106 37.5t-32 92.5h44q-2 -47 25.5 -68t71.5 -21q46 0 76 21t43 68h43z" />
    <glyph glyph-name="Acircumflex" unicode="&#xc2;" horiz-adv-x="670" 
d="M570 213h-346l-145 -213h-69l491 718l185 -718h-62zM556 269l-79 317l-215 -317h294zM288 810l194 117l143 -119l-27 -38l-120 101l-168 -101z" />
    <glyph glyph-name="Adieresis" unicode="&#xc4;" horiz-adv-x="670" 
d="M570 213h-346l-145 -213h-69l491 718l185 -718h-62zM556 269l-79 317l-215 -317h294zM635 843q0 -22 -15 -37t-37 -15t-37 15t-15 37t15 37t37 15t37 -15t15 -37zM415 843q0 -22 -15 -37t-37 -15t-37 15t-15 37t15 37t37 15t37 -15t15 -37z" />
    <glyph glyph-name="Agrave" unicode="&#xc0;" horiz-adv-x="670" 
d="M570 213h-346l-145 -213h-69l491 718l185 -718h-62zM556 269l-79 317l-215 -317h294zM332 913h66l68 -145h-49z" />
    <glyph glyph-name="Amacron" unicode="&#x100;" horiz-adv-x="670" 
d="M570 213h-346l-145 -213h-69l491 718l185 -718h-62zM556 269l-79 317l-215 -317h294zM322 860h286l-10 -45h-286z" />
    <glyph glyph-name="Aogonek" unicode="&#x104;" horiz-adv-x="670" 
d="M602 -192q-32 0 -55 19t-23 52q0 21 9 40.5t23.5 35t32 27.5t34.5 20l-53 211h-346l-145 -213h-69l491 718l185 -718q-46 -20 -74.5 -49.5t-28.5 -58.5q0 -38 47 -38q17 0 29 6l-10 -46q-21 -6 -47 -6zM556 269l-79 317l-215 -317h294z" />
    <glyph glyph-name="Aring" unicode="&#xc5;" horiz-adv-x="670" 
d="M570 213h-346l-145 -213h-69l491 718l185 -718h-62zM556 269l-79 317l-215 -317h294zM551 841q0 -37 -26.5 -62.5t-64.5 -25.5t-64.5 25.5t-26.5 62.5q0 38 26.5 63t64.5 25t64.5 -25t26.5 -63zM406 841q0 -23 15.5 -38.5t38.5 -15.5t38.5 15.5t15.5 38.5t-15.5 38.5
t-38.5 15.5t-38.5 -15.5t-15.5 -38.5z" />
    <glyph glyph-name="Atilde" unicode="&#xc3;" horiz-adv-x="670" 
d="M570 213h-346l-145 -213h-69l491 718l185 -718h-62zM556 269l-79 317l-215 -317h294zM282 792q17 53 44.5 78t64.5 25q23 0 41.5 -9t34.5 -19.5t30.5 -19t30.5 -8.5q24 0 39 14.5t25 41.5h47q-17 -54 -44 -78.5t-66 -24.5q-22 0 -40 8.5t-34 19t-31 19.5t-32 9
q-23 0 -38 -14.5t-25 -41.5h-47z" />
    <glyph glyph-name="B" unicode="B" horiz-adv-x="638" 
d="M201 710h201q49 0 85.5 -14t60.5 -36.5t35.5 -52t11.5 -60.5q0 -69 -38.5 -115.5t-95.5 -66.5q48 -14 81 -51.5t33 -95.5q0 -48 -18 -88.5t-53.5 -69t-88 -44.5t-121.5 -16h-244zM355 391q41 0 74 11.5t56.5 31.5t36 47t12.5 58q0 23 -8.5 44t-25 36.5t-42 25t-58.5 9.5
h-151l-57 -263h163zM305 56q51 0 90 12.5t65.5 34t40 50.5t13.5 62q0 52 -38.5 87.5t-116.5 35.5h-177l-61 -282h184z" />
    <glyph glyph-name="C" unicode="C" horiz-adv-x="696" 
d="M677 58q-48 -32 -106 -49t-125 -17q-80 0 -142 27.5t-104.5 74t-64.5 106.5t-22 125q0 75 27.5 146t80 125.5t128.5 88t172 33.5q81 0 141.5 -27.5t102.5 -74.5l-45 -40q-35 38 -86 61t-117 23q-77 0 -140 -27t-107.5 -72.5t-69 -105t-24.5 -125.5q0 -55 17.5 -105.5
t52 -89.5t85.5 -62t118 -23q58 0 106.5 15.5t88.5 42.5z" />
    <glyph glyph-name="uni000D" unicode="&#xd;" horiz-adv-x="268" 
 />
    <glyph glyph-name="Cacute" unicode="&#x106;" horiz-adv-x="688" 
d="M677 58q-48 -32 -106 -49t-125 -17q-80 0 -142 27.5t-104.5 74t-64.5 106.5t-22 125q0 75 27.5 146t80 125.5t128.5 88t172 33.5q81 0 141.5 -27.5t102.5 -74.5l-45 -40q-35 38 -86 61t-117 23q-77 0 -140 -27t-107.5 -72.5t-69 -105t-24.5 -125.5q0 -55 17.5 -105.5
t52 -89.5t85.5 -62t118 -23q58 0 106.5 15.5t88.5 42.5zM590 913h75l-142 -145h-53z" />
    <glyph glyph-name="Ccaron" unicode="&#x10c;" horiz-adv-x="688" 
d="M677 58q-48 -32 -106 -49t-125 -17q-80 0 -142 27.5t-104.5 74t-64.5 106.5t-22 125q0 75 27.5 146t80 125.5t128.5 88t172 33.5q81 0 141.5 -27.5t102.5 -74.5l-45 -40q-35 38 -86 61t-117 23q-77 0 -140 -27t-107.5 -72.5t-69 -105t-24.5 -125.5q0 -55 17.5 -105.5
t52 -89.5t85.5 -62t118 -23q58 0 106.5 15.5t88.5 42.5zM684 884l-193 -116l-143 119l27 38l120 -101l167 101z" />
    <glyph glyph-name="Ccedilla" unicode="&#xc7;" horiz-adv-x="688" 
d="M677 58q-48 -32 -106 -49t-125 -17q-80 0 -142 27.5t-104.5 74t-64.5 106.5t-22 125q0 75 27.5 146t80 125.5t128.5 88t172 33.5q81 0 141.5 -27.5t102.5 -74.5l-45 -40q-35 38 -86 61t-117 23q-77 0 -140 -27t-107.5 -72.5t-69 -105t-24.5 -125.5q0 -55 17.5 -105.5
t52 -89.5t85.5 -62t118 -23q58 0 106.5 15.5t88.5 42.5zM375 0h46l-93 -165h-68z" />
    <glyph glyph-name="Ccircumflex" unicode="&#x108;" horiz-adv-x="688" 
d="M677 58q-48 -32 -106 -49t-125 -17q-80 0 -142 27.5t-104.5 74t-64.5 106.5t-22 125q0 75 27.5 146t80 125.5t128.5 88t172 33.5q81 0 141.5 -27.5t102.5 -74.5l-45 -40q-35 38 -86 61t-117 23q-77 0 -140 -27t-107.5 -72.5t-69 -105t-24.5 -125.5q0 -55 17.5 -105.5
t52 -89.5t85.5 -62t118 -23q58 0 106.5 15.5t88.5 42.5zM336 810l194 117l143 -119l-27 -38l-120 101l-168 -101z" />
    <glyph glyph-name="Cdotaccent" unicode="&#x10a;" horiz-adv-x="688" 
d="M677 58q-48 -32 -106 -49t-125 -17q-80 0 -142 27.5t-104.5 74t-64.5 106.5t-22 125q0 75 27.5 146t80 125.5t128.5 88t172 33.5q81 0 141.5 -27.5t102.5 -74.5l-45 -40q-35 38 -86 61t-117 23q-77 0 -140 -27t-107.5 -72.5t-69 -105t-24.5 -125.5q0 -55 17.5 -105.5
t52 -89.5t85.5 -62t118 -23q58 0 106.5 15.5t88.5 42.5zM521 791q-22 0 -37 15t-15 37t15 37t37 15t37 -15t15 -37t-15 -37t-37 -15z" />
    <glyph glyph-name="D" unicode="D" horiz-adv-x="744" 
d="M201 710h194q78 0 138.5 -22.5t102.5 -62t64 -93.5t22 -116q0 -86 -34 -162t-95.5 -132.5t-146.5 -89t-187 -32.5h-209zM261 56q91 0 164.5 29.5t125.5 79t80 113.5t28 134q0 52 -17.5 96t-51.5 76.5t-82.5 51t-110.5 18.5h-148l-128 -598h140z" />
    <glyph glyph-name="Dcaron" unicode="&#x10e;" horiz-adv-x="744" 
d="M201 710h194q78 0 138.5 -22.5t102.5 -62t64 -93.5t22 -116q0 -86 -34 -162t-95.5 -132.5t-146.5 -89t-187 -32.5h-209zM261 56q91 0 164.5 29.5t125.5 79t80 113.5t28 134q0 52 -17.5 96t-51.5 76.5t-82.5 51t-110.5 18.5h-148l-128 -598h140zM653 884l-193 -116
l-143 119l27 38l120 -101l167 101z" />
    <glyph glyph-name="Dcroat" unicode="&#x110;" horiz-adv-x="766" 
d="M223 710h194q78 0 138.5 -22.5t102.5 -62t64 -93.5t22 -116q0 -86 -34 -162t-95.5 -132.5t-146.5 -89t-187 -32.5h-209zM283 56q91 0 164.5 29.5t125.5 79t80 113.5t28 134q0 52 -17.5 96t-51.5 76.5t-82.5 51t-110.5 18.5h-148l-128 -598h140zM36 386h332l-10 -51h-333z
" />
    <glyph glyph-name="E" unicode="E" horiz-adv-x="538" 
d="M242 710h403l-13 -58h-343l-55 -258h283l-13 -59h-282l-59 -277h343l-12 -58h-403z" />
    <glyph glyph-name="Eacute" unicode="&#xc9;" horiz-adv-x="551" 
d="M242 710h403l-13 -58h-343l-55 -258h283l-13 -59h-282l-59 -277h343l-12 -58h-403zM510 913h75l-142 -145h-53z" />
    <glyph glyph-name="Ebreve" unicode="&#x114;" horiz-adv-x="551" 
d="M242 710h403l-13 -58h-343l-55 -258h283l-13 -59h-282l-59 -277h343l-12 -58h-403zM584 906q-11 -60 -50.5 -95t-114.5 -35q-71 0 -106 37.5t-32 92.5h44q-2 -47 25.5 -68t71.5 -21q46 0 76 21t43 68h43z" />
    <glyph glyph-name="Ecaron" unicode="&#x11a;" horiz-adv-x="551" 
d="M242 710h403l-13 -58h-343l-55 -258h283l-13 -59h-282l-59 -277h343l-12 -58h-403zM605 884l-193 -116l-143 119l27 38l120 -101l167 101z" />
    <glyph glyph-name="Ecircumflex" unicode="&#xca;" horiz-adv-x="551" 
d="M242 710h403l-13 -58h-343l-55 -258h283l-13 -59h-282l-59 -277h343l-12 -58h-403zM257 810l194 117l143 -119l-27 -38l-120 101l-168 -101z" />
    <glyph glyph-name="Edieresis" unicode="&#xcb;" horiz-adv-x="551" 
d="M242 710h403l-13 -58h-343l-55 -258h283l-13 -59h-282l-59 -277h343l-12 -58h-403zM604 843q0 -22 -15 -37t-37 -15t-37 15t-15 37t15 37t37 15t37 -15t15 -37zM384 843q0 -22 -15 -37t-37 -15t-37 15t-15 37t15 37t37 15t37 -15t15 -37z" />
    <glyph glyph-name="Edotaccent" unicode="&#x116;" horiz-adv-x="551" 
d="M242 710h403l-13 -58h-343l-55 -258h283l-13 -59h-282l-59 -277h343l-12 -58h-403zM442 791q-22 0 -37 15t-15 37t15 37t37 15t37 -15t15 -37t-15 -37t-37 -15z" />
    <glyph glyph-name="Egrave" unicode="&#xc8;" horiz-adv-x="551" 
d="M242 710h403l-13 -58h-343l-55 -258h283l-13 -59h-282l-59 -277h343l-12 -58h-403zM301 913h66l68 -145h-49z" />
    <glyph glyph-name="Emacron" unicode="&#x112;" horiz-adv-x="551" 
d="M242 710h403l-13 -58h-343l-55 -258h283l-13 -59h-282l-59 -277h343l-12 -58h-403zM291 860h286l-10 -45h-286z" />
    <glyph glyph-name="Eogonek" unicode="&#x118;" horiz-adv-x="551" 
d="M242 710h403l-13 -58h-343l-55 -258h283l-13 -59h-282l-59 -277h343l-12 -58h-403zM368 -192q-33 0 -56 19t-23 52q0 21 9.5 40.5t24.5 35.5t33.5 28t36.5 20l59 -3q-46 -20 -75 -49.5t-29 -58.5q0 -38 47 -38q18 0 29 6l-9 -46q-21 -6 -47 -6z" />
    <glyph glyph-name="Eth" unicode="&#xd0;" horiz-adv-x="766" 
d="M223 710h194q78 0 138.5 -22.5t102.5 -62t64 -93.5t22 -116q0 -86 -34 -162t-95.5 -132.5t-146.5 -89t-187 -32.5h-209zM283 56q91 0 164.5 29.5t125.5 79t80 113.5t28 134q0 52 -17.5 96t-51.5 76.5t-82.5 51t-110.5 18.5h-148l-128 -598h140zM36 386h332l-10 -51h-333z
" />
    <glyph glyph-name="Euro" unicode="&#x20ac;" horiz-adv-x="736" 
d="M69 293h126q-1 8 -1 16v16q0 40 9 81h-129l30 51h113q19 54 53.5 101.5t83.5 83t111 56t137 20.5q55 0 100 -14t80 -40l-30 -52q-29 22 -68.5 35.5t-85.5 13.5q-59 0 -109.5 -15.5t-90.5 -42.5t-69.5 -64.5t-47.5 -81.5h384l-29 -51h-371q-4 -19 -6 -37.5t-2 -38.5
q0 -10 0.5 -19t1.5 -18h314l-29 -50h-276q12 -44 35.5 -79.5t57.5 -61t76.5 -39.5t92.5 -14q57 0 107 18l-14 -64q-47 -11 -96 -11q-62 0 -116 18t-96 51t-71 79.5t-41 102.5h-163z" />
    <glyph glyph-name="F" unicode="F" horiz-adv-x="524" 
d="M201 710h396l-12 -58h-338l-54 -258h268l-12 -59h-268l-71 -335h-60z" />
    <glyph glyph-name="G" unicode="G" horiz-adv-x="772" 
d="M714 70q-58 -38 -125.5 -58t-142.5 -20q-80 0 -142 27.5t-104.5 74t-64.5 106.5t-22 125q0 75 27.5 146t80 125.5t128.5 88t172 33.5q81 0 146.5 -27t107.5 -75l-45 -40q-35 40 -91 62t-122 22q-77 0 -140 -27t-107.5 -72.5t-69 -105t-24.5 -125.5q0 -55 17.5 -105.5
t52 -89.5t85.5 -62t118 -23q124 0 212 57l49 228h-214l39 59h248z" />
    <glyph glyph-name="Gbreve" unicode="&#x11e;" horiz-adv-x="767" 
d="M714 70q-58 -38 -125.5 -58t-142.5 -20q-80 0 -142 27.5t-104.5 74t-64.5 106.5t-22 125q0 75 27.5 146t80 125.5t128.5 88t172 33.5q81 0 146.5 -27t107.5 -75l-45 -40q-35 40 -91 62t-122 22q-77 0 -140 -27t-107.5 -72.5t-69 -105t-24.5 -125.5q0 -55 17.5 -105.5
t52 -89.5t85.5 -62t118 -23q124 0 212 57l49 228h-214l39 59h248zM663 906q-11 -60 -50.5 -95t-114.5 -35q-71 0 -106 37.5t-32 92.5h44q-2 -47 25.5 -68t71.5 -21q46 0 76 21t43 68h43z" />
    <glyph glyph-name="Gcircumflex" unicode="&#x11c;" horiz-adv-x="767" 
d="M714 70q-58 -38 -125.5 -58t-142.5 -20q-80 0 -142 27.5t-104.5 74t-64.5 106.5t-22 125q0 75 27.5 146t80 125.5t128.5 88t172 33.5q81 0 146.5 -27t107.5 -75l-45 -40q-35 40 -91 62t-122 22q-77 0 -140 -27t-107.5 -72.5t-69 -105t-24.5 -125.5q0 -55 17.5 -105.5
t52 -89.5t85.5 -62t118 -23q124 0 212 57l49 228h-214l39 59h248zM336 810l194 117l143 -119l-27 -38l-120 101l-168 -101z" />
    <glyph glyph-name="uni0122" unicode="&#x122;" horiz-adv-x="767" 
d="M714 70q-58 -38 -125.5 -58t-142.5 -20q-80 0 -142 27.5t-104.5 74t-64.5 106.5t-22 125q0 75 27.5 146t80 125.5t128.5 88t172 33.5q81 0 146.5 -27t107.5 -75l-45 -40q-35 40 -91 62t-122 22q-77 0 -140 -27t-107.5 -72.5t-69 -105t-24.5 -125.5q0 -55 17.5 -105.5
t52 -89.5t85.5 -62t118 -23q124 0 212 57l49 228h-214l39 59h248zM367 -50h68l-126 -165h-48z" />
    <glyph glyph-name="Gdotaccent" unicode="&#x120;" horiz-adv-x="767" 
d="M714 70q-58 -38 -125.5 -58t-142.5 -20q-80 0 -142 27.5t-104.5 74t-64.5 106.5t-22 125q0 75 27.5 146t80 125.5t128.5 88t172 33.5q81 0 146.5 -27t107.5 -75l-45 -40q-35 40 -91 62t-122 22q-77 0 -140 -27t-107.5 -72.5t-69 -105t-24.5 -125.5q0 -55 17.5 -105.5
t52 -89.5t85.5 -62t118 -23q124 0 212 57l49 228h-214l39 59h248zM521 791q-22 0 -37 15t-15 37t15 37t37 15t37 -15t15 -37t-15 -37t-37 -15z" />
    <glyph glyph-name="H" unicode="H" horiz-adv-x="765" 
d="M201 710h60l-68 -316h439l68 316h60l-151 -710h-60l72 335h-440l-71 -335h-60z" />
    <glyph glyph-name="Hbar" unicode="&#x126;" horiz-adv-x="767" 
d="M202 710h60l-68 -316h439l68 316h60l-151 -710h-60l72 335h-440l-71 -335h-60zM110 577h686l-11 -50h-686z" />
    <glyph glyph-name="Hcircumflex" unicode="&#x124;" horiz-adv-x="765" 
d="M201 710h60l-68 -316h439l68 316h60l-151 -710h-60l72 335h-440l-71 -335h-60zM334 810l194 117l143 -119l-27 -38l-120 101l-168 -101z" />
    <glyph glyph-name="I" unicode="I" horiz-adv-x="266" 
d="M201 710h60l-151 -710h-60z" />
    <glyph glyph-name="Iacute" unicode="&#xcd;" horiz-adv-x="266" 
d="M201 710h60l-151 -710h-60zM338 913h75l-142 -145h-53z" />
    <glyph glyph-name="Ibreve" unicode="&#x12c;" horiz-adv-x="266" 
d="M201 710h60l-151 -710h-60zM412 906q-11 -60 -50.5 -95t-114.5 -35q-71 0 -106 37.5t-32 92.5h44q-2 -47 25.5 -68t71.5 -21q46 0 76 21t43 68h43z" />
    <glyph glyph-name="Icircumflex" unicode="&#xce;" horiz-adv-x="266" 
d="M201 710h60l-151 -710h-60zM85 810l194 117l143 -119l-27 -38l-120 101l-168 -101z" />
    <glyph glyph-name="Idieresis" unicode="&#xcf;" horiz-adv-x="266" 
d="M201 710h60l-151 -710h-60zM432 843q0 -22 -15 -37t-37 -15t-37 15t-15 37t15 37t37 15t37 -15t15 -37zM212 843q0 -22 -15 -37t-37 -15t-37 15t-15 37t15 37t37 15t37 -15t15 -37z" />
    <glyph glyph-name="Idotaccent" unicode="&#x130;" horiz-adv-x="266" 
d="M201 710h60l-151 -710h-60zM270 791q-22 0 -37 15t-15 37t15 37t37 15t37 -15t15 -37t-15 -37t-37 -15z" />
    <glyph glyph-name="Igrave" unicode="&#xcc;" horiz-adv-x="266" 
d="M201 710h60l-151 -710h-60zM128 913h66l68 -145h-49z" />
    <glyph glyph-name="Imacron" unicode="&#x12a;" horiz-adv-x="266" 
d="M201 710h60l-151 -710h-60zM119 860h286l-10 -45h-286z" />
    <glyph glyph-name="Iogonek" unicode="&#x12e;" horiz-adv-x="266" 
d="M201 710h60l-151 -710h-60zM26 -192q-33 0 -56 19t-23 52q0 21 9.5 40.5t24.5 35.5t33.5 28t36.5 20l59 -3q-46 -20 -75 -49.5t-29 -58.5q0 -38 47 -38q18 0 29 6l-9 -46q-21 -6 -47 -6z" />
    <glyph glyph-name="Itilde" unicode="&#x128;" horiz-adv-x="266" 
d="M201 710h60l-151 -710h-60zM79 792q17 53 44.5 78t64.5 25q23 0 41.5 -9t34.5 -19.5t30.5 -19t30.5 -8.5q24 0 39 14.5t25 41.5h47q-17 -54 -44 -78.5t-66 -24.5q-22 0 -40 8.5t-34 19t-31 19.5t-32 9q-23 0 -38 -14.5t-25 -41.5h-47z" />
    <glyph glyph-name="J" unicode="J" horiz-adv-x="524" 
d="M417 196q-12 -55 -33 -93.5t-50 -63t-66.5 -36t-82.5 -11.5q-46 0 -83.5 14t-61.5 40.5t-33 64.5t1 85h60q-14 -72 18.5 -109t101.5 -37q66 0 109.5 37t59.5 109l109 514h60z" />
    <glyph glyph-name="Jcircumflex" unicode="&#x134;" horiz-adv-x="524" 
d="M417 196q-12 -55 -33 -93.5t-50 -63t-66.5 -36t-82.5 -11.5q-46 0 -83.5 14t-61.5 40.5t-33 64.5t1 85h60q-14 -72 18.5 -109t101.5 -37q66 0 109.5 37t59.5 109l109 514h60zM351 810l194 117l143 -119l-27 -38l-120 101l-168 -101z" />
    <glyph glyph-name="K" unicode="K" horiz-adv-x="606" 
d="M201 710h60l-75 -354l421 354h77l-430 -364l307 -346h-70l-308 345l-73 -345h-60z" />
    <glyph glyph-name="uni0136" unicode="&#x136;" horiz-adv-x="606" 
d="M201 710h60l-75 -354l421 354h77l-430 -364l307 -346h-70l-308 345l-73 -345h-60zM265 -50h68l-126 -165h-48z" />
    <glyph glyph-name="L" unicode="L" horiz-adv-x="517" 
d="M201 710h60l-139 -651h341l-12 -59h-401z" />
    <glyph glyph-name="Lacute" unicode="&#x139;" horiz-adv-x="517" 
d="M201 710h60l-139 -651h341l-12 -59h-401zM339 913h75l-142 -145h-53z" />
    <glyph glyph-name="Lcaron" unicode="&#x13d;" horiz-adv-x="518" 
d="M201 710h60l-139 -651h341l-12 -59h-401zM460 710l-76 -167h-44l61 167h59z" />
    <glyph glyph-name="uni013B" unicode="&#x13b;" horiz-adv-x="517" 
d="M201 710h60l-139 -651h341l-12 -59h-401zM224 -50h68l-126 -165h-48z" />
    <glyph glyph-name="Ldot" unicode="&#x13f;" horiz-adv-x="521" 
d="M201 710h60l-139 -651h341l-12 -59h-401zM408 321q-22 0 -37 15t-15 37t15 37t37 15t37 -15t15 -37t-15 -37t-37 -15z" />
    <glyph glyph-name="Lslash" unicode="&#x141;" horiz-adv-x="583" 
d="M267 710h60l-139 -651h341l-12 -59h-401zM18 277l394 222l24 -43l-393 -222z" />
    <glyph glyph-name="M" unicode="M" horiz-adv-x="879" 
d="M203 718l248 -396l424 396l-153 -718h-60l119 559l-344 -323l-206 334l-121 -570h-60z" />
    <glyph glyph-name="N" unicode="N" horiz-adv-x="787" 
d="M232 578l-122 -578h-60l153 718l396 -588l123 580h60l-153 -718z" />
    <glyph glyph-name="Nacute" unicode="&#x143;" horiz-adv-x="787" 
d="M232 578l-122 -578h-60l153 718l396 -588l123 580h60l-153 -718zM585 913h75l-142 -145h-53z" />
    <glyph glyph-name="Ncaron" unicode="&#x147;" horiz-adv-x="787" 
d="M232 578l-122 -578h-60l153 718l396 -588l123 580h60l-153 -718zM679 884l-193 -116l-143 119l27 38l120 -101l167 101z" />
    <glyph glyph-name="uni0145" unicode="&#x145;" horiz-adv-x="787" 
d="M232 578l-122 -578h-60l153 718l396 -588l123 580h60l-153 -718zM332 -50h68l-126 -165h-48z" />
    <glyph glyph-name="Ntilde" unicode="&#xd1;" horiz-adv-x="787" 
d="M232 578l-122 -578h-60l153 718l396 -588l123 580h60l-153 -718zM325 792q17 53 44.5 78t64.5 25q23 0 41.5 -9t34.5 -19.5t30.5 -19t30.5 -8.5q24 0 39 14.5t25 41.5h47q-17 -54 -44 -78.5t-66 -24.5q-22 0 -40 8.5t-34 19t-31 19.5t-32 9q-23 0 -38 -14.5t-25 -41.5
h-47z" />
    <glyph glyph-name="O" unicode="O" horiz-adv-x="818" 
d="M852 385q0 -75 -27.5 -146t-80 -125.5t-128 -88t-172.5 -33.5q-80 0 -141.5 27.5t-103.5 74t-64 106.5t-22 125q0 75 27.5 146t80 125.5t128.5 88t172 33.5q79 0 141 -27.5t104 -74t64 -106.5t22 -125zM176 330q0 -56 17.5 -106.5t52 -89t85.5 -61.5t118 -23q77 0 140 27
t107.5 72.5t69 105t24.5 125.5q0 56 -17.5 106.5t-52 89t-85.5 61.5t-118 23q-77 0 -140 -27t-107.5 -72.5t-69 -105t-24.5 -125.5z" />
    <glyph glyph-name="OE" unicode="&#x152;" horiz-adv-x="1101" 
d="M603 20q-73 -28 -159 -28q-80 0 -141.5 27.5t-103.5 74t-64 106.5t-22 125q0 75 27.5 146t80 125.5t128.5 88t172 33.5q67 0 120.5 -19.5t94.5 -54.5l14 66h403l-13 -58h-343l-12 -59q32 -42 48.5 -93t18.5 -106h173l-12 -59h-164q-11 -83 -54.5 -156t-116.5 -121h336
l-12 -58h-403zM176 330q0 -56 17.5 -106.5t52 -89t85.5 -61.5t118 -23q48 0 91 10.5t79 30.5l2 7l19 6q63 41 101.5 104t46.5 137v49h2q-2 54 -20.5 102t-53 84.5t-84.5 58t-115 21.5q-77 0 -140 -27t-107.5 -72.5t-69 -105t-24.5 -125.5z" />
    <glyph glyph-name="Oacute" unicode="&#xd3;" horiz-adv-x="841" 
d="M852 385q0 -75 -27.5 -146t-80 -125.5t-128 -88t-172.5 -33.5q-80 0 -141.5 27.5t-103.5 74t-64 106.5t-22 125q0 75 27.5 146t80 125.5t128.5 88t172 33.5q79 0 141 -27.5t104 -74t64 -106.5t22 -125zM176 330q0 -56 17.5 -106.5t52 -89t85.5 -61.5t118 -23q77 0 140 27
t107.5 72.5t69 105t24.5 125.5q0 56 -17.5 106.5t-52 89t-85.5 61.5t-118 23q-77 0 -140 -27t-107.5 -72.5t-69 -105t-24.5 -125.5zM590 913h75l-142 -145h-53z" />
    <glyph glyph-name="Obreve" unicode="&#x14e;" horiz-adv-x="841" 
d="M852 385q0 -75 -27.5 -146t-80 -125.5t-128 -88t-172.5 -33.5q-80 0 -141.5 27.5t-103.5 74t-64 106.5t-22 125q0 75 27.5 146t80 125.5t128.5 88t172 33.5q79 0 141 -27.5t104 -74t64 -106.5t22 -125zM176 330q0 -56 17.5 -106.5t52 -89t85.5 -61.5t118 -23q77 0 140 27
t107.5 72.5t69 105t24.5 125.5q0 56 -17.5 106.5t-52 89t-85.5 61.5t-118 23q-77 0 -140 -27t-107.5 -72.5t-69 -105t-24.5 -125.5zM663 906q-11 -60 -50.5 -95t-114.5 -35q-71 0 -106 37.5t-32 92.5h44q-2 -47 25.5 -68t71.5 -21q46 0 76 21t43 68h43z" />
    <glyph glyph-name="Ocircumflex" unicode="&#xd4;" horiz-adv-x="841" 
d="M852 385q0 -75 -27.5 -146t-80 -125.5t-128 -88t-172.5 -33.5q-80 0 -141.5 27.5t-103.5 74t-64 106.5t-22 125q0 75 27.5 146t80 125.5t128.5 88t172 33.5q79 0 141 -27.5t104 -74t64 -106.5t22 -125zM176 330q0 -56 17.5 -106.5t52 -89t85.5 -61.5t118 -23q77 0 140 27
t107.5 72.5t69 105t24.5 125.5q0 56 -17.5 106.5t-52 89t-85.5 61.5t-118 23q-77 0 -140 -27t-107.5 -72.5t-69 -105t-24.5 -125.5zM336 810l194 117l143 -119l-27 -38l-120 101l-168 -101z" />
    <glyph glyph-name="Odieresis" unicode="&#xd6;" horiz-adv-x="841" 
d="M852 385q0 -75 -27.5 -146t-80 -125.5t-128 -88t-172.5 -33.5q-80 0 -141.5 27.5t-103.5 74t-64 106.5t-22 125q0 75 27.5 146t80 125.5t128.5 88t172 33.5q79 0 141 -27.5t104 -74t64 -106.5t22 -125zM176 330q0 -56 17.5 -106.5t52 -89t85.5 -61.5t118 -23q77 0 140 27
t107.5 72.5t69 105t24.5 125.5q0 56 -17.5 106.5t-52 89t-85.5 61.5t-118 23q-77 0 -140 -27t-107.5 -72.5t-69 -105t-24.5 -125.5zM683 843q0 -22 -15 -37t-37 -15t-37 15t-15 37t15 37t37 15t37 -15t15 -37zM463 843q0 -22 -15 -37t-37 -15t-37 15t-15 37t15 37t37 15
t37 -15t15 -37z" />
    <glyph glyph-name="Ograve" unicode="&#xd2;" horiz-adv-x="841" 
d="M852 385q0 -75 -27.5 -146t-80 -125.5t-128 -88t-172.5 -33.5q-80 0 -141.5 27.5t-103.5 74t-64 106.5t-22 125q0 75 27.5 146t80 125.5t128.5 88t172 33.5q79 0 141 -27.5t104 -74t64 -106.5t22 -125zM176 330q0 -56 17.5 -106.5t52 -89t85.5 -61.5t118 -23q77 0 140 27
t107.5 72.5t69 105t24.5 125.5q0 56 -17.5 106.5t-52 89t-85.5 61.5t-118 23q-77 0 -140 -27t-107.5 -72.5t-69 -105t-24.5 -125.5zM380 913h66l68 -145h-49z" />
    <glyph glyph-name="Ohungarumlaut" unicode="&#x150;" horiz-adv-x="841" 
d="M852 385q0 -75 -27.5 -146t-80 -125.5t-128 -88t-172.5 -33.5q-80 0 -141.5 27.5t-103.5 74t-64 106.5t-22 125q0 75 27.5 146t80 125.5t128.5 88t172 33.5q79 0 141 -27.5t104 -74t64 -106.5t22 -125zM176 330q0 -56 17.5 -106.5t52 -89t85.5 -61.5t118 -23q77 0 140 27
t107.5 72.5t69 105t24.5 125.5q0 56 -17.5 106.5t-52 89t-85.5 61.5t-118 23q-77 0 -140 -27t-107.5 -72.5t-69 -105t-24.5 -125.5zM689 913h73l-143 -145h-51zM490 913h72l-142 -145h-51z" />
    <glyph glyph-name="Omacron" unicode="&#x14c;" horiz-adv-x="841" 
d="M852 385q0 -75 -27.5 -146t-80 -125.5t-128 -88t-172.5 -33.5q-80 0 -141.5 27.5t-103.5 74t-64 106.5t-22 125q0 75 27.5 146t80 125.5t128.5 88t172 33.5q79 0 141 -27.5t104 -74t64 -106.5t22 -125zM176 330q0 -56 17.5 -106.5t52 -89t85.5 -61.5t118 -23q77 0 140 27
t107.5 72.5t69 105t24.5 125.5q0 56 -17.5 106.5t-52 89t-85.5 61.5t-118 23q-77 0 -140 -27t-107.5 -72.5t-69 -105t-24.5 -125.5zM370 860h286l-10 -45h-286z" />
    <glyph glyph-name="Oslash" unicode="&#xd8;" horiz-adv-x="841" 
d="M155 -57l-36 34l90 106l-10 10q-42 47 -64 107t-22 125q0 75 27.5 146t80 125.5t128.5 88t172 33.5q79 0 141 -28q22 -10 42 -22l85 100l37 -34l-82 -96q12 -10 22 -22q42 -46 64 -106t22 -125q0 -75 -27.5 -146t-80 -125.5t-128 -88t-172.5 -33.5q-80 0 -142 27
q-30 14 -56 32zM331 73q51 -23 118 -23q77 0 140 27t107.5 72.5t69 105t24.5 125.5q0 56 -17.5 106.5t-52.5 88.5q-7 9 -15 16l-419 -493q21 -14 45 -25zM176 330q0 -56 17.5 -106.5t51.5 -89.5l4 -4l416 491q-15 9 -30 16q-51 23 -118 23q-77 0 -140 -27t-107.5 -72.5
t-69 -105t-24.5 -125.5z" />
    <glyph glyph-name="Otilde" unicode="&#xd5;" horiz-adv-x="841" 
d="M852 385q0 -75 -27.5 -146t-80 -125.5t-128 -88t-172.5 -33.5q-80 0 -141.5 27.5t-103.5 74t-64 106.5t-22 125q0 75 27.5 146t80 125.5t128.5 88t172 33.5q79 0 141 -27.5t104 -74t64 -106.5t22 -125zM176 330q0 -56 17.5 -106.5t52 -89t85.5 -61.5t118 -23q77 0 140 27
t107.5 72.5t69 105t24.5 125.5q0 56 -17.5 106.5t-52 89t-85.5 61.5t-118 23q-77 0 -140 -27t-107.5 -72.5t-69 -105t-24.5 -125.5zM330 792q17 53 44.5 78t64.5 25q23 0 41.5 -9t34.5 -19.5t30.5 -19t30.5 -8.5q24 0 39 14.5t25 41.5h47q-17 -54 -44 -78.5t-66 -24.5
q-22 0 -40 8.5t-34 19t-31 19.5t-32 9q-23 0 -38 -14.5t-25 -41.5h-47z" />
    <glyph glyph-name="P" unicode="P" horiz-adv-x="571" 
d="M201 710h191q51 0 89 -13.5t62.5 -37.5t37 -56.5t12.5 -69.5q0 -50 -17.5 -92.5t-52.5 -73.5t-87.5 -48.5t-121.5 -17.5h-140l-64 -301h-60zM326 357q49 0 87.5 13t64.5 36.5t40 55.5t14 70q0 54 -34.5 88t-110.5 34h-138l-63 -297h140z" />
    <glyph glyph-name="Q" unicode="Q" horiz-adv-x="847" 
d="M852 385q0 -88 -37 -168.5t-108 -137.5l65 -77l-43 -38l-70 82q-45 -26 -98.5 -40t-116.5 -14q-80 0 -141.5 27.5t-103.5 74t-64 106.5t-22 125q0 75 27.5 146t80 125.5t128.5 88t172 33.5q79 0 141 -27.5t104 -74t64 -106.5t22 -125zM562 251l107 -127q58 46 89.5 113
t31.5 143q0 56 -17.5 106.5t-52 89t-85.5 61.5t-118 23q-77 0 -140 -27t-107.5 -72.5t-69 -105t-24.5 -125.5q0 -56 17.5 -106.5t52 -89t85.5 -61.5t118 -23q49 0 92 11t80 31l-102 122z" />
    <glyph glyph-name="R" unicode="R" horiz-adv-x="612" 
d="M297 331h-117l-70 -331h-60l151 710h190q49 0 86 -12.5t61.5 -34.5t36.5 -52.5t12 -65.5q0 -89 -58 -146.5t-169 -65.5l191 -333h-66zM327 384q49 0 86.5 12t62.5 33t37.5 49.5t12.5 62.5q0 51 -35 82.5t-107 31.5h-135l-58 -271h136z" />
    <glyph glyph-name="Racute" unicode="&#x154;" horiz-adv-x="612" 
d="M297 331h-117l-70 -331h-60l151 710h190q49 0 86 -12.5t61.5 -34.5t36.5 -52.5t12 -65.5q0 -89 -58 -146.5t-169 -65.5l191 -333h-66zM327 384q49 0 86.5 12t62.5 33t37.5 49.5t12.5 62.5q0 51 -35 82.5t-107 31.5h-135l-58 -271h136zM500 913h75l-142 -145h-53z" />
    <glyph glyph-name="Rcaron" unicode="&#x158;" horiz-adv-x="612" 
d="M297 331h-117l-70 -331h-60l151 710h190q49 0 86 -12.5t61.5 -34.5t36.5 -52.5t12 -65.5q0 -89 -58 -146.5t-169 -65.5l191 -333h-66zM327 384q49 0 86.5 12t62.5 33t37.5 49.5t12.5 62.5q0 51 -35 82.5t-107 31.5h-135l-58 -271h136zM595 884l-193 -116l-143 119l27 38
l120 -101l167 101z" />
    <glyph glyph-name="uni0156" unicode="&#x156;" horiz-adv-x="612" 
d="M297 331h-117l-70 -331h-60l151 710h190q49 0 86 -12.5t61.5 -34.5t36.5 -52.5t12 -65.5q0 -89 -58 -146.5t-169 -65.5l191 -333h-66zM327 384q49 0 86.5 12t62.5 33t37.5 49.5t12.5 62.5q0 51 -35 82.5t-107 31.5h-135l-58 -271h136zM266 -50h68l-126 -165h-48z" />
    <glyph glyph-name="S" unicode="S" horiz-adv-x="524" 
d="M470 178q0 -37 -15 -71t-43.5 -59.5t-71.5 -40.5t-98 -15q-41 0 -77 10.5t-65.5 29t-52 43t-35.5 52.5l55 33q10 -22 26.5 -42t39 -35.5t51.5 -24.5t63 -9q77 0 118.5 36t41.5 88q0 51 -26 85.5t-76 67.5l-73 49q-54 36 -81 77t-27 95q0 39 15 71t42 54t64.5 34t82.5 12
q57 0 109 -24.5t89 -81.5l-54 -34q-27 45 -65 64t-85 19q-59 0 -98 -29.5t-39 -84.5q0 -41 22 -70t64 -58l73 -50q57 -38 91.5 -82.5t34.5 -108.5z" />
    <glyph glyph-name="Sacute" unicode="&#x15a;" horiz-adv-x="524" 
d="M470 178q0 -37 -15 -71t-43.5 -59.5t-71.5 -40.5t-98 -15q-41 0 -77 10.5t-65.5 29t-52 43t-35.5 52.5l55 33q10 -22 26.5 -42t39 -35.5t51.5 -24.5t63 -9q77 0 118.5 36t41.5 88q0 51 -26 85.5t-76 67.5l-73 49q-54 36 -81 77t-27 95q0 39 15 71t42 54t64.5 34t82.5 12
q57 0 109 -24.5t89 -81.5l-54 -34q-27 45 -65 64t-85 19q-59 0 -98 -29.5t-39 -84.5q0 -41 22 -70t64 -58l73 -50q57 -38 91.5 -82.5t34.5 -108.5zM436 913h75l-142 -145h-53z" />
    <glyph glyph-name="Scaron" unicode="&#x160;" horiz-adv-x="524" 
d="M470 178q0 -37 -15 -71t-43.5 -59.5t-71.5 -40.5t-98 -15q-41 0 -77 10.5t-65.5 29t-52 43t-35.5 52.5l55 33q10 -22 26.5 -42t39 -35.5t51.5 -24.5t63 -9q77 0 118.5 36t41.5 88q0 51 -26 85.5t-76 67.5l-73 49q-54 36 -81 77t-27 95q0 39 15 71t42 54t64.5 34t82.5 12
q57 0 109 -24.5t89 -81.5l-54 -34q-27 45 -65 64t-85 19q-59 0 -98 -29.5t-39 -84.5q0 -41 22 -70t64 -58l73 -50q57 -38 91.5 -82.5t34.5 -108.5zM531 884l-193 -116l-143 119l27 38l120 -101l167 101z" />
    <glyph glyph-name="Scedilla" unicode="&#x15e;" horiz-adv-x="524" 
d="M470 178q0 -37 -15 -71t-43.5 -59.5t-71.5 -40.5t-98 -15q-41 0 -77 10.5t-65.5 29t-52 43t-35.5 52.5l55 33q10 -22 26.5 -42t39 -35.5t51.5 -24.5t63 -9q77 0 118.5 36t41.5 88q0 51 -26 85.5t-76 67.5l-73 49q-54 36 -81 77t-27 95q0 39 15 71t42 54t64.5 34t82.5 12
q57 0 109 -24.5t89 -81.5l-54 -34q-27 45 -65 64t-85 19q-59 0 -98 -29.5t-39 -84.5q0 -41 22 -70t64 -58l73 -50q57 -38 91.5 -82.5t34.5 -108.5zM211 0h46l-93 -165h-68z" />
    <glyph glyph-name="Scircumflex" unicode="&#x15c;" horiz-adv-x="524" 
d="M470 178q0 -37 -15 -71t-43.5 -59.5t-71.5 -40.5t-98 -15q-41 0 -77 10.5t-65.5 29t-52 43t-35.5 52.5l55 33q10 -22 26.5 -42t39 -35.5t51.5 -24.5t63 -9q77 0 118.5 36t41.5 88q0 51 -26 85.5t-76 67.5l-73 49q-54 36 -81 77t-27 95q0 39 15 71t42 54t64.5 34t82.5 12
q57 0 109 -24.5t89 -81.5l-54 -34q-27 45 -65 64t-85 19q-59 0 -98 -29.5t-39 -84.5q0 -41 22 -70t64 -58l73 -50q57 -38 91.5 -82.5t34.5 -108.5zM183 810l194 117l143 -119l-27 -38l-120 101l-168 -101z" />
    <glyph glyph-name="uni0218" unicode="&#x218;" horiz-adv-x="524" 
d="M470 178q0 -37 -15 -71t-43.5 -59.5t-71.5 -40.5t-98 -15q-41 0 -77 10.5t-65.5 29t-52 43t-35.5 52.5l55 33q10 -22 26.5 -42t39 -35.5t51.5 -24.5t63 -9q77 0 118.5 36t41.5 88q0 51 -26 85.5t-76 67.5l-73 49q-54 36 -81 77t-27 95q0 39 15 71t42 54t64.5 34t82.5 12
q57 0 109 -24.5t89 -81.5l-54 -34q-27 45 -65 64t-85 19q-59 0 -98 -29.5t-39 -84.5q0 -41 22 -70t64 -58l73 -50q57 -38 91.5 -82.5t34.5 -108.5zM203 -50h68l-126 -165h-48z" />
    <glyph glyph-name="T" unicode="T" horiz-adv-x="496" 
d="M302 652h-205l12 58h472l-13 -58h-206l-138 -652h-60z" />
    <glyph glyph-name="Tcaron" unicode="&#x164;" horiz-adv-x="496" 
d="M302 652h-205l12 58h472l-13 -58h-206l-138 -652h-60zM547 884l-193 -116l-143 119l27 38l120 -101l167 101z" />
    <glyph glyph-name="uni021A" unicode="&#x21a;" horiz-adv-x="496" 
d="M302 652h-205l12 58h472l-13 -58h-206l-138 -652h-60zM150 -50h68l-126 -165h-48z" />
    <glyph glyph-name="Thorn" unicode="&#xde;" horiz-adv-x="581" 
d="M201 710h60l-32 -146h136q50 0 87 -13.5t62 -37.5t37 -56.5t12 -69.5q0 -50 -18.5 -92.5t-54.5 -73.5t-87.5 -48.5t-117.5 -17.5h-142l-33 -155h-60zM295 212q49 0 87.5 13t64.5 36t40 54.5t14 69.5q0 53 -35 88t-111 35h-138l-62 -296h140z" />
    <glyph glyph-name="U" unicode="U" horiz-adv-x="729" 
d="M639 267q-29 -132 -104.5 -203.5t-208.5 -71.5q-63 0 -111.5 18.5t-79 54t-41.5 86.5t3 116l95 443h60l-95 -444q-12 -54 -4.5 -94.5t30.5 -67.5t60 -40.5t85 -13.5q96 0 162 54t89 162l94 444h60z" />
    <glyph glyph-name="Uacute" unicode="&#xda;" horiz-adv-x="729" 
d="M639 267q-29 -132 -104.5 -203.5t-208.5 -71.5q-63 0 -111.5 18.5t-79 54t-41.5 86.5t3 116l95 443h60l-95 -444q-12 -54 -4.5 -94.5t30.5 -67.5t60 -40.5t85 -13.5q96 0 162 54t89 162l94 444h60zM568 913h75l-142 -145h-53z" />
    <glyph glyph-name="Ubreve" unicode="&#x16c;" horiz-adv-x="729" 
d="M639 267q-29 -132 -104.5 -203.5t-208.5 -71.5q-63 0 -111.5 18.5t-79 54t-41.5 86.5t3 116l95 443h60l-95 -444q-12 -54 -4.5 -94.5t30.5 -67.5t60 -40.5t85 -13.5q96 0 162 54t89 162l94 444h60zM641 906q-11 -60 -50.5 -95t-114.5 -35q-71 0 -106 37.5t-32 92.5h44
q-2 -47 25.5 -68t71.5 -21q46 0 76 21t43 68h43z" />
    <glyph glyph-name="Ucircumflex" unicode="&#xdb;" horiz-adv-x="729" 
d="M639 267q-29 -132 -104.5 -203.5t-208.5 -71.5q-63 0 -111.5 18.5t-79 54t-41.5 86.5t3 116l95 443h60l-95 -444q-12 -54 -4.5 -94.5t30.5 -67.5t60 -40.5t85 -13.5q96 0 162 54t89 162l94 444h60zM314 810l194 117l143 -119l-27 -38l-120 101l-168 -101z" />
    <glyph glyph-name="Udieresis" unicode="&#xdc;" horiz-adv-x="729" 
d="M639 267q-29 -132 -104.5 -203.5t-208.5 -71.5q-63 0 -111.5 18.5t-79 54t-41.5 86.5t3 116l95 443h60l-95 -444q-12 -54 -4.5 -94.5t30.5 -67.5t60 -40.5t85 -13.5q96 0 162 54t89 162l94 444h60zM661 843q0 -22 -15 -37t-37 -15t-37 15t-15 37t15 37t37 15t37 -15
t15 -37zM441 843q0 -22 -15 -37t-37 -15t-37 15t-15 37t15 37t37 15t37 -15t15 -37z" />
    <glyph glyph-name="Ugrave" unicode="&#xd9;" horiz-adv-x="729" 
d="M639 267q-29 -132 -104.5 -203.5t-208.5 -71.5q-63 0 -111.5 18.5t-79 54t-41.5 86.5t3 116l95 443h60l-95 -444q-12 -54 -4.5 -94.5t30.5 -67.5t60 -40.5t85 -13.5q96 0 162 54t89 162l94 444h60zM358 913h66l68 -145h-49z" />
    <glyph glyph-name="Uhungarumlaut" unicode="&#x170;" horiz-adv-x="729" 
d="M639 267q-29 -132 -104.5 -203.5t-208.5 -71.5q-63 0 -111.5 18.5t-79 54t-41.5 86.5t3 116l95 443h60l-95 -444q-12 -54 -4.5 -94.5t30.5 -67.5t60 -40.5t85 -13.5q96 0 162 54t89 162l94 444h60zM667 913h73l-143 -145h-51zM468 913h72l-142 -145h-51z" />
    <glyph glyph-name="Umacron" unicode="&#x16a;" horiz-adv-x="729" 
d="M639 267q-29 -132 -104.5 -203.5t-208.5 -71.5q-63 0 -111.5 18.5t-79 54t-41.5 86.5t3 116l95 443h60l-95 -444q-12 -54 -4.5 -94.5t30.5 -67.5t60 -40.5t85 -13.5q96 0 162 54t89 162l94 444h60zM348 860h286l-10 -45h-286z" />
    <glyph glyph-name="Uogonek" unicode="&#x172;" horiz-adv-x="729" 
d="M639 267q-29 -132 -104.5 -203.5t-208.5 -71.5q-63 0 -111.5 18.5t-79 54t-41.5 86.5t3 116l95 443h60l-95 -444q-12 -54 -4.5 -94.5t30.5 -67.5t60 -40.5t85 -13.5q96 0 162 54t89 162l94 444h60zM282 -192q-33 0 -56 19t-23 52q0 21 9.5 40.5t24.5 35.5t33.5 28
t36.5 20l59 -3q-46 -20 -75 -49.5t-29 -58.5q0 -38 47 -38q18 0 29 6l-9 -46q-21 -6 -47 -6z" />
    <glyph glyph-name="Uring" unicode="&#x16e;" horiz-adv-x="729" 
d="M639 267q-29 -132 -104.5 -203.5t-208.5 -71.5q-63 0 -111.5 18.5t-79 54t-41.5 86.5t3 116l95 443h60l-95 -444q-12 -54 -4.5 -94.5t30.5 -67.5t60 -40.5t85 -13.5q96 0 162 54t89 162l94 444h60zM577 841q0 -37 -26.5 -62.5t-64.5 -25.5t-64.5 25.5t-26.5 62.5
q0 38 26.5 63t64.5 25t64.5 -25t26.5 -63zM432 841q0 -23 15.5 -38.5t38.5 -15.5t38.5 15.5t15.5 38.5t-15.5 38.5t-38.5 15.5t-38.5 -15.5t-15.5 -38.5z" />
    <glyph glyph-name="Utilde" unicode="&#x168;" horiz-adv-x="729" 
d="M639 267q-29 -132 -104.5 -203.5t-208.5 -71.5q-63 0 -111.5 18.5t-79 54t-41.5 86.5t3 116l95 443h60l-95 -444q-12 -54 -4.5 -94.5t30.5 -67.5t60 -40.5t85 -13.5q96 0 162 54t89 162l94 444h60zM308 792q17 53 44.5 78t64.5 25q23 0 41.5 -9t34.5 -19.5t30.5 -19
t30.5 -8.5q24 0 39 14.5t25 41.5h47q-17 -54 -44 -78.5t-66 -24.5q-22 0 -40 8.5t-34 19t-31 19.5t-32 9q-23 0 -38 -14.5t-25 -41.5h-47z" />
    <glyph glyph-name="V" unicode="V" horiz-adv-x="647" 
d="M102 710h61l132 -582l379 582h67l-472 -718z" />
    <glyph glyph-name="W" unicode="W" horiz-adv-x="878" 
d="M114 710h57l54 -548l312 556l73 -559l286 551h63l-378 -718l-73 571l-321 -571z" />
    <glyph glyph-name="Wacute" unicode="&#x1e82;" horiz-adv-x="878" 
d="M114 710h57l54 -548l312 556l73 -559l286 551h63l-378 -718l-73 571l-321 -571zM644 913h75l-142 -145h-53z" />
    <glyph glyph-name="Wcircumflex" unicode="&#x174;" horiz-adv-x="878" 
d="M114 710h57l54 -548l312 556l73 -559l286 551h63l-378 -718l-73 571l-321 -571zM390 810l194 117l143 -119l-27 -38l-120 101l-168 -101z" />
    <glyph glyph-name="Wdieresis" unicode="&#x1e84;" horiz-adv-x="878" 
d="M114 710h57l54 -548l312 556l73 -559l286 551h63l-378 -718l-73 571l-321 -571zM737 843q0 -22 -15 -37t-37 -15t-37 15t-15 37t15 37t37 15t37 -15t15 -37zM517 843q0 -22 -15 -37t-37 -15t-37 15t-15 37t15 37t37 15t37 -15t15 -37z" />
    <glyph glyph-name="Wgrave" unicode="&#x1e80;" horiz-adv-x="878" 
d="M114 710h57l54 -548l312 556l73 -559l286 551h63l-378 -718l-73 571l-321 -571zM434 913h66l68 -145h-49z" />
    <glyph glyph-name="X" unicode="X" horiz-adv-x="624" 
d="M304 372l-177 338h65l154 -294l279 294h75l-327 -345l192 -365h-66l-168 321l-304 -321h-75z" />
    <glyph glyph-name="Y" unicode="Y" horiz-adv-x="602" 
d="M282 301l-173 409h65l146 -351l294 351h75l-347 -409l-64 -301h-60z" />
    <glyph glyph-name="Yacute" unicode="&#xdd;" horiz-adv-x="602" 
d="M282 301l-173 409h65l146 -351l294 351h75l-347 -409l-64 -301h-60zM502 913h75l-142 -145h-53z" />
    <glyph glyph-name="Ycircumflex" unicode="&#x176;" horiz-adv-x="602" 
d="M282 301l-173 409h65l146 -351l294 351h75l-347 -409l-64 -301h-60zM249 810l194 117l143 -119l-27 -38l-120 101l-168 -101z" />
    <glyph glyph-name="Ydieresis" unicode="&#x178;" horiz-adv-x="602" 
d="M282 301l-173 409h65l146 -351l294 351h75l-347 -409l-64 -301h-60zM596 843q0 -22 -15 -37t-37 -15t-37 15t-15 37t15 37t37 15t37 -15t15 -37zM376 843q0 -22 -15 -37t-37 -15t-37 15t-15 37t15 37t37 15t37 -15t15 -37z" />
    <glyph glyph-name="Ygrave" unicode="&#x1ef2;" horiz-adv-x="602" 
d="M282 301l-173 409h65l146 -351l294 351h75l-347 -409l-64 -301h-60zM292 913h66l68 -145h-49z" />
    <glyph glyph-name="Z" unicode="Z" horiz-adv-x="578" 
d="M526 652h-384l13 58h494l-572 -651h432l-13 -59h-542z" />
    <glyph glyph-name="Zacute" unicode="&#x179;" horiz-adv-x="578" 
d="M526 652h-384l13 58h494l-572 -651h432l-13 -59h-542zM497 913h75l-142 -145h-53z" />
    <glyph glyph-name="Zcaron" unicode="&#x17d;" horiz-adv-x="578" 
d="M526 652h-384l13 58h494l-572 -651h432l-13 -59h-542zM591 884l-193 -116l-143 119l27 38l120 -101l167 101z" />
    <glyph glyph-name="Zdotaccent" unicode="&#x17b;" horiz-adv-x="578" 
d="M526 652h-384l13 58h494l-572 -651h432l-13 -59h-542zM428 791q-22 0 -37 15t-15 37t15 37t37 15t37 -15t15 -37t-15 -37t-37 -15z" />
    <glyph glyph-name="a" unicode="a" horiz-adv-x="611" 
d="M433 56q-33 -29 -75.5 -46.5t-94.5 -17.5q-53 0 -93.5 18.5t-68 49.5t-42 72.5t-14.5 86.5q0 57 21.5 109.5t60 92t91.5 63.5t117 24q58 0 102 -20.5t73 -55.5l15 68h57l-106 -500h-55zM275 47q48 0 93 20t77 58l51 242q-24 42 -68.5 64t-95.5 22q-48 0 -89.5 -18
t-72 -49t-48 -73t-17.5 -90q0 -38 11.5 -70t33.5 -55.5t53.5 -37t71.5 -13.5z" />
    <glyph glyph-name="aacute" unicode="&#xe1;" horiz-adv-x="611" 
d="M433 56q-33 -29 -75.5 -46.5t-94.5 -17.5q-53 0 -93.5 18.5t-68 49.5t-42 72.5t-14.5 86.5q0 57 21.5 109.5t60 92t91.5 63.5t117 24q58 0 102 -20.5t73 -55.5l15 68h57l-106 -500h-55zM275 47q48 0 93 20t77 58l51 242q-24 42 -68.5 64t-95.5 22q-48 0 -89.5 -18
t-72 -49t-48 -73t-17.5 -90q0 -38 11.5 -70t33.5 -55.5t53.5 -37t71.5 -13.5zM456 710h76l-147 -160h-47z" />
    <glyph glyph-name="abreve" unicode="&#x103;" horiz-adv-x="611" 
d="M433 56q-33 -29 -75.5 -46.5t-94.5 -17.5q-53 0 -93.5 18.5t-68 49.5t-42 72.5t-14.5 86.5q0 57 21.5 109.5t60 92t91.5 63.5t117 24q58 0 102 -20.5t73 -55.5l15 68h57l-106 -500h-55zM275 47q48 0 93 20t77 58l51 242q-24 42 -68.5 64t-95.5 22q-48 0 -89.5 -18
t-72 -49t-48 -73t-17.5 -90q0 -38 11.5 -70t33.5 -55.5t53.5 -37t71.5 -13.5zM533 710q-13 -60 -51.5 -95t-113.5 -35q-37 0 -63.5 10t-43.5 27.5t-25 41t-6 51.5h43q-1 -23 6 -40t20.5 -28t31.5 -16t40 -5q45 0 75.5 21t43.5 68h43z" />
    <glyph glyph-name="acircumflex" unicode="&#xe2;" horiz-adv-x="611" 
d="M433 56q-33 -29 -75.5 -46.5t-94.5 -17.5q-53 0 -93.5 18.5t-68 49.5t-42 72.5t-14.5 86.5q0 57 21.5 109.5t60 92t91.5 63.5t117 24q58 0 102 -20.5t73 -55.5l15 68h57l-106 -500h-55zM275 47q48 0 93 20t77 58l51 242q-24 42 -68.5 64t-95.5 22q-48 0 -89.5 -18
t-72 -49t-48 -73t-17.5 -90q0 -38 11.5 -70t33.5 -55.5t53.5 -37t71.5 -13.5zM209 598l194 120l142 -124l-29 -35l-118 104l-166 -105z" />
    <glyph glyph-name="acute" unicode="&#xb4;" 
d="M147 710h76l-147 -160h-47z" />
    <glyph glyph-name="glyph131" 
d="M189 913h75l-142 -145h-53z" />
    <glyph glyph-name="adieresis" unicode="&#xe4;" horiz-adv-x="611" 
d="M433 56q-33 -29 -75.5 -46.5t-94.5 -17.5q-53 0 -93.5 18.5t-68 49.5t-42 72.5t-14.5 86.5q0 57 21.5 109.5t60 92t91.5 63.5t117 24q58 0 102 -20.5t73 -55.5l15 68h57l-106 -500h-55zM275 47q48 0 93 20t77 58l51 242q-24 42 -68.5 64t-95.5 22q-48 0 -89.5 -18
t-72 -49t-48 -73t-17.5 -90q0 -38 11.5 -70t33.5 -55.5t53.5 -37t71.5 -13.5zM550 632q0 -22 -15 -37t-37 -15t-37 15t-15 37t15 37t37 15t37 -15t15 -37zM330 632q0 -22 -15 -37t-37 -15t-37 15t-15 37t15 37t37 15t37 -15t15 -37z" />
    <glyph glyph-name="ae" unicode="&#xe6;" horiz-adv-x="943" 
d="M847 65q-38 -34 -87 -53.5t-107 -19.5q-66 0 -119 28t-84 84q-54 -55 -115 -83.5t-134 -28.5q-45 0 -79.5 11t-57.5 30.5t-35 45.5t-12 56q0 38 16 71.5t46.5 58.5t74.5 39.5t101 14.5q56 0 96.5 -15t69.5 -38l10 52q8 37 1 63t-25 42.5t-45 23.5t-59 7q-49 0 -93.5 -17
t-76.5 -43l-21 51q41 27 88.5 45t108.5 18q28 0 55.5 -5.5t50.5 -18t40 -33t23 -51.5q40 54 99 81t122 27q57 0 100.5 -20.5t71 -56.5t37.5 -84.5t-2 -104.5h-430v-8q0 -44 14 -78.5t38.5 -58.5t57.5 -37t71 -13q45 0 84 15.5t68 43.5zM201 46q63 0 117.5 28.5t92.5 75.5
q-1 3 -0.5 11.5t1 18t1 18t0.5 11.5q-55 60 -163 60q-36 0 -67.5 -9.5t-55 -26t-36.5 -40t-13 -50.5q0 -48 34.5 -72.5t88.5 -24.5zM695 455q-38 0 -72 -11.5t-62 -33t-48.5 -51.5t-29.5 -67h366q3 38 -7 68t-31 51t-50.5 32.5t-65.5 11.5z" />
    <glyph glyph-name="agrave" unicode="&#xe0;" horiz-adv-x="611" 
d="M433 56q-33 -29 -75.5 -46.5t-94.5 -17.5q-53 0 -93.5 18.5t-68 49.5t-42 72.5t-14.5 86.5q0 57 21.5 109.5t60 92t91.5 63.5t117 24q58 0 102 -20.5t73 -55.5l15 68h57l-106 -500h-55zM275 47q48 0 93 20t77 58l51 242q-24 42 -68.5 64t-95.5 22q-48 0 -89.5 -18
t-72 -49t-48 -73t-17.5 -90q0 -38 11.5 -70t33.5 -55.5t53.5 -37t71.5 -13.5zM247 710h68l63 -160h-46z" />
    <glyph glyph-name="amacron" unicode="&#x101;" horiz-adv-x="611" 
d="M433 56q-33 -29 -75.5 -46.5t-94.5 -17.5q-53 0 -93.5 18.5t-68 49.5t-42 72.5t-14.5 86.5q0 57 21.5 109.5t60 92t91.5 63.5t117 24q58 0 102 -20.5t73 -55.5l15 68h57l-106 -500h-55zM275 47q48 0 93 20t77 58l51 242q-24 42 -68.5 64t-95.5 22q-48 0 -89.5 -18
t-72 -49t-48 -73t-17.5 -90q0 -38 11.5 -70t33.5 -55.5t53.5 -37t71.5 -13.5zM243 679h286l-10 -45h-286z" />
    <glyph glyph-name="ampersand" unicode="&#x26;" horiz-adv-x="608" 
d="M451 147q-12 -36 -33 -65t-49.5 -49t-63.5 -30.5t-73 -10.5q-49 0 -87.5 17t-64.5 45.5t-40 65t-14 76.5q0 49 18 93t51 77.5t78.5 53t100.5 19.5q23 0 46.5 -6.5t48.5 -20.5l-91 298h352l-11 -53h-268l204 -657h-59zM83 201q0 -35 12 -63.5t33 -49t48.5 -31.5t59.5 -11
q40 0 73.5 14.5t58.5 39.5t39 59t14 73q0 34 -12 62.5t-33 48.5t-49 31t-59 11q-39 0 -73 -14.5t-58.5 -39.5t-39 -58.5t-14.5 -71.5z" />
    <glyph glyph-name="aogonek" unicode="&#x105;" horiz-adv-x="611" 
d="M392 -192q-32 0 -55 19t-23 52q0 21 10.5 40.5t26 35.5t34.5 28t37 20l11 53q-33 -29 -75.5 -46.5t-94.5 -17.5q-53 0 -93.5 18.5t-68 49.5t-42 72.5t-14.5 86.5q0 57 21.5 109.5t60 92t91.5 63.5t117 24q58 0 102 -20.5t73 -55.5l15 68h57l-106 -500
q-46 -20 -74.5 -49.5t-28.5 -58.5q0 -38 47 -38q17 0 29 6l-10 -46q-21 -6 -47 -6zM275 47q48 0 93 20t77 58l51 242q-24 42 -68.5 64t-95.5 22q-48 0 -89.5 -18t-72 -49t-48 -73t-17.5 -90q0 -38 11.5 -70t33.5 -55.5t53.5 -37t71.5 -13.5z" />
    <glyph glyph-name="aring" unicode="&#xe5;" horiz-adv-x="611" 
d="M433 56q-33 -29 -75.5 -46.5t-94.5 -17.5q-53 0 -93.5 18.5t-68 49.5t-42 72.5t-14.5 86.5q0 57 21.5 109.5t60 92t91.5 63.5t117 24q58 0 102 -20.5t73 -55.5l15 68h57l-106 -500h-55zM275 47q48 0 93 20t77 58l51 242q-24 42 -68.5 64t-95.5 22q-48 0 -89.5 -18
t-72 -49t-48 -73t-17.5 -90q0 -38 11.5 -70t33.5 -55.5t53.5 -37t71.5 -13.5zM474 665q0 -37 -26.5 -62.5t-64.5 -25.5t-64.5 25.5t-26.5 62.5q0 38 26.5 63t64.5 25t64.5 -25t26.5 -63zM329 665q0 -23 15.5 -38.5t38.5 -15.5t38.5 15.5t15.5 38.5t-15.5 38.5t-38.5 15.5
t-38.5 -15.5t-15.5 -38.5z" />
    <glyph glyph-name="asterisk" unicode="*" horiz-adv-x="442" 
d="M164 419l81 112l-133 47l13 43l135 -46v135h44v-133l133 43l14 -42l-133 -45l83 -112l-37 -26l-82 112l-82 -112z" />
    <glyph glyph-name="at" unicode="@" horiz-adv-x="814" 
d="M426 -8q-81 0 -146.5 26.5t-111 73.5t-70 111t-24.5 138q0 83 31 152t84.5 119t125 78t152.5 28q75 0 137.5 -22t108 -62.5t70.5 -98t25 -129.5q0 -62 -15 -107.5t-40 -75.5t-56 -44.5t-64 -14.5t-58.5 15t-37.5 41q-25 -23 -59 -39t-79 -16q-38 0 -67.5 13.5t-49.5 37
t-31 54t-11 64.5q0 45 16.5 85t45.5 70.5t68.5 48t86.5 17.5q39 0 69.5 -13t50.5 -36l7 34h49l-52 -243q-8 -39 8 -63.5t51 -24.5q23 0 44.5 13t38.5 38t27.5 62t10.5 85q0 64 -22.5 114t-62 84t-94 51.5t-117.5 17.5q-72 0 -134.5 -25t-109 -69t-73 -105.5t-26.5 -134.5
q0 -65 21 -120t60.5 -96t95.5 -64t127 -23q49 0 99.5 10t92.5 32l17 -44q-47 -21 -103 -32t-106 -11zM292 338q0 -57 31.5 -92.5t86.5 -35.5q35 0 66 15.5t51 44.5q1 5 1 10.5t2 10.5l35 163q-18 29 -48.5 42.5t-62.5 13.5q-33 0 -62.5 -13t-51.5 -36.5t-35 -55t-13 -67.5z
" />
    <glyph glyph-name="atilde" unicode="&#xe3;" horiz-adv-x="611" 
d="M433 56q-33 -29 -75.5 -46.5t-94.5 -17.5q-53 0 -93.5 18.5t-68 49.5t-42 72.5t-14.5 86.5q0 57 21.5 109.5t60 92t91.5 63.5t117 24q58 0 102 -20.5t73 -55.5l15 68h57l-106 -500h-55zM275 47q48 0 93 20t77 58l51 242q-24 42 -68.5 64t-95.5 22q-48 0 -89.5 -18
t-72 -49t-48 -73t-17.5 -90q0 -38 11.5 -70t33.5 -55.5t53.5 -37t71.5 -13.5zM196 573q17 53 44.5 78t64.5 25q23 0 41.5 -9t34.5 -19.5t30.5 -19t30.5 -8.5q24 0 39 14.5t25 41.5h47q-17 -54 -44 -78.5t-66 -24.5q-22 0 -40 8.5t-34 19t-31 19.5t-32 9q-23 0 -38 -14.5
t-25 -41.5h-47z" />
    <glyph glyph-name="b" unicode="b" horiz-adv-x="609" 
d="M179 710h58l-57 -264q32 29 74 45.5t93 16.5q52 0 93 -18.5t68.5 -49.5t42 -72.5t14.5 -86.5q0 -57 -21.5 -109.5t-59.5 -92t-91.5 -63.5t-117.5 -24q-58 0 -102.5 20t-73.5 55l-13 -67h-58zM336 453q-48 0 -93.5 -20.5t-77.5 -58.5l-52 -242q24 -42 69 -63.5t96 -21.5
q48 0 89.5 18t72 49t48 73t17.5 90q0 38 -11.5 70t-33.5 55.5t-53 37t-71 13.5z" />
    <glyph glyph-name="bar" unicode="|" horiz-adv-x="299" 
d="M127 710h52v-894h-52v894z" />
    <glyph glyph-name="glyph144" 
d="M-96 386h332l-10 -51h-333z" />
    <glyph glyph-name="glyph145" 
d="M-233 573h686l-11 -50h-686z" />
    <glyph glyph-name="glyph146" 
d="M-44 591l11 45h312l-10 -45h-313z" />
    <glyph glyph-name="braceleft" unicode="{" horiz-adv-x="291" 
d="M153 -130q-67 0 -91 37t-7 121l36 167q4 17 4.5 32t-4 26.5t-15.5 18t-31 6.5h-6l10 46h7q20 0 34 6.5t23 18t14.5 26.5t9.5 33l40 192q8 37 21 62t32 40t45 21.5t60 6.5h31l-10 -47h-20q-27 0 -45.5 -4.5t-31 -16t-20.5 -30t-14 -45.5l-36 -174q-9 -42 -25 -71t-51 -41
q29 -14 32.5 -43t-4.5 -68l-35 -163q-6 -30 -6.5 -51t6.5 -34t23.5 -19t43.5 -6h21l-10 -47h-31z" />
    <glyph glyph-name="braceright" unicode="}" horiz-adv-x="290" 
d="M160 730q67 0 91 -37t7 -121l-36 -167q-4 -17 -4.5 -32.5t4 -26.5t15.5 -17.5t31 -6.5h6l-10 -46h-7q-20 0 -34 -6.5t-23 -18t-14.5 -26.5t-9.5 -33l-40 -192q-8 -38 -21 -63t-32 -40t-45 -21t-60 -6h-31l10 47h20q27 0 45.5 4.5t31 16t20.5 30t14 45.5l36 174
q9 42 25 71t51 41q-29 14 -32.5 43t4.5 68l35 163q6 30 6.5 51t-6.5 34t-23.5 19t-43.5 6h-21l10 47h31z" />
    <glyph glyph-name="bracketleft" unicode="[" horiz-adv-x="289" 
d="M199 730h166l-10 -49h-113l-163 -762h113l-10 -49h-166z" />
    <glyph glyph-name="bracketright" unicode="]" horiz-adv-x="289" 
d="M112 -129h-166l10 49h113l163 762h-113l10 49h166z" />
    <glyph glyph-name="breve" unicode="&#x2d8;" 
d="M279 710q-13 -60 -51.5 -95t-113.5 -35q-37 0 -63.5 10t-43.5 27.5t-25 41t-6 51.5h43q-1 -23 6 -40t20.5 -28t31.5 -16t40 -5q45 0 75.5 21t43.5 68h43z" />
    <glyph glyph-name="glyph152" 
d="M321 906q-11 -60 -50.5 -95t-114.5 -35q-71 0 -106 37.5t-32 92.5h44q-2 -47 25.5 -68t71.5 -21q46 0 76 21t43 68h43z" />
    <glyph glyph-name="bullet" unicode="&#x2022;" horiz-adv-x="431" 
d="M225 166q-28 0 -53 10.5t-43.5 29t-29 43.5t-10.5 53t10.5 53t29 43.5t43.5 29t53 10.5t53 -10.5t43.5 -29t29 -43.5t10.5 -53t-10.5 -53t-29 -43.5t-43.5 -29t-53 -10.5z" />
    <glyph glyph-name="c" unicode="c" horiz-adv-x="532" 
d="M474 64q-38 -33 -86 -52.5t-106 -19.5q-57 0 -101 19.5t-74 52t-45.5 75t-15.5 88.5q0 58 21.5 109.5t59.5 89.5t89.5 60t112.5 22q62 0 113 -24.5t81 -72.5l-48 -34q-23 38 -62.5 57t-87.5 19q-47 0 -87 -17t-69 -46.5t-46 -70t-17 -88.5q0 -44 14.5 -78.5t39.5 -58
t58 -35.5t69 -12q45 0 82 15.5t67 42.5z" />
    <glyph glyph-name="cacute" unicode="&#x107;" horiz-adv-x="532" 
d="M474 64q-38 -33 -86 -52.5t-106 -19.5q-57 0 -101 19.5t-74 52t-45.5 75t-15.5 88.5q0 58 21.5 109.5t59.5 89.5t89.5 60t112.5 22q62 0 113 -24.5t81 -72.5l-48 -34q-23 38 -62.5 57t-87.5 19q-47 0 -87 -17t-69 -46.5t-46 -70t-17 -88.5q0 -44 14.5 -78.5t39.5 -58
t58 -35.5t69 -12q45 0 82 15.5t67 42.5zM437 710h76l-147 -160h-47z" />
    <glyph glyph-name="caron" unicode="&#x2c7;" 
d="M293 688l-194 -120l-141 124l28 35l118 -104l166 105z" />
    <glyph glyph-name="glyph157" 
d="M342 884l-193 -116l-143 119l27 38l120 -101l167 101z" />
    <glyph glyph-name="glyph158" 
d="M182 710l-76 -167h-44l61 167h59z" />
    <glyph glyph-name="ccaron" unicode="&#x10d;" horiz-adv-x="532" 
d="M474 64q-38 -33 -86 -52.5t-106 -19.5q-57 0 -101 19.5t-74 52t-45.5 75t-15.5 88.5q0 58 21.5 109.5t59.5 89.5t89.5 60t112.5 22q62 0 113 -24.5t81 -72.5l-48 -34q-23 38 -62.5 57t-87.5 19q-47 0 -87 -17t-69 -46.5t-46 -70t-17 -88.5q0 -44 14.5 -78.5t39.5 -58
t58 -35.5t69 -12q45 0 82 15.5t67 42.5zM528 688l-194 -120l-141 124l28 35l118 -104l166 105z" />
    <glyph glyph-name="ccedilla" unicode="&#xe7;" horiz-adv-x="532" 
d="M474 64q-38 -33 -86 -52.5t-106 -19.5q-57 0 -101 19.5t-74 52t-45.5 75t-15.5 88.5q0 58 21.5 109.5t59.5 89.5t89.5 60t112.5 22q62 0 113 -24.5t81 -72.5l-48 -34q-23 38 -62.5 57t-87.5 19q-47 0 -87 -17t-69 -46.5t-46 -70t-17 -88.5q0 -44 14.5 -78.5t39.5 -58
t58 -35.5t69 -12q45 0 82 15.5t67 42.5zM264 0h46l-93 -165h-68z" />
    <glyph glyph-name="ccircumflex" unicode="&#x109;" horiz-adv-x="532" 
d="M474 64q-38 -33 -86 -52.5t-106 -19.5q-57 0 -101 19.5t-74 52t-45.5 75t-15.5 88.5q0 58 21.5 109.5t59.5 89.5t89.5 60t112.5 22q62 0 113 -24.5t81 -72.5l-48 -34q-23 38 -62.5 57t-87.5 19q-47 0 -87 -17t-69 -46.5t-46 -70t-17 -88.5q0 -44 14.5 -78.5t39.5 -58
t58 -35.5t69 -12q45 0 82 15.5t67 42.5zM190 598l194 120l142 -124l-29 -35l-118 104l-166 -105z" />
    <glyph glyph-name="cdotaccent" unicode="&#x10b;" horiz-adv-x="532" 
d="M474 64q-38 -33 -86 -52.5t-106 -19.5q-57 0 -101 19.5t-74 52t-45.5 75t-15.5 88.5q0 58 21.5 109.5t59.5 89.5t89.5 60t112.5 22q62 0 113 -24.5t81 -72.5l-48 -34q-23 38 -62.5 57t-87.5 19q-47 0 -87 -17t-69 -46.5t-46 -70t-17 -88.5q0 -44 14.5 -78.5t39.5 -58
t58 -35.5t69 -12q45 0 82 15.5t67 42.5zM369 580q-22 0 -37 15t-15 37t15 37t37 15t37 -15t15 -37t-15 -37t-37 -15z" />
    <glyph glyph-name="cedilla" unicode="&#xb8;" 
d="M2 0h46l-93 -165h-68z" />
    <glyph glyph-name="circumflex" unicode="&#x2c6;" 
d="M-45 598l194 120l142 -124l-29 -35l-118 104l-166 -105z" />
    <glyph glyph-name="glyph165" 
d="M-6 810l194 117l143 -119l-27 -38l-120 101l-168 -101z" />
    <glyph glyph-name="colon" unicode=":" horiz-adv-x="244" 
d="M81 -8q-25 0 -42 18t-17 41q0 25 17 43t42 18t42 -18t17 -43q0 -23 -17 -41t-42 -18zM165 388q-25 0 -42 18t-17 41q0 25 17 43t42 18t42 -18t17 -43q0 -23 -17 -41t-42 -18z" />
    <glyph glyph-name="comma" unicode="," horiz-adv-x="238" 
d="M114 0h-42l22 103h96l-22 -104l-84 -137h-44z" />
    <glyph glyph-name="glyph168" 
d="M-20 -50h68l-126 -165h-48z" />
    <glyph glyph-name="copyright" unicode="&#xa9;" horiz-adv-x="837" 
d="M441 -8q-75 0 -141 28.5t-115.5 78t-78 115t-28.5 140.5t28.5 141t78 115.5t115.5 78.5t141 29t140.5 -29t115 -78.5t78 -115.5t28.5 -141t-28.5 -140.5t-78 -115t-115 -78t-140.5 -28.5zM441 35q65 0 122.5 25t100 68.5t67.5 102t25 124.5t-25 124.5t-67.5 101.5
t-100 68t-122.5 25t-122.5 -25t-100 -68t-67.5 -101.5t-25 -124.5t24.5 -124.5t67.5 -102t100.5 -68.5t122.5 -25zM458 183q-36 0 -67.5 13t-54.5 36t-36.5 54.5t-13.5 68.5q0 36 13.5 67.5t36.5 55t54.5 36.5t67.5 13t66.5 -13t51.5 -36l-28 -35q-16 17 -39 28t-51 11
q-27 0 -50 -9.5t-39.5 -27t-25.5 -40.5t-9 -50t9 -50t25.5 -40.5t39.5 -27t50 -9.5q28 0 51 11t39 28l28 -34q-20 -23 -51 -36.5t-67 -13.5z" />
    <glyph glyph-name="d" unicode="d" horiz-adv-x="611" 
d="M432 55q-33 -29 -75.5 -46t-93.5 -17q-53 0 -93.5 18.5t-68 49.5t-42 72.5t-14.5 86.5q0 57 21.5 109.5t60 92t91.5 63.5t117 24q58 0 102 -20.5t73 -55.5l60 278h57l-151 -710h-55zM275 47q48 0 93 20t77 58l51 242q-23 42 -68 64t-96 22q-48 0 -89.5 -18t-72 -49
t-48 -73t-17.5 -90q0 -38 11.5 -70t33.5 -55.5t53.5 -37t71.5 -13.5z" />
    <glyph glyph-name="dcaron" unicode="&#x10f;" horiz-adv-x="635" 
d="M432 55q-33 -29 -75.5 -46t-93.5 -17q-53 0 -93.5 18.5t-68 49.5t-42 72.5t-14.5 86.5q0 57 21.5 109.5t60 92t91.5 63.5t117 24q58 0 102 -20.5t73 -55.5l60 278h57l-151 -710h-55zM275 47q48 0 93 20t77 58l51 242q-23 42 -68 64t-96 22q-48 0 -89.5 -18t-72 -49
t-48 -73t-17.5 -90q0 -38 11.5 -70t33.5 -55.5t53.5 -37t71.5 -13.5zM774 710l-76 -167h-44l61 167h59z" />
    <glyph glyph-name="dcroat" unicode="&#x111;" horiz-adv-x="611" 
d="M432 55q-33 -29 -75.5 -46t-93.5 -17q-53 0 -93.5 18.5t-68 49.5t-42 72.5t-14.5 86.5q0 57 21.5 109.5t60 92t91.5 63.5t117 24q58 0 102 -20.5t73 -55.5l60 278h57l-151 -710h-55zM275 47q48 0 93 20t77 58l51 242q-23 42 -68 64t-96 22q-48 0 -89.5 -18t-72 -49
t-48 -73t-17.5 -90q0 -38 11.5 -70t33.5 -55.5t53.5 -37t71.5 -13.5zM366 590l11 45h312l-10 -45h-313z" />
    <glyph glyph-name="degree" unicode="&#xb0;" horiz-adv-x="343" 
d="M240 470q-25 0 -47.5 9.5t-39 26t-26 39t-9.5 47.5t9.5 47.5t26 39t39 26t47.5 9.5t47.5 -9.5t39 -26t26 -39t9.5 -47.5t-9.5 -47.5t-26 -39t-39 -26t-47.5 -9.5zM240 509q34 0 58 24.5t24 58.5t-24 58t-58 24t-58.5 -24t-24.5 -58t24.5 -58.5t58.5 -24.5z" />
    <glyph glyph-name="dieresis" unicode="&#xa8;" 
d="M296 632q0 -22 -15 -37t-37 -15t-37 15t-15 37t15 37t37 15t37 -15t15 -37zM76 632q0 -22 -15 -37t-37 -15t-37 15t-15 37t15 37t37 15t37 -15t15 -37z" />
    <glyph glyph-name="glyph175" 
d="M24 580q-22 0 -37 15t-15 37t15 37t37 15t37 -15t15 -37t-15 -37t-37 -15zM244 580q-22 0 -37 15t-15 37t15 37t37 15t37 -15t15 -37t-15 -37t-37 -15z" />
    <glyph glyph-name="divide" unicode="&#xf7;" horiz-adv-x="663" 
d="M389 350q-25 0 -42.5 17.5t-17.5 42.5t17.5 42.5t42.5 17.5q24 0 41.5 -17.5t17.5 -42.5t-17.5 -42.5t-41.5 -17.5zM169 298h440v-55h-440v55zM389 71q-25 0 -42.5 17.5t-17.5 42.5t17.5 42.5t42.5 17.5q24 0 41.5 -17.5t17.5 -42.5t-17.5 -42.5t-41.5 -17.5z" />
    <glyph glyph-name="dollar" unicode="$" horiz-adv-x="525" 
d="M180 -1q-65 14 -107 51t-61 77l51 31q10 -22 26.5 -42.5t39.5 -36t52 -24.5t65 -9q41 0 72 10.5t51.5 28t31 41t10.5 49.5q0 50 -25.5 84t-76.5 66l-78 49q-53 37 -80.5 78t-27.5 95q0 39 15 70.5t42 54t65.5 34.5t86.5 12h2l17 80h56l-20 -87q44 -10 79.5 -35.5
t58.5 -63.5l-48 -31q-28 45 -68.5 64.5t-87.5 19.5q-29 0 -55 -7.5t-45.5 -22.5t-30.5 -37t-10 -51q1 -41 22.5 -70t63.5 -58l78 -50q56 -38 90.5 -82.5t34.5 -108.5q0 -37 -14 -70.5t-42.5 -59t-71 -41t-99.5 -15.5h-7l-18 -80h-56z" />
    <glyph glyph-name="glyph178" horiz-adv-x="1" 
d="M107 627q-14 10 -14 32q0 26 17 42.5t40 16.5q18 0 30.5 -11.5t12.5 -28.5t-9.5 -30.5t-20.5 -20.5h-56z" />
    <glyph glyph-name="dotaccent" unicode="&#x2d9;" 
d="M134 580q-22 0 -37 15t-15 37t15 37t37 15t37 -15t15 -37t-15 -37t-37 -15z" />
    <glyph glyph-name="dotlessi" unicode="&#x131;" horiz-adv-x="221" 
d="M134 500h58l-106 -500h-58z" />
    <glyph glyph-name="uni0237" unicode="&#x237;" horiz-adv-x="228" 
d="M-104 -129h22q30 0 49 6t31.5 19t19.5 33t13 48l111 523h58l-114 -536q-8 -40 -21 -68t-33.5 -46t-49.5 -26t-70 -8h-27z" />
    <glyph glyph-name="e" unicode="e" horiz-adv-x="573" 
d="M286 47q45 0 84 15.5t68 43.5l38 -41q-38 -34 -87 -53.5t-107 -19.5q-57 0 -101 19.5t-74 52t-45.5 75t-15.5 88.5q0 58 21.5 109.5t59.5 89.5t89.5 60t112.5 22q56 0 99.5 -21t71.5 -57t37.5 -84.5t-1.5 -103.5h-430q-2 -50 13 -86.5t40.5 -60.5t58.5 -36t68 -12z
M325 455q-38 0 -72.5 -11.5t-62.5 -33t-48 -51.5t-29 -67h365q3 38 -7 68.5t-30.5 51.5t-50 32t-65.5 11z" />
    <glyph glyph-name="eacute" unicode="&#xe9;" horiz-adv-x="573" 
d="M286 47q45 0 84 15.5t68 43.5l38 -41q-38 -34 -87 -53.5t-107 -19.5q-57 0 -101 19.5t-74 52t-45.5 75t-15.5 88.5q0 58 21.5 109.5t59.5 89.5t89.5 60t112.5 22q56 0 99.5 -21t71.5 -57t37.5 -84.5t-1.5 -103.5h-430q-2 -50 13 -86.5t40.5 -60.5t58.5 -36t68 -12z
M325 455q-38 0 -72.5 -11.5t-62.5 -33t-48 -51.5t-29 -67h365q3 38 -7 68.5t-30.5 51.5t-50 32t-65.5 11zM437 710h76l-147 -160h-47z" />
    <glyph glyph-name="ebreve" unicode="&#x115;" horiz-adv-x="573" 
d="M286 47q45 0 84 15.5t68 43.5l38 -41q-38 -34 -87 -53.5t-107 -19.5q-57 0 -101 19.5t-74 52t-45.5 75t-15.5 88.5q0 58 21.5 109.5t59.5 89.5t89.5 60t112.5 22q56 0 99.5 -21t71.5 -57t37.5 -84.5t-1.5 -103.5h-430q-2 -50 13 -86.5t40.5 -60.5t58.5 -36t68 -12z
M325 455q-38 0 -72.5 -11.5t-62.5 -33t-48 -51.5t-29 -67h365q3 38 -7 68.5t-30.5 51.5t-50 32t-65.5 11zM514 710q-13 -60 -51.5 -95t-113.5 -35q-37 0 -63.5 10t-43.5 27.5t-25 41t-6 51.5h43q-1 -23 6 -40t20.5 -28t31.5 -16t40 -5q45 0 75.5 21t43.5 68h43z" />
    <glyph glyph-name="ecaron" unicode="&#x11b;" horiz-adv-x="573" 
d="M286 47q45 0 84 15.5t68 43.5l38 -41q-38 -34 -87 -53.5t-107 -19.5q-57 0 -101 19.5t-74 52t-45.5 75t-15.5 88.5q0 58 21.5 109.5t59.5 89.5t89.5 60t112.5 22q56 0 99.5 -21t71.5 -57t37.5 -84.5t-1.5 -103.5h-430q-2 -50 13 -86.5t40.5 -60.5t58.5 -36t68 -12z
M325 455q-38 0 -72.5 -11.5t-62.5 -33t-48 -51.5t-29 -67h365q3 38 -7 68.5t-30.5 51.5t-50 32t-65.5 11zM528 688l-194 -120l-141 124l28 35l118 -104l166 105z" />
    <glyph glyph-name="ecircumflex" unicode="&#xea;" horiz-adv-x="573" 
d="M286 47q45 0 84 15.5t68 43.5l38 -41q-38 -34 -87 -53.5t-107 -19.5q-57 0 -101 19.5t-74 52t-45.5 75t-15.5 88.5q0 58 21.5 109.5t59.5 89.5t89.5 60t112.5 22q56 0 99.5 -21t71.5 -57t37.5 -84.5t-1.5 -103.5h-430q-2 -50 13 -86.5t40.5 -60.5t58.5 -36t68 -12z
M325 455q-38 0 -72.5 -11.5t-62.5 -33t-48 -51.5t-29 -67h365q3 38 -7 68.5t-30.5 51.5t-50 32t-65.5 11zM190 598l194 120l142 -124l-29 -35l-118 104l-166 -105z" />
    <glyph glyph-name="edieresis" unicode="&#xeb;" horiz-adv-x="573" 
d="M286 47q45 0 84 15.5t68 43.5l38 -41q-38 -34 -87 -53.5t-107 -19.5q-57 0 -101 19.5t-74 52t-45.5 75t-15.5 88.5q0 58 21.5 109.5t59.5 89.5t89.5 60t112.5 22q56 0 99.5 -21t71.5 -57t37.5 -84.5t-1.5 -103.5h-430q-2 -50 13 -86.5t40.5 -60.5t58.5 -36t68 -12z
M325 455q-38 0 -72.5 -11.5t-62.5 -33t-48 -51.5t-29 -67h365q3 38 -7 68.5t-30.5 51.5t-50 32t-65.5 11zM531 632q0 -22 -15 -37t-37 -15t-37 15t-15 37t15 37t37 15t37 -15t15 -37zM311 632q0 -22 -15 -37t-37 -15t-37 15t-15 37t15 37t37 15t37 -15t15 -37z" />
    <glyph glyph-name="edotaccent" unicode="&#x117;" horiz-adv-x="573" 
d="M286 47q45 0 84 15.5t68 43.5l38 -41q-38 -34 -87 -53.5t-107 -19.5q-57 0 -101 19.5t-74 52t-45.5 75t-15.5 88.5q0 58 21.5 109.5t59.5 89.5t89.5 60t112.5 22q56 0 99.5 -21t71.5 -57t37.5 -84.5t-1.5 -103.5h-430q-2 -50 13 -86.5t40.5 -60.5t58.5 -36t68 -12z
M325 455q-38 0 -72.5 -11.5t-62.5 -33t-48 -51.5t-29 -67h365q3 38 -7 68.5t-30.5 51.5t-50 32t-65.5 11zM369 580q-22 0 -37 15t-15 37t15 37t37 15t37 -15t15 -37t-15 -37t-37 -15z" />
    <glyph glyph-name="egrave" unicode="&#xe8;" horiz-adv-x="573" 
d="M286 47q45 0 84 15.5t68 43.5l38 -41q-38 -34 -87 -53.5t-107 -19.5q-57 0 -101 19.5t-74 52t-45.5 75t-15.5 88.5q0 58 21.5 109.5t59.5 89.5t89.5 60t112.5 22q56 0 99.5 -21t71.5 -57t37.5 -84.5t-1.5 -103.5h-430q-2 -50 13 -86.5t40.5 -60.5t58.5 -36t68 -12z
M325 455q-38 0 -72.5 -11.5t-62.5 -33t-48 -51.5t-29 -67h365q3 38 -7 68.5t-30.5 51.5t-50 32t-65.5 11zM228 710h68l63 -160h-46z" />
    <glyph glyph-name="eight" unicode="8" horiz-adv-x="563" 
d="M497 572q0 -46 -21.5 -88t-69.5 -69q53 -29 77 -77t24 -98q0 -51 -17.5 -96t-50 -79t-78.5 -53.5t-102 -19.5q-51 0 -90.5 16.5t-67 45t-42 65t-14.5 77.5q0 39 11 75.5t32 68t52.5 55.5t72.5 38q-26 24 -36 51.5t-10 54.5q0 37 12.5 69.5t35.5 57t55.5 38.5t71.5 14
q36 0 65 -12t49 -32.5t30.5 -47t10.5 -54.5zM223 545q0 -45 28 -72.5t71 -27.5q26 0 48 10t37.5 26.5t24 38.5t8.5 47q0 47 -29.5 72.5t-71.5 25.5q-25 0 -46.5 -9.5t-37 -26t-24 -38.5t-8.5 -46zM104 202q0 -36 12 -64.5t33.5 -49t50.5 -31t63 -10.5q40 0 74 15t59 40.5
t39 60t14 73.5q0 36 -12 64.5t-33.5 48.5t-50.5 31t-63 11q-40 0 -74 -15t-59 -40.5t-39 -60t-14 -73.5z" />
    <glyph glyph-name="ellipsis" unicode="&#x2026;" horiz-adv-x="728" 
d="M82 -8q-25 0 -42 18t-17 41q0 25 17 43t42 18t42 -18t17 -43q0 -23 -17 -41t-42 -18zM324 -8q-25 0 -42 18t-17 41q0 25 17 43t42 18t42 -18t17 -43q0 -23 -17 -41t-42 -18zM566 -8q-25 0 -42 18t-17 41q0 25 17 43t42 18t42 -18t17 -43q0 -23 -17 -41t-42 -18z" />
    <glyph glyph-name="emacron" unicode="&#x113;" horiz-adv-x="573" 
d="M286 47q45 0 84 15.5t68 43.5l38 -41q-38 -34 -87 -53.5t-107 -19.5q-57 0 -101 19.5t-74 52t-45.5 75t-15.5 88.5q0 58 21.5 109.5t59.5 89.5t89.5 60t112.5 22q56 0 99.5 -21t71.5 -57t37.5 -84.5t-1.5 -103.5h-430q-2 -50 13 -86.5t40.5 -60.5t58.5 -36t68 -12z
M325 455q-38 0 -72.5 -11.5t-62.5 -33t-48 -51.5t-29 -67h365q3 38 -7 68.5t-30.5 51.5t-50 32t-65.5 11zM224 679h286l-10 -45h-286z" />
    <glyph glyph-name="emdash" unicode="&#x2014;" horiz-adv-x="868" 
d="M82 299h725l-13 -54h-724z" />
    <glyph glyph-name="endash" unicode="&#x2013;" horiz-adv-x="566" 
d="M82 299h423l-12 -54h-423z" />
    <glyph glyph-name="eogonek" unicode="&#x119;" horiz-adv-x="572" 
d="M447 -186q-11 -4 -24 -5t-26 -1q-34 0 -59.5 21t-25.5 61q0 26 13 55.5t41 59.5q-28 -8 -47 -10.5t-37 -2.5q-57 0 -101 19.5t-74 52t-45.5 75t-15.5 88.5q0 58 21.5 109.5t59.5 89.5t89.5 60t112.5 22q56 0 99.5 -21t71.5 -57t37.5 -84.5t-1.5 -103.5h-430
q-2 -50 13 -86.5t40.5 -60.5t58.5 -36t68 -12q45 0 84 15.5t68 43.5l38 -41q-44 -42 -75.5 -81.5t-31.5 -80.5q0 -27 18.5 -38t38.5 -11q19 0 31 6zM478 292q3 38 -7 68.5t-30.5 51.5t-50 32t-65.5 11q-37 0 -71.5 -11t-62.5 -32t-48.5 -51.5t-29.5 -68.5h365z" />
    <glyph glyph-name="equal" unicode="=" horiz-adv-x="590" 
d="M75 411h446v-48h-446v48zM75 184h446v-48h-446v48z" />
    <glyph glyph-name="eth" unicode="&#xf0;" horiz-adv-x="614" 
d="M265 621h103l-43 89h61l43 -89h134l-10 -45h-103l73 -152q12 -24 20.5 -43.5t14 -37t8 -34t2.5 -35.5q0 -59 -21.5 -110.5t-59.5 -89.5t-89.5 -60t-111.5 -22q-57 0 -101.5 19.5t-75.5 52t-47 75t-16 88.5q0 58 21.5 109.5t59.5 89.5t90 60t112 22q26 0 53.5 -6.5
t56.5 -24.5l-49 99h-135zM106 231q0 -44 15 -78t40 -57.5t58.5 -36t69.5 -12.5q46 0 86.5 16.5t70 46.5t46.5 70.5t17 88.5q0 43 -15 77.5t-40.5 58t-59 36t-69.5 12.5q-46 0 -86 -16.5t-69.5 -46.5t-46.5 -70.5t-17 -88.5z" />
    <glyph glyph-name="exclam" unicode="!" horiz-adv-x="235" 
d="M189 473l51 237h59l-50 -237l-71 -269h-37zM119 -8q-21 0 -36 13.5t-15 36.5q0 20 12 37.5t31 25.5h54q9 -7 15 -18.5t6 -25.5q0 -32 -19.5 -50.5t-47.5 -18.5z" />
    <glyph glyph-name="exclamdown" unicode="&#xa1;" horiz-adv-x="235" 
d="M220 508q21 0 36 -13.5t15 -36.5q0 -20 -12 -37.5t-31 -25.5h-54q-9 7 -15 18.5t-6 25.5q0 32 19.5 50.5t47.5 18.5zM158 53l-51 -237h-59l50 237l65 243h37z" />
    <glyph glyph-name="f" unicode="f" horiz-adv-x="324" 
d="M163 447h-104l11 53h110q-17 14 -27.5 36t-10.5 47q0 57 45 92t120 35h103l-11 -52h-89q-52 0 -83 -22t-31 -63q0 -29 19 -50.5t56 -22.5h95l-11 -53h-135l-95 -447h-58z" />
    <glyph glyph-name="uniFB01" unicode="&#xfb01;" horiz-adv-x="545" 
d="M163 447h-104l11 53h110q-17 14 -27.5 36t-10.5 47q0 57 45 92t120 35h103l-11 -52h-89q-52 0 -83 -22t-31 -63q0 -29 19 -50.5t56 -22.5h95l-11 -53h-135l-95 -447h-58zM458 500h58l-106 -500h-58zM488 627q-14 10 -14 32q0 26 17 42.5t40 16.5q18 0 30.5 -11.5
t12.5 -28.5t-9.5 -30.5t-20.5 -20.5h-56z" />
    <glyph glyph-name="five" unicode="5" horiz-adv-x="519" 
d="M470 239q0 -52 -18 -97t-51 -78.5t-80 -52.5t-104 -19q-68 0 -117 30t-73 76l52 29q20 -38 58 -59t84 -21q42 0 76.5 14.5t59.5 39.5t39 59.5t14 74.5q0 36 -12 65t-33 49.5t-49 31.5t-61 11q-73 0 -123 -44l-35 21l77 341h346l-12 -54h-289l-52 -229q27 11 49 15t44 4
q50 0 89 -17t66 -46t41 -66.5t14 -77.5z" />
    <glyph glyph-name="uniFB02" unicode="&#xfb02;" horiz-adv-x="545" 
d="M163 447h-104l11 53h110q-17 14 -27.5 36t-10.5 47q0 57 45 92t120 35h103l-11 -52h-89q-52 0 -83 -22t-31 -63q0 -29 19 -50.5t56 -22.5h95l-11 -53h-135l-95 -447h-58zM503 710h58l-151 -710h-58z" />
    <glyph glyph-name="four" unicode="4" horiz-adv-x="614" 
d="M414 201h-413l579 517l-98 -463h97l-11 -54h-97l-43 -201h-57zM425 255l69 322l-359 -322h290z" />
    <glyph glyph-name="g" unicode="g" horiz-adv-x="604" 
d="M489 114q10 -74 -5 -131.5t-51 -96.5t-91 -59.5t-124 -20.5q-28 0 -57.5 4.5t-56.5 13.5t-50.5 22.5t-39.5 30.5l38 48q25 -29 70 -46.5t98 -17.5q60 0 102 17.5t68 47t35.5 69.5t3.5 85q-38 -33 -81 -49t-88 -16q-51 0 -90.5 17t-66.5 46t-41 68.5t-14 84.5
q0 57 20.5 107.5t57.5 88t89.5 59.5t116.5 22q56 0 98 -19.5t69 -51.5l14 63h57zM272 70q46 0 90 21t76 57l48 226q-25 38 -67 58.5t-90 20.5q-47 0 -87.5 -16t-70 -45t-46.5 -69t-17 -88q0 -76 42 -120.5t122 -44.5z" />
    <glyph glyph-name="gbreve" unicode="&#x11f;" horiz-adv-x="604" 
d="M489 114q10 -74 -5 -131.5t-51 -96.5t-91 -59.5t-124 -20.5q-28 0 -57.5 4.5t-56.5 13.5t-50.5 22.5t-39.5 30.5l38 48q25 -29 70 -46.5t98 -17.5q60 0 102 17.5t68 47t35.5 69.5t3.5 85q-38 -33 -81 -49t-88 -16q-51 0 -90.5 17t-66.5 46t-41 68.5t-14 84.5
q0 57 20.5 107.5t57.5 88t89.5 59.5t116.5 22q56 0 98 -19.5t69 -51.5l14 63h57zM272 70q46 0 90 21t76 57l48 226q-25 38 -67 58.5t-90 20.5q-47 0 -87.5 -16t-70 -45t-46.5 -69t-17 -88q0 -76 42 -120.5t122 -44.5zM517 710q-13 -60 -51.5 -95t-113.5 -35q-37 0 -63.5 10
t-43.5 27.5t-25 41t-6 51.5h43q-1 -23 6 -40t20.5 -28t31.5 -16t40 -5q45 0 75.5 21t43.5 68h43z" />
    <glyph glyph-name="gcircumflex" unicode="&#x11d;" horiz-adv-x="604" 
d="M489 114q10 -74 -5 -131.5t-51 -96.5t-91 -59.5t-124 -20.5q-28 0 -57.5 4.5t-56.5 13.5t-50.5 22.5t-39.5 30.5l38 48q25 -29 70 -46.5t98 -17.5q60 0 102 17.5t68 47t35.5 69.5t3.5 85q-38 -33 -81 -49t-88 -16q-51 0 -90.5 17t-66.5 46t-41 68.5t-14 84.5
q0 57 20.5 107.5t57.5 88t89.5 59.5t116.5 22q56 0 98 -19.5t69 -51.5l14 63h57zM272 70q46 0 90 21t76 57l48 226q-25 38 -67 58.5t-90 20.5q-47 0 -87.5 -16t-70 -45t-46.5 -69t-17 -88q0 -76 42 -120.5t122 -44.5zM193 598l194 120l142 -124l-29 -35l-118 104l-166 -105z
" />
    <glyph glyph-name="uni0123" unicode="&#x123;" horiz-adv-x="604" 
d="M489 114q10 -74 -5 -131.5t-51 -96.5t-91 -59.5t-124 -20.5q-28 0 -57.5 4.5t-56.5 13.5t-50.5 22.5t-39.5 30.5l38 48q25 -29 70 -46.5t98 -17.5q60 0 102 17.5t68 47t35.5 69.5t3.5 85q-38 -33 -81 -49t-88 -16q-51 0 -90.5 17t-66.5 46t-41 68.5t-14 84.5
q0 57 20.5 107.5t57.5 88t89.5 59.5t116.5 22q56 0 98 -19.5t69 -51.5l14 63h57zM272 70q46 0 90 21t76 57l48 226q-25 38 -67 58.5t-90 20.5q-47 0 -87.5 -16t-70 -45t-46.5 -69t-17 -88q0 -76 42 -120.5t122 -44.5zM379.977 543.967h-67.9961l125.993 164.99h47.9971z" />
    <glyph glyph-name="gdotaccent" unicode="&#x121;" horiz-adv-x="604" 
d="M489 114q10 -74 -5 -131.5t-51 -96.5t-91 -59.5t-124 -20.5q-28 0 -57.5 4.5t-56.5 13.5t-50.5 22.5t-39.5 30.5l38 48q25 -29 70 -46.5t98 -17.5q60 0 102 17.5t68 47t35.5 69.5t3.5 85q-38 -33 -81 -49t-88 -16q-51 0 -90.5 17t-66.5 46t-41 68.5t-14 84.5
q0 57 20.5 107.5t57.5 88t89.5 59.5t116.5 22q56 0 98 -19.5t69 -51.5l14 63h57zM272 70q46 0 90 21t76 57l48 226q-25 38 -67 58.5t-90 20.5q-47 0 -87.5 -16t-70 -45t-46.5 -69t-17 -88q0 -76 42 -120.5t122 -44.5zM372 580q-22 0 -37 15t-15 37t15 37t37 15t37 -15
t15 -37t-15 -37t-37 -15z" />
    <glyph glyph-name="germandbls" unicode="&#xdf;" horiz-adv-x="534" 
d="M168 -129q52 0 95.5 13.5t74.5 38.5t48 61t17 81q0 37 -13 67.5t-35 52.5t-51.5 34.5t-62.5 12.5l10 46l156 169h-227l-94 -447h-58l121 569q17 75 56 108t116 33h34l-11 -53h-26q-55 0 -79.5 -24.5t-35.5 -77.5l-12 -55h334l-210 -229q30 -8 56.5 -25.5t46.5 -44
t32 -60.5t12 -74q0 -57 -22 -103.5t-62 -79.5t-96.5 -50.5t-124.5 -17.5z" />
    <glyph glyph-name="grave" unicode="`" 
d="M65 710h68l63 -160h-46z" />
    <glyph glyph-name="glyph212" 
d="M99 913h66l68 -145h-49z" />
    <glyph glyph-name="guillemotleft" unicode="&#xab;" horiz-adv-x="500" 
d="M50 253l197 215l35 -33l-174 -188l91 -195l-45 -20zM250 253l197 215l35 -33l-174 -188l91 -195l-45 -20z" />
    <glyph glyph-name="guillemotright" unicode="&#xbb;" horiz-adv-x="499" 
d="M249 247l-197 -215l-35 33l174 188l-91 195l45 20zM449 247l-197 -215l-35 33l174 188l-91 195l45 20z" />
    <glyph glyph-name="guilsinglleft" unicode="&#x2039;" horiz-adv-x="299" 
d="M50 253l197 215l35 -33l-174 -188l91 -195l-45 -20z" />
    <glyph glyph-name="guilsinglright" unicode="&#x203a;" horiz-adv-x="298" 
d="M249 247l-197 -215l-35 33l174 188l-91 195l45 20z" />
    <glyph glyph-name="h" unicode="h" horiz-adv-x="583" 
d="M179 710h58l-59 -275q32 34 74.5 53.5t94.5 19.5q45 0 81.5 -16.5t59.5 -47t31 -72.5t-3 -93l-60 -279h-57l58 276q9 42 3.5 74.5t-22.5 55.5t-45 35t-64 12q-51 0 -93.5 -24.5t-74.5 -69.5l-75 -359h-58z" />
    <glyph glyph-name="hbar" unicode="&#x127;" horiz-adv-x="583" 
d="M179 710h58l-59 -275q32 34 74.5 53.5t94.5 19.5q45 0 81.5 -16.5t59.5 -47t31 -72.5t-3 -93l-60 -279h-57l58 276q9 42 3.5 74.5t-22.5 55.5t-45 35t-64 12q-51 0 -93.5 -24.5t-74.5 -69.5l-75 -359h-58zM75 590l11 45h312l-10 -45h-313z" />
    <glyph glyph-name="hcircumflex" unicode="&#x125;" horiz-adv-x="583" 
d="M179 710h58l-59 -275q32 34 74.5 53.5t94.5 19.5q45 0 81.5 -16.5t59.5 -47t31 -72.5t-3 -93l-60 -279h-57l58 276q9 42 3.5 74.5t-22.5 55.5t-45 35t-64 12q-51 0 -93.5 -24.5t-74.5 -69.5l-75 -359h-58zM245 810l194 117l143 -119l-27 -38l-120 101l-168 -101z" />
    <glyph glyph-name="hungarumlaut" unicode="&#x2dd;" 
d="M236 710h71l-148 -161h-48zM68 710h71l-148 -161h-48z" />
    <glyph glyph-name="glyph221" 
d="M291 913h73l-143 -145h-51zM92 913h72l-142 -145h-51z" />
    <glyph glyph-name="hyphen" unicode="-" horiz-adv-x="377" 
d="M81 302h236l-12 -59h-236z" />
    <glyph glyph-name="i" unicode="i" horiz-adv-x="221" 
d="M134 500h58l-106 -500h-58zM164 627q-14 10 -14 32q0 26 17 42.5t40 16.5q18 0 30.5 -11.5t12.5 -28.5t-9.5 -30.5t-20.5 -20.5h-56z" />
    <glyph glyph-name="iacute" unicode="&#xed;" horiz-adv-x="221" 
d="M134 500h58l-106 -500h-58zM271 710h76l-147 -160h-47z" />
    <glyph glyph-name="ibreve" unicode="&#x12d;" horiz-adv-x="221" 
d="M134 500h58l-106 -500h-58zM348 710q-13 -60 -51.5 -95t-113.5 -35q-37 0 -63.5 10t-43.5 27.5t-25 41t-6 51.5h43q-1 -23 6 -40t20.5 -28t31.5 -16t40 -5q45 0 75.5 21t43.5 68h43z" />
    <glyph glyph-name="icircumflex" unicode="&#xee;" horiz-adv-x="221" 
d="M134 500h58l-106 -500h-58zM24 598l194 120l142 -124l-29 -35l-118 104l-166 -105z" />
    <glyph glyph-name="idieresis" unicode="&#xef;" horiz-adv-x="221" 
d="M134 500h58l-106 -500h-58zM93 580q-22 0 -37 15t-15 37t15 37t37 15t37 -15t15 -37t-15 -37t-37 -15zM313 580q-22 0 -37 15t-15 37t15 37t37 15t37 -15t15 -37t-15 -37t-37 -15z" />
    <glyph glyph-name="igrave" unicode="&#xec;" horiz-adv-x="221" 
d="M134 500h58l-106 -500h-58zM63 710h68l63 -160h-46z" />
    <glyph glyph-name="imacron" unicode="&#x12b;" horiz-adv-x="221" 
d="M134 500h58l-106 -500h-58zM58 679h286l-10 -45h-286z" />
    <glyph glyph-name="iogonek" unicode="&#x12f;" horiz-adv-x="221" 
d="M135 500h58l-106 -500h-58zM165 627q-14 10 -14 32q0 26 17 42.5t40 16.5q18 0 30.5 -11.5t12.5 -28.5t-9.5 -30.5t-20.5 -20.5h-56zM3 -192q-33 0 -56 19t-23 52q0 21 10 40.5t25.5 35.5t34 28t36.5 20l57 -3q-46 -20 -75 -49.5t-29 -58.5q0 -38 47 -38q18 0 29 6
l-9 -46q-21 -6 -47 -6z" />
    <glyph glyph-name="itilde" unicode="&#x129;" horiz-adv-x="221" 
d="M134 500h58l-106 -500h-58zM11 573q17 53 44.5 78t64.5 25q23 0 41.5 -9t34.5 -19.5t30.5 -19t30.5 -8.5q24 0 39 14.5t25 41.5h47q-17 -54 -44 -78.5t-66 -24.5q-22 0 -40 8.5t-34 19t-31 19.5t-32 9q-23 0 -38 -14.5t-25 -41.5h-47z" />
    <glyph glyph-name="j" unicode="j" horiz-adv-x="228" 
d="M-104 -129h22q30 0 49 6t31.5 19t19.5 33t13 48l111 523h58l-114 -536q-8 -40 -21 -68t-33.5 -46t-49.5 -26t-70 -8h-27zM172 627q-14 10 -14 32q0 26 17 42.5t40 16.5q18 0 30.5 -11.5t12.5 -28.5t-9.5 -30.5t-20.5 -20.5h-56z" />
    <glyph glyph-name="jcircumflex" unicode="&#x135;" horiz-adv-x="228" 
d="M-104 -129h22q30 0 49 6t31.5 19t19.5 33t13 48l111 523h58l-114 -536q-8 -40 -21 -68t-33.5 -46t-49.5 -26t-70 -8h-27zM31 598l194 120l142 -124l-29 -35l-118 104l-166 -105z" />
    <glyph glyph-name="k" unicode="k" horiz-adv-x="490" 
d="M179 710h58l-94 -444l304 234h77l-315 -241l233 -259h-68l-233 258l-55 -258h-58z" />
    <glyph glyph-name="uni0137" unicode="&#x137;" horiz-adv-x="490" 
d="M179 710h58l-94 -444l304 234h77l-315 -241l233 -259h-68l-233 258l-55 -258h-58zM192 -50h68l-126 -165h-48z" />
    <glyph glyph-name="l" unicode="l" horiz-adv-x="221" 
d="M179 710h58l-151 -710h-58z" />
    <glyph glyph-name="lacute" unicode="&#x13a;" horiz-adv-x="221" 
d="M179 710h58l-151 -710h-58zM316 920h76l-147 -160h-47z" />
    <glyph glyph-name="lcaron" unicode="&#x13e;" horiz-adv-x="245" 
d="M179 710h58l-151 -710h-58zM392 710l-76 -167h-44l61 167h59z" />
    <glyph glyph-name="uni013C" unicode="&#x13c;" horiz-adv-x="221" 
d="M179 710h58l-151 -710h-58zM13 -50h68l-126 -165h-48z" />
    <glyph glyph-name="ldot" unicode="&#x140;" horiz-adv-x="322" 
d="M179 710h58l-151 -710h-58zM308 320q-22 0 -37 15t-15 37t15 37t37 15t37 -15t15 -37t-15 -37t-37 -15z" />
    <glyph glyph-name="lslash" unicode="&#x142;" horiz-adv-x="332" 
d="M238 710h58l-151 -710h-58zM31 304l309 176l21 -40l-309 -176z" />
    <glyph glyph-name="m" unicode="m" horiz-adv-x="888" 
d="M336 508q53 0 90.5 -23.5t54.5 -68.5q43 49 92 70.5t100 21.5q44 0 76.5 -15.5t52 -44.5t25 -69.5t-4.5 -90.5l-62 -288h-57l60 285q18 80 -10 124t-99 44q-43 0 -86.5 -25t-75.5 -76q0 -14 -1.5 -30t-5.5 -33l-62 -289h-57l61 285q17 79 -11 123.5t-99 44.5
q-46 0 -85 -24t-69 -67l-77 -362h-58l106 500h56l-14 -65q32 34 72.5 53.5t87.5 19.5z" />
    <glyph glyph-name="macron" unicode="&#xaf;" 
d="M-11 679h286l-10 -45h-286z" />
    <glyph glyph-name="glyph244" 
d="M28 860h286l-10 -45h-286z" />
    <glyph glyph-name="minus" unicode="&#x2212;" horiz-adv-x="590" 
d="M80 297h438v-48h-438v48z" />
    <glyph glyph-name="multiply" unicode="&#xd7;" horiz-adv-x="590" 
d="M116 122l147 147l-149 149l34 34l150 -150l145 145l33 -33l-145 -145l149 -149l-34 -34l-149 149l-147 -147z" />
    <glyph glyph-name="n" unicode="n" horiz-adv-x="582" 
d="M134 500h56l-14 -66q33 34 75.5 54t94.5 20q46 0 82 -16.5t59.5 -46.5t31 -72.5t-3.5 -93.5l-59 -279h-58l59 280q9 40 3.5 72t-23 54.5t-45.5 34.5t-64 12q-51 0 -93 -24.5t-73 -68.5l-76 -360h-58z" />
    <glyph glyph-name="nacute" unicode="&#x144;" horiz-adv-x="582" 
d="M134 500h56l-14 -66q33 34 75.5 54t94.5 20q46 0 82 -16.5t59.5 -46.5t31 -72.5t-3.5 -93.5l-59 -279h-58l59 280q9 40 3.5 72t-23 54.5t-45.5 34.5t-64 12q-51 0 -93 -24.5t-73 -68.5l-76 -360h-58zM454 710h76l-147 -160h-47z" />
    <glyph glyph-name="ncaron" unicode="&#x148;" horiz-adv-x="582" 
d="M134 500h56l-14 -66q33 34 75.5 54t94.5 20q46 0 82 -16.5t59.5 -46.5t31 -72.5t-3.5 -93.5l-59 -279h-58l59 280q9 40 3.5 72t-23 54.5t-45.5 34.5t-64 12q-51 0 -93 -24.5t-73 -68.5l-76 -360h-58zM545 688l-194 -120l-141 124l28 35l118 -104l166 105z" />
    <glyph glyph-name="uni0146" unicode="&#x146;" horiz-adv-x="582" 
d="M134 500h56l-14 -66q33 34 75.5 54t94.5 20q46 0 82 -16.5t59.5 -46.5t31 -72.5t-3.5 -93.5l-59 -279h-58l59 280q9 40 3.5 72t-23 54.5t-45.5 34.5t-64 12q-51 0 -93 -24.5t-73 -68.5l-76 -360h-58zM210 -50h68l-126 -165h-48z" />
    <glyph glyph-name="nine" unicode="9" horiz-adv-x="543" 
d="M82 471q0 51 18 96t51.5 78.5t80.5 53t104 19.5q50 0 89 -17t66 -46t41 -66.5t14 -77.5q0 -51 -18.5 -94t-55.5 -88l-268 -329h-71l225 275q-18 -6 -33.5 -8.5t-32.5 -2.5q-50 0 -89 17t-66 46t-41 66t-14 78zM487 506q0 36 -12 65t-33 49.5t-49.5 31.5t-60.5 11
q-42 0 -77 -14.5t-60 -39.5t-39 -59.5t-14 -74.5q0 -36 12 -65t33 -49.5t49.5 -31.5t60.5 -11q41 0 76 14.5t60.5 40t39.5 59.5t14 74z" />
    <glyph glyph-name="ntilde" unicode="&#xf1;" horiz-adv-x="582" 
d="M134 500h56l-14 -66q33 34 75.5 54t94.5 20q46 0 82 -16.5t59.5 -46.5t31 -72.5t-3.5 -93.5l-59 -279h-58l59 280q9 40 3.5 72t-23 54.5t-45.5 34.5t-64 12q-51 0 -93 -24.5t-73 -68.5l-76 -360h-58zM194 573q17 53 44.5 78t64.5 25q23 0 41.5 -9t34.5 -19.5t30.5 -19
t30.5 -8.5q24 0 39 14.5t25 41.5h47q-17 -54 -44 -78.5t-66 -24.5q-22 0 -40 8.5t-34 19t-31 19.5t-32 9q-23 0 -38 -14.5t-25 -41.5h-47z" />
    <glyph glyph-name="numbersign" unicode="#" horiz-adv-x="705" 
d="M111 0l66 211h-138v48h153l63 198h-140v48h155l64 205h52l-64 -205h201l64 205h51l-64 -205h137v-48h-152l-62 -198h136v-48h-151l-66 -211h-51l66 211h-201l-66 -211h-53zM446 259l62 198h-201l-62 -198h201z" />
    <glyph glyph-name="o" unicode="o" horiz-adv-x="613" 
d="M568 274q0 -59 -21.5 -110.5t-59.5 -89.5t-89.5 -60t-111.5 -22q-57 0 -101.5 19.5t-75.5 52t-47 75t-16 88.5q0 58 21.5 109.5t59.5 89.5t90 60t112 22q57 0 101.5 -19.5t75 -52t46.5 -74.5t16 -88zM106 231q0 -44 15 -78t40 -57.5t58.5 -36t69.5 -12.5q46 0 86.5 16.5
t70 46.5t46.5 70.5t17 88.5q0 43 -15 77.5t-40.5 58t-59 36t-69.5 12.5q-46 0 -86 -16.5t-69.5 -46.5t-46.5 -70.5t-17 -88.5z" />
    <glyph glyph-name="oacute" unicode="&#xf3;" horiz-adv-x="613" 
d="M568 274q0 -59 -21.5 -110.5t-59.5 -89.5t-89.5 -60t-111.5 -22q-57 0 -101.5 19.5t-75.5 52t-47 75t-16 88.5q0 58 21.5 109.5t59.5 89.5t90 60t112 22q57 0 101.5 -19.5t75 -52t46.5 -74.5t16 -88zM106 231q0 -44 15 -78t40 -57.5t58.5 -36t69.5 -12.5q46 0 86.5 16.5
t70 46.5t46.5 70.5t17 88.5q0 43 -15 77.5t-40.5 58t-59 36t-69.5 12.5q-46 0 -86 -16.5t-69.5 -46.5t-46.5 -70.5t-17 -88.5zM437 710h76l-147 -160h-47z" />
    <glyph glyph-name="obreve" unicode="&#x14f;" horiz-adv-x="613" 
d="M568 274q0 -59 -21.5 -110.5t-59.5 -89.5t-89.5 -60t-111.5 -22q-57 0 -101.5 19.5t-75.5 52t-47 75t-16 88.5q0 58 21.5 109.5t59.5 89.5t90 60t112 22q57 0 101.5 -19.5t75 -52t46.5 -74.5t16 -88zM106 231q0 -44 15 -78t40 -57.5t58.5 -36t69.5 -12.5q46 0 86.5 16.5
t70 46.5t46.5 70.5t17 88.5q0 43 -15 77.5t-40.5 58t-59 36t-69.5 12.5q-46 0 -86 -16.5t-69.5 -46.5t-46.5 -70.5t-17 -88.5zM514 710q-13 -60 -51.5 -95t-113.5 -35q-37 0 -63.5 10t-43.5 27.5t-25 41t-6 51.5h43q-1 -23 6 -40t20.5 -28t31.5 -16t40 -5q45 0 75.5 21
t43.5 68h43z" />
    <glyph glyph-name="ocircumflex" unicode="&#xf4;" horiz-adv-x="613" 
d="M568 274q0 -59 -21.5 -110.5t-59.5 -89.5t-89.5 -60t-111.5 -22q-57 0 -101.5 19.5t-75.5 52t-47 75t-16 88.5q0 58 21.5 109.5t59.5 89.5t90 60t112 22q57 0 101.5 -19.5t75 -52t46.5 -74.5t16 -88zM106 231q0 -44 15 -78t40 -57.5t58.5 -36t69.5 -12.5q46 0 86.5 16.5
t70 46.5t46.5 70.5t17 88.5q0 43 -15 77.5t-40.5 58t-59 36t-69.5 12.5q-46 0 -86 -16.5t-69.5 -46.5t-46.5 -70.5t-17 -88.5zM190 598l194 120l142 -124l-29 -35l-118 104l-166 -105z" />
    <glyph glyph-name="odieresis" unicode="&#xf6;" horiz-adv-x="613" 
d="M568 274q0 -59 -21.5 -110.5t-59.5 -89.5t-89.5 -60t-111.5 -22q-57 0 -101.5 19.5t-75.5 52t-47 75t-16 88.5q0 58 21.5 109.5t59.5 89.5t90 60t112 22q57 0 101.5 -19.5t75 -52t46.5 -74.5t16 -88zM106 231q0 -44 15 -78t40 -57.5t58.5 -36t69.5 -12.5q46 0 86.5 16.5
t70 46.5t46.5 70.5t17 88.5q0 43 -15 77.5t-40.5 58t-59 36t-69.5 12.5q-46 0 -86 -16.5t-69.5 -46.5t-46.5 -70.5t-17 -88.5zM531 632q0 -22 -15 -37t-37 -15t-37 15t-15 37t15 37t37 15t37 -15t15 -37zM311 632q0 -22 -15 -37t-37 -15t-37 15t-15 37t15 37t37 15t37 -15
t15 -37z" />
    <glyph glyph-name="oe" unicode="&#x153;" horiz-adv-x="1035" 
d="M938 65q-38 -34 -87 -53.5t-107 -19.5q-76 0 -131.5 36.5t-83.5 105.5q-41 -71 -104.5 -106.5t-138.5 -35.5q-57 0 -101.5 19.5t-75.5 52t-47 75t-16 88.5q0 58 21.5 109.5t59.5 89.5t90 60t112 22q76 0 133 -36.5t85 -104.5q39 70 104 105.5t140 35.5q56 0 100 -21
t71.5 -57t37.5 -84.5t-2 -103.5h-431q-1 -50 14 -86.5t40.5 -60.5t58.5 -36t68 -12q45 0 84 15.5t68 43.5zM787 455q-38 0 -72 -11t-61.5 -32t-48 -51t-30.5 -69h365q3 38 -7 68t-30.5 51t-50 32.5t-65.5 11.5zM106 231q0 -44 15 -78t40 -57.5t58.5 -36t69.5 -12.5
q46 0 86.5 16.5t70 46.5t46.5 70.5t17 88.5q0 43 -15 77.5t-40.5 58t-59 36t-69.5 12.5q-46 0 -86 -16.5t-69.5 -46.5t-46.5 -70.5t-17 -88.5z" />
    <glyph glyph-name="ogonek" unicode="&#x2db;" 
d="M-34 -192q-33 0 -56 19t-23 52q0 21 10 40.5t25.5 35.5t34 28t36.5 20l57 -3q-46 -20 -75 -49.5t-29 -58.5q0 -38 47 -38q18 0 29 6l-9 -46q-21 -6 -47 -6z" />
    <glyph glyph-name="glyph261" 
d="M-34 -192q-33 0 -56 19t-23 52q0 21 9.5 40.5t24.5 35.5t33.5 28t36.5 20l59 -3q-46 -20 -75 -49.5t-29 -58.5q0 -38 47 -38q18 0 29 6l-9 -46q-21 -6 -47 -6z" />
    <glyph glyph-name="ograve" unicode="&#xf2;" horiz-adv-x="613" 
d="M568 274q0 -59 -21.5 -110.5t-59.5 -89.5t-89.5 -60t-111.5 -22q-57 0 -101.5 19.5t-75.5 52t-47 75t-16 88.5q0 58 21.5 109.5t59.5 89.5t90 60t112 22q57 0 101.5 -19.5t75 -52t46.5 -74.5t16 -88zM106 231q0 -44 15 -78t40 -57.5t58.5 -36t69.5 -12.5q46 0 86.5 16.5
t70 46.5t46.5 70.5t17 88.5q0 43 -15 77.5t-40.5 58t-59 36t-69.5 12.5q-46 0 -86 -16.5t-69.5 -46.5t-46.5 -70.5t-17 -88.5zM228 710h68l63 -160h-46z" />
    <glyph glyph-name="ohungarumlaut" unicode="&#x151;" horiz-adv-x="613" 
d="M568 274q0 -59 -21.5 -110.5t-59.5 -89.5t-89.5 -60t-111.5 -22q-57 0 -101.5 19.5t-75.5 52t-47 75t-16 88.5q0 58 21.5 109.5t59.5 89.5t90 60t112 22q57 0 101.5 -19.5t75 -52t46.5 -74.5t16 -88zM106 231q0 -44 15 -78t40 -57.5t58.5 -36t69.5 -12.5q46 0 86.5 16.5
t70 46.5t46.5 70.5t17 88.5q0 43 -15 77.5t-40.5 58t-59 36t-69.5 12.5q-46 0 -86 -16.5t-69.5 -46.5t-46.5 -70.5t-17 -88.5zM525 710h71l-148 -161h-48zM357 710h71l-148 -161h-48z" />
    <glyph glyph-name="omacron" unicode="&#x14d;" horiz-adv-x="613" 
d="M568 274q0 -59 -21.5 -110.5t-59.5 -89.5t-89.5 -60t-111.5 -22q-57 0 -101.5 19.5t-75.5 52t-47 75t-16 88.5q0 58 21.5 109.5t59.5 89.5t90 60t112 22q57 0 101.5 -19.5t75 -52t46.5 -74.5t16 -88zM106 231q0 -44 15 -78t40 -57.5t58.5 -36t69.5 -12.5q46 0 86.5 16.5
t70 46.5t46.5 70.5t17 88.5q0 43 -15 77.5t-40.5 58t-59 36t-69.5 12.5q-46 0 -86 -16.5t-69.5 -46.5t-46.5 -70.5t-17 -88.5zM224 679h286l-10 -45h-286z" />
    <glyph glyph-name="one" unicode="1" horiz-adv-x="261" 
d="M188 660l70 58l-153 -718h-57z" />
    <glyph glyph-name="oslash" unicode="&#xf8;" horiz-adv-x="614" 
d="M566 560l34 -34l-90 -95q27 -31 42 -69q16 -42 16 -88q0 -59 -21.5 -110.5t-59.5 -89.5t-89.5 -60t-111.5 -22q-57 0 -102 19q-24 11 -45 25l-89 -95l-34 34l88 93q-28 31 -42 70q-16 43 -16 89q0 58 21.5 109.5t59.5 89.5t90 60t112 22q57 0 101 -20q25 -11 45 -25z
M106 231q0 -44 15 -78q10 -23 24 -41l289 308q-18 12 -40 20q-33 13 -69 13q-46 0 -86 -16.5t-69.5 -46.5t-46.5 -70.5t-17 -88.5zM219 59q34 -12 70 -12q46 0 86.5 16.5t70 46.5t46.5 70.5t17 88.5q0 43 -15 77q-10 23 -25 41l-289 -308q18 -12 39 -20z" />
    <glyph glyph-name="otilde" unicode="&#xf5;" horiz-adv-x="613" 
d="M568 274q0 -59 -21.5 -110.5t-59.5 -89.5t-89.5 -60t-111.5 -22q-57 0 -101.5 19.5t-75.5 52t-47 75t-16 88.5q0 58 21.5 109.5t59.5 89.5t90 60t112 22q57 0 101.5 -19.5t75 -52t46.5 -74.5t16 -88zM106 231q0 -44 15 -78t40 -57.5t58.5 -36t69.5 -12.5q46 0 86.5 16.5
t70 46.5t46.5 70.5t17 88.5q0 43 -15 77.5t-40.5 58t-59 36t-69.5 12.5q-46 0 -86 -16.5t-69.5 -46.5t-46.5 -70.5t-17 -88.5zM177 573q17 53 44.5 78t64.5 25q23 0 41.5 -9t34.5 -19.5t30.5 -19t30.5 -8.5q24 0 39 14.5t25 41.5h47q-17 -54 -44 -78.5t-66 -24.5
q-22 0 -40 8.5t-34 19t-31 19.5t-32 9q-23 0 -38 -14.5t-25 -41.5h-47z" />
    <glyph glyph-name="p" unicode="p" horiz-adv-x="610" 
d="M134 500h56l-12 -56q33 29 75.5 46.5t94.5 17.5t93 -18.5t68.5 -49.5t42 -72.5t14.5 -86.5q0 -57 -21.5 -109.5t-59.5 -92t-91.5 -63.5t-116.5 -24q-59 0 -103.5 20t-72.5 55l-54 -251h-58zM336 453q-48 0 -93 -20t-77 -58l-51 -242q23 -42 68 -64t96 -22q48 0 89.5 18
t72 49t48 73t17.5 90q0 38 -11.5 70t-33.5 55.5t-53.5 37t-71.5 13.5z" />
    <glyph glyph-name="parenleft" unicode="(" horiz-adv-x="249" 
d="M82 -131q-35 131 -35 252q0 79 12 154.5t38 150t67.5 150.5t100.5 157l47 -22q-56 -77 -96 -148.5t-65.5 -142t-38 -142t-12.5 -148.5q0 -56 7.5 -118.5t23.5 -122.5z" />
    <glyph glyph-name="parenright" unicode=")" horiz-adv-x="249" 
d="M189 733q35 -131 35 -252q0 -80 -12 -155t-38 -149.5t-67.5 -150.5t-100.5 -157l-47 22q55 77 95.5 148.5t66 142t38 142t12.5 148.5q0 56 -7.5 118.5t-23.5 122.5z" />
    <glyph glyph-name="percent" unicode="%" horiz-adv-x="429" 
d="M424 592q0 -32 -11.5 -59t-32 -47.5t-48.5 -32t-60 -11.5q-30 0 -53.5 10t-39.5 27.5t-24.5 40t-8.5 47.5q0 31 11.5 58.5t31.5 47.5t47.5 32t59.5 12q30 0 54 -10.5t40.5 -27.5t25 -40t8.5 -47zM189 570q0 -41 26 -64t61 -23q22 0 41 8t33 22t22 33t8 42
q0 42 -26.5 64.5t-61.5 22.5q-21 0 -40 -8t-33 -22t-22 -33.5t-8 -41.5zM112 380h263l-10 -48h-263zM327 142q0 -31 -11.5 -58.5t-32 -47.5t-48 -32t-59.5 -12q-30 0 -54 10.5t-40 27.5t-24.5 40t-8.5 47q0 31 11.5 58.5t31.5 47.5t47.5 32t59.5 12q30 0 54 -10.5
t40.5 -27.5t25 -40t8.5 -47zM92 120q0 -41 26.5 -64t61.5 -23q43 0 73 30t30 76q0 42 -26.5 64.5t-61.5 22.5q-43 0 -73 -30t-30 -76z" />
    <glyph glyph-name="period" unicode="." horiz-adv-x="244" 
d="M82 -8q-25 0 -42 18t-17 41q0 25 17 43t42 18t42 -18t17 -43q0 -23 -17 -41t-42 -18z" />
    <glyph glyph-name="periodcentered" unicode="&#xb7;" horiz-adv-x="245" 
d="M126 198q-25 0 -42 18t-17 41q0 25 17 43t42 18t42 -18t17 -43q0 -23 -17 -41t-42 -18z" />
    <glyph glyph-name="plus" unicode="+" horiz-adv-x="590" 
d="M81 297h195v188h48v-188h195v-48h-195v-193h-48v193h-195v48z" />
    <glyph glyph-name="q" unicode="q" horiz-adv-x="610" 
d="M429 53q-32 -29 -73.5 -45t-92.5 -16q-53 0 -93.5 18.5t-68 49.5t-42 72.5t-14.5 86.5q0 57 21.5 109.5t60 92t91.5 63.5t117 24q58 0 102 -20.5t73 -54.5l14 67h58l-145 -684h-58zM275 47q47 0 92.5 20t77.5 58l51 243q-24 41 -68.5 63t-95.5 22q-48 0 -89.5 -18
t-72 -49t-48 -73t-17.5 -90q0 -38 11.5 -70t33.5 -55.5t53.5 -37t71.5 -13.5z" />
    <glyph glyph-name="question" unicode="?" horiz-adv-x="456" 
d="M254 359h48q44 0 79.5 12.5t60.5 35t38.5 53t13.5 65.5q0 33 -11 59t-29.5 43.5t-44 27t-54.5 9.5q-36 0 -66.5 -11t-52 -31.5t-34 -48.5t-13.5 -61h-56q1 43 18 80.5t46.5 65.5t70.5 44t91 16q46 0 81.5 -15t60 -40.5t37.5 -60.5t13 -74q0 -45 -17.5 -85t-49.5 -70.5
t-78.5 -48.5t-104.5 -18h-58zM280 105q9 -7 15 -18.5t6 -25.5q0 -32 -19.5 -50.5t-47.5 -18.5q-21 0 -36 13.5t-15 36.5q0 20 12 37.5t31 25.5h54z" />
    <glyph glyph-name="questiondown" unicode="&#xbf;" horiz-adv-x="456" 
d="M337 508q21 0 36 -13.5t15 -36.5q0 -20 -12 -37.5t-31 -25.5h-54q-9 7 -15 18.5t-6 25.5q0 32 19.5 50.5t47.5 18.5zM218 -194q-46 0 -81.5 15t-60 40.5t-37.5 60.5t-13 74q0 45 17.5 85t49.5 70.5t78.5 48.5t104.5 18h58l-11 -53h-48q-44 0 -79.5 -12.5t-60.5 -35
t-38.5 -53t-13.5 -65.5q0 -33 10.5 -59t29.5 -43.5t44.5 -27t54.5 -9.5q36 0 66.5 11t52 31.5t34 48.5t13.5 61h56q-2 -43 -18.5 -80.5t-46 -65.5t-70.5 -44t-91 -16z" />
    <glyph glyph-name="quotedbl" unicode="&#x22;" horiz-adv-x="400" 
d="M139 710h51v-241h-51v241zM341 710h51v-241h-51v241z" />
    <glyph glyph-name="quotedblbase" unicode="&#x201e;" horiz-adv-x="418" 
d="M59 3h-29l24 112h78l-25 -116l-85 -139h-42zM252 3h-29l24 112h78l-25 -116l-85 -139h-42z" />
    <glyph glyph-name="quotedblleft" unicode="&#x201c;" horiz-adv-x="415" 
d="M180 567h29l-24 -112h-78l25 116l85 139h42zM373 567h29l-24 -112h-78l25 116l85 139h42z" />
    <glyph glyph-name="quotedblright" unicode="&#x201d;" horiz-adv-x="411" 
d="M185 598h-29l24 112h78l-25 -116l-85 -139h-42zM378 598h-29l24 112h78l-25 -116l-85 -139h-42z" />
    <glyph glyph-name="quoteleft" unicode="&#x2018;" horiz-adv-x="222" 
d="M180 567h29l-24 -112h-78l25 116l85 139h42z" />
    <glyph glyph-name="quoteright" unicode="&#x2019;" horiz-adv-x="217" 
d="M185 598h-29l24 112h78l-25 -116l-85 -139h-42z" />
    <glyph glyph-name="quotesinglbase" unicode="&#x201a;" horiz-adv-x="225" 
d="M59 3h-29l24 112h78l-25 -116l-85 -139h-42z" />
    <glyph glyph-name="quotesingle" unicode="'" horiz-adv-x="198" 
d="M139 710h51v-241h-51v241z" />
    <glyph glyph-name="r" unicode="r" horiz-adv-x="343" 
d="M134 500h58l-15 -74q29 37 72 59t97 22q9 0 17 -0.5t16 -1.5l-13 -60q-15 4 -40 4q-54 0 -96.5 -26t-68.5 -71l-75 -352h-58z" />
    <glyph glyph-name="racute" unicode="&#x155;" horiz-adv-x="343" 
d="M134 500h58l-15 -74q29 37 72 59t97 22q9 0 17 -0.5t16 -1.5l-13 -60q-15 4 -40 4q-54 0 -96.5 -26t-68.5 -71l-75 -352h-58zM354 710h76l-147 -160h-47z" />
    <glyph glyph-name="rcaron" unicode="&#x159;" horiz-adv-x="343" 
d="M134 500h58l-15 -74q29 37 72 59t97 22q9 0 17 -0.5t16 -1.5l-13 -60q-15 4 -40 4q-54 0 -96.5 -26t-68.5 -71l-75 -352h-58zM445 688l-194 -120l-141 124l28 35l118 -104l166 105z" />
    <glyph glyph-name="uni0157" unicode="&#x157;" horiz-adv-x="343" 
d="M134 500h58l-15 -74q29 37 72 59t97 22q9 0 17 -0.5t16 -1.5l-13 -60q-15 4 -40 4q-54 0 -96.5 -26t-68.5 -71l-75 -352h-58zM13 -50h68l-126 -165h-48z" />
    <glyph glyph-name="ring" unicode="&#x2da;" 
d="M220 665q0 -37 -26.5 -62.5t-64.5 -25.5t-64.5 25.5t-26.5 62.5q0 38 26.5 63t64.5 25t64.5 -25t26.5 -63zM75 665q0 -23 15.5 -38.5t38.5 -15.5t38.5 15.5t15.5 38.5t-15.5 38.5t-38.5 15.5t-38.5 -15.5t-15.5 -38.5z" />
    <glyph glyph-name="s" unicode="s" horiz-adv-x="413" 
d="M351 128q0 -29 -12.5 -54t-34.5 -43t-52 -28.5t-65 -10.5q-74 0 -118 33.5t-61 83.5l51 23q14 -42 47 -65t84 -23q45 0 74.5 21.5t29.5 56.5q0 34 -21 56.5t-57 42.5l-45 27q-38 23 -64.5 55.5t-26.5 75.5q0 57 42 93t111 36q53 0 92 -25.5t56 -66.5l-52 -24
q-11 26 -35 44.5t-64 18.5q-42 0 -67 -19.5t-25 -53.5q0 -29 17 -50t48 -40l46 -27q21 -12 39.5 -25.5t32.5 -30.5t22 -37t8 -44z" />
    <glyph glyph-name="sacute" unicode="&#x15b;" horiz-adv-x="413" 
d="M351 128q0 -29 -12.5 -54t-34.5 -43t-52 -28.5t-65 -10.5q-74 0 -118 33.5t-61 83.5l51 23q14 -42 47 -65t84 -23q45 0 74.5 21.5t29.5 56.5q0 34 -21 56.5t-57 42.5l-45 27q-38 23 -64.5 55.5t-26.5 75.5q0 57 42 93t111 36q53 0 92 -25.5t56 -66.5l-52 -24
q-11 26 -35 44.5t-64 18.5q-42 0 -67 -19.5t-25 -53.5q0 -29 17 -50t48 -40l46 -27q21 -12 39.5 -25.5t32.5 -30.5t22 -37t8 -44zM341 710h76l-147 -160h-47z" />
    <glyph glyph-name="scaron" unicode="&#x161;" horiz-adv-x="413" 
d="M351 128q0 -29 -12.5 -54t-34.5 -43t-52 -28.5t-65 -10.5q-74 0 -118 33.5t-61 83.5l51 23q14 -42 47 -65t84 -23q45 0 74.5 21.5t29.5 56.5q0 34 -21 56.5t-57 42.5l-45 27q-38 23 -64.5 55.5t-26.5 75.5q0 57 42 93t111 36q53 0 92 -25.5t56 -66.5l-52 -24
q-11 26 -35 44.5t-64 18.5q-42 0 -67 -19.5t-25 -53.5q0 -29 17 -50t48 -40l46 -27q21 -12 39.5 -25.5t32.5 -30.5t22 -37t8 -44zM438 688l-194 -120l-141 124l28 35l118 -104l166 105z" />
    <glyph glyph-name="scedilla" unicode="&#x15f;" horiz-adv-x="413" 
d="M351 128q0 -29 -12.5 -54t-34.5 -43t-52 -28.5t-65 -10.5q-74 0 -118 33.5t-61 83.5l51 23q14 -42 47 -65t84 -23q45 0 74.5 21.5t29.5 56.5q0 34 -21 56.5t-57 42.5l-45 27q-38 23 -64.5 55.5t-26.5 75.5q0 57 42 93t111 36q53 0 92 -25.5t56 -66.5l-52 -24
q-11 26 -35 44.5t-64 18.5q-42 0 -67 -19.5t-25 -53.5q0 -29 17 -50t48 -40l46 -27q21 -12 39.5 -25.5t32.5 -30.5t22 -37t8 -44zM168 0h46l-93 -165h-68z" />
    <glyph glyph-name="scircumflex" unicode="&#x15d;" horiz-adv-x="413" 
d="M351 128q0 -29 -12.5 -54t-34.5 -43t-52 -28.5t-65 -10.5q-74 0 -118 33.5t-61 83.5l51 23q14 -42 47 -65t84 -23q45 0 74.5 21.5t29.5 56.5q0 34 -21 56.5t-57 42.5l-45 27q-38 23 -64.5 55.5t-26.5 75.5q0 57 42 93t111 36q53 0 92 -25.5t56 -66.5l-52 -24
q-11 26 -35 44.5t-64 18.5q-42 0 -67 -19.5t-25 -53.5q0 -29 17 -50t48 -40l46 -27q21 -12 39.5 -25.5t32.5 -30.5t22 -37t8 -44zM94 598l194 120l142 -124l-29 -35l-118 104l-166 -105z" />
    <glyph glyph-name="uni0219" unicode="&#x219;" horiz-adv-x="413" 
d="M351 128q0 -29 -12.5 -54t-34.5 -43t-52 -28.5t-65 -10.5q-74 0 -118 33.5t-61 83.5l51 23q14 -42 47 -65t84 -23q45 0 74.5 21.5t29.5 56.5q0 34 -21 56.5t-57 42.5l-45 27q-38 23 -64.5 55.5t-26.5 75.5q0 57 42 93t111 36q53 0 92 -25.5t56 -66.5l-52 -24
q-11 26 -35 44.5t-64 18.5q-42 0 -67 -19.5t-25 -53.5q0 -29 17 -50t48 -40l46 -27q21 -12 39.5 -25.5t32.5 -30.5t22 -37t8 -44zM148 -50h68l-126 -165h-48z" />
    <glyph glyph-name="semicolon" unicode=";" horiz-adv-x="244" 
d="M166 388q-25 0 -42 18t-17 41q0 25 17 43t42 18t42 -18t17 -43q0 -23 -17 -41t-42 -18zM116 0h-42l22 103h96l-22 -104l-84 -137h-44z" />
    <glyph glyph-name="seven" unicode="7" horiz-adv-x="497" 
d="M484 656h-371l12 54h462l-509 -710h-66z" />
    <glyph glyph-name="six" unicode="6" horiz-adv-x="543" 
d="M506 239q0 -51 -18 -96t-51.5 -78.5t-80.5 -53t-104 -19.5q-50 0 -89 17t-66 46t-41 66t-14 78q0 51 18.5 94t55.5 88l268 329h71l-225 -275q18 6 33.5 8.5t32.5 2.5q50 0 89 -17t66 -46t41 -66.5t14 -77.5zM101 204q0 -36 12 -65t33 -49.5t49.5 -31.5t60.5 -11
q42 0 77 14.5t60 39.5t39 59.5t14 74.5q0 36 -12 65t-33 49.5t-49.5 31.5t-60.5 11q-41 0 -76 -14.5t-60.5 -40t-39.5 -59.5t-14 -74z" />
    <glyph glyph-name="slash" unicode="/" horiz-adv-x="352" 
d="M345 710h54l-344 -710h-55z" />
    <glyph glyph-name="glyph301" 
d="M-146 263l394 222l24 -43l-393 -222z" />
    <glyph glyph-name="glyph302" 
d="M-99 298l309 176l21 -40l-309 -176z" />
    <glyph glyph-name="space" unicode=" " horiz-adv-x="268" 
 />
    <glyph glyph-name="sterling" unicode="&#xa3;" horiz-adv-x="563" 
d="M18 55h121l57 269h-120l11 50h132q-32 20 -48 56t-16 76q0 45 17 83.5t46.5 67t69.5 45t87 16.5q45 0 79 -15t57.5 -40.5t35.5 -60t12 -72.5h-56q0 32 -11 57t-29.5 42t-42.5 25.5t-49 8.5q-33 0 -62 -11.5t-51 -32.5t-34.5 -49.5t-12.5 -61.5q0 -32 11 -56.5t29.5 -42
t42.5 -26.5t50 -9h83l-11 -50h-162l-58 -269h290l-12 -55h-467z" />
    <glyph glyph-name="t" unicode="t" horiz-adv-x="329" 
d="M59 500h106l26 120l65 30l-32 -150h136l-12 -53h-135l-63 -290q-11 -54 2 -79t68 -25h47l-12 -53h-48q-77 0 -104.5 35.5t-10.5 116.5l62 295h-95v53z" />
    <glyph glyph-name="tcaron" unicode="&#x165;" horiz-adv-x="329" 
d="M59 500h106l26 120l65 30l-32 -150h136l-12 -53h-135l-63 -290q-11 -54 2 -79t68 -25h47l-12 -53h-48q-77 0 -104.5 35.5t-10.5 116.5l62 295h-95v53zM422 710l-76 -167h-44l61 167h59z" />
    <glyph glyph-name="uni021B" unicode="&#x21b;" horiz-adv-x="329" 
d="M59 500h106l26 120l65 30l-32 -150h136l-12 -53h-135l-63 -290q-11 -54 2 -79t68 -25h47l-12 -53h-48q-77 0 -104.5 35.5t-10.5 116.5l62 295h-95v53zM119 -50h68l-126 -165h-48z" />
    <glyph glyph-name="thorn" unicode="&#xfe;" horiz-adv-x="610" 
d="M179 710h56l-57 -266q33 29 76 46.5t94 17.5q52 0 93 -18.5t68.5 -49.5t42 -72.5t14.5 -86.5q0 -57 -21.5 -109.5t-59.5 -92t-91.5 -63.5t-116.5 -24q-59 0 -103.5 20t-72.5 55l-54 -251h-58zM336 453q-48 0 -93 -20t-77 -58l-51 -242q23 -42 68 -64t96 -22q48 0 89.5 18
t72 49t48 73t17.5 90q0 38 -11.5 70t-33.5 55.5t-53.5 37t-71.5 13.5z" />
    <glyph glyph-name="three" unicode="3" horiz-adv-x="508" 
d="M451 239q0 -50 -17 -95t-49 -79t-78.5 -53.5t-105.5 -19.5q-71 0 -121 29.5t-74 75.5l51 30q20 -39 59.5 -59.5t88.5 -20.5q41 0 75.5 14t59 39t38.5 59.5t14 74.5q0 36 -12.5 65t-34.5 50t-52.5 32.5t-66.5 11.5h-42l223 263h-273l12 54h369l-230 -273q43 -8 74 -27.5
t51.5 -46.5t30.5 -59t10 -65z" />
    <glyph glyph-name="tilde" unicode="&#x2dc;" 
d="M-58 573q17 53 44.5 78t64.5 25q23 0 41.5 -9t34.5 -19.5t30.5 -19t30.5 -8.5q24 0 39 14.5t25 41.5h47q-17 -54 -44 -78.5t-66 -24.5q-22 0 -40 8.5t-34 19t-31 19.5t-32 9q-23 0 -38 -14.5t-25 -41.5h-47z" />
    <glyph glyph-name="two" unicode="2" horiz-adv-x="537" 
d="M330 315q-8 -1 -15.5 -1.5t-14.5 -0.5q-42 1 -75 16.5t-55.5 40.5t-34.5 58t-12 69q0 44 16.5 84t46 70.5t71 48.5t91.5 18q45 0 80 -15.5t58.5 -41t36 -59t12.5 -69.5q0 -45 -20 -92.5t-65 -88.5l-331 -298h329l-11 -54h-456zM179 501q0 -31 10.5 -56t29 -43t43 -27.5
t52.5 -9.5q36 0 66 12.5t52 35t34.5 52t12.5 64.5q0 30 -10.5 55t-29 42.5t-43 27t-52.5 9.5q-36 0 -66 -12.5t-52 -34.5t-34.5 -51.5t-12.5 -63.5z" />
    <glyph glyph-name="u" unicode="u" horiz-adv-x="578" 
d="M402 66q-32 -35 -75 -54.5t-94 -19.5q-47 0 -83 15.5t-58 44t-29.5 69t3.5 90.5l61 289h58l-60 -285q-18 -81 15.5 -124.5t108.5 -43.5q52 0 93.5 24t72.5 69l76 360h58l-106 -500h-55z" />
    <glyph glyph-name="uacute" unicode="&#xfa;" horiz-adv-x="578" 
d="M402 66q-32 -35 -75 -54.5t-94 -19.5q-47 0 -83 15.5t-58 44t-29.5 69t3.5 90.5l61 289h58l-60 -285q-18 -81 15.5 -124.5t108.5 -43.5q52 0 93.5 24t72.5 69l76 360h58l-106 -500h-55zM447 710h76l-147 -160h-47z" />
    <glyph glyph-name="ubreve" unicode="&#x16d;" horiz-adv-x="578" 
d="M402 66q-32 -35 -75 -54.5t-94 -19.5q-47 0 -83 15.5t-58 44t-29.5 69t3.5 90.5l61 289h58l-60 -285q-18 -81 15.5 -124.5t108.5 -43.5q52 0 93.5 24t72.5 69l76 360h58l-106 -500h-55zM524 710q-13 -60 -51.5 -95t-113.5 -35q-37 0 -63.5 10t-43.5 27.5t-25 41t-6 51.5
h43q-1 -23 6 -40t20.5 -28t31.5 -16t40 -5q45 0 75.5 21t43.5 68h43z" />
    <glyph glyph-name="ucircumflex" unicode="&#xfb;" horiz-adv-x="578" 
d="M402 66q-32 -35 -75 -54.5t-94 -19.5q-47 0 -83 15.5t-58 44t-29.5 69t3.5 90.5l61 289h58l-60 -285q-18 -81 15.5 -124.5t108.5 -43.5q52 0 93.5 24t72.5 69l76 360h58l-106 -500h-55zM200 598l194 120l142 -124l-29 -35l-118 104l-166 -105z" />
    <glyph glyph-name="udieresis" unicode="&#xfc;" horiz-adv-x="578" 
d="M402 66q-32 -35 -75 -54.5t-94 -19.5q-47 0 -83 15.5t-58 44t-29.5 69t3.5 90.5l61 289h58l-60 -285q-18 -81 15.5 -124.5t108.5 -43.5q52 0 93.5 24t72.5 69l76 360h58l-106 -500h-55zM541 632q0 -22 -15 -37t-37 -15t-37 15t-15 37t15 37t37 15t37 -15t15 -37zM321 632
q0 -22 -15 -37t-37 -15t-37 15t-15 37t15 37t37 15t37 -15t15 -37z" />
    <glyph glyph-name="ugrave" unicode="&#xf9;" horiz-adv-x="578" 
d="M402 66q-32 -35 -75 -54.5t-94 -19.5q-47 0 -83 15.5t-58 44t-29.5 69t3.5 90.5l61 289h58l-60 -285q-18 -81 15.5 -124.5t108.5 -43.5q52 0 93.5 24t72.5 69l76 360h58l-106 -500h-55zM238 710h68l63 -160h-46z" />
    <glyph glyph-name="uhungarumlaut" unicode="&#x171;" horiz-adv-x="578" 
d="M402 66q-32 -35 -75 -54.5t-94 -19.5q-47 0 -83 15.5t-58 44t-29.5 69t3.5 90.5l61 289h58l-60 -285q-18 -81 15.5 -124.5t108.5 -43.5q52 0 93.5 24t72.5 69l76 360h58l-106 -500h-55zM535 710h71l-148 -161h-48zM367 710h71l-148 -161h-48z" />
    <glyph glyph-name="umacron" unicode="&#x16b;" horiz-adv-x="578" 
d="M402 66q-32 -35 -75 -54.5t-94 -19.5q-47 0 -83 15.5t-58 44t-29.5 69t3.5 90.5l61 289h58l-60 -285q-18 -81 15.5 -124.5t108.5 -43.5q52 0 93.5 24t72.5 69l76 360h58l-106 -500h-55zM234 679h286l-10 -45h-286z" />
    <glyph glyph-name="underscore" unicode="_" horiz-adv-x="523" 
d="M3 0h422l-11 -50h-422z" />
    <glyph glyph-name="uni00A0" unicode="&#xa0;" horiz-adv-x="268" 
 />
    <glyph glyph-name="uni00AD" unicode="&#xad;" horiz-adv-x="377" 
d="M81 302h236l-12 -59h-236z" />
    <glyph glyph-name="uni0162" unicode="&#x162;" horiz-adv-x="496" 
d="M302 652h-205l12 58h472l-13 -58h-206l-138 -652h-60zM150 -50h68l-126 -165h-48z" />
    <glyph glyph-name="uni0163" unicode="&#x163;" horiz-adv-x="329" 
d="M59 500h106l26 120l65 30l-32 -150h136l-12 -53h-135l-63 -290q-11 -54 2 -79t68 -25h47l-12 -53h-48q-77 0 -104.5 35.5t-10.5 116.5l62 295h-95v53zM119 -50h68l-126 -165h-48z" />
    <glyph glyph-name="uni0232" unicode="&#x232;" horiz-adv-x="602" 
d="M282 301l-173 409h65l146 -351l294 351h75l-347 -409l-64 -301h-60zM283 860h286l-10 -45h-286z" />
    <glyph glyph-name="uni0233" unicode="&#x233;" horiz-adv-x="514" 
d="M175 21l-115 479h60l98 -418l279 418h66l-460 -684h-65zM197 679h286l-10 -45h-286z" />
    <glyph glyph-name="uni1E9E" unicode="&#x1e9e;" horiz-adv-x="624" 
d="M200 710h415l-214 -262q33 -4 64.5 -18.5t56 -40t39 -61t14.5 -80.5q0 -57 -20.5 -103t-58 -78t-89.5 -49.5t-114 -17.5h-56l12 58h52q47 0 86 12.5t67 36.5t43.5 59t15.5 80q0 38 -14 66.5t-36.5 48t-51.5 29t-60 9.5h-30l11 52l168 203h-251l-138 -654h-61z" />
    <glyph glyph-name="uni1ECA" unicode="&#x1eca;" horiz-adv-x="266" 
d="M201 710h60l-151 -710h-60zM51 -193q-22 0 -37 15t-15 37t15 37t37 15t37 -15t15 -37t-15 -37t-37 -15z" />
    <glyph glyph-name="uni1ECB" unicode="&#x1ecb;" horiz-adv-x="221" 
d="M134 500h58l-106 -500h-58zM164 627q-14 10 -14 32q0 26 17 42.5t40 16.5q18 0 30.5 -11.5t12.5 -28.5t-9.5 -30.5t-20.5 -20.5h-56zM30 -183q-22 0 -37 15t-15 37t15 37t37 15t37 -15t15 -37t-15 -37t-37 -15z" />
    <glyph glyph-name="uni1ECC" unicode="&#x1ecc;" horiz-adv-x="841" 
d="M852 385q0 -75 -27.5 -146t-80 -125.5t-128 -88t-172.5 -33.5q-80 0 -141.5 27.5t-103.5 74t-64 106.5t-22 125q0 75 27.5 146t80 125.5t128.5 88t172 33.5q79 0 141 -27.5t104 -74t64 -106.5t22 -125zM176 330q0 -56 17.5 -106.5t52 -89t85.5 -61.5t118 -23q77 0 140 27
t107.5 72.5t69 105t24.5 125.5q0 56 -17.5 106.5t-52 89t-85.5 61.5t-118 23q-77 0 -140 -27t-107.5 -72.5t-69 -105t-24.5 -125.5zM386 -193q-22 0 -37 15t-15 37t15 37t37 15t37 -15t15 -37t-15 -37t-37 -15z" />
    <glyph glyph-name="uni1ECD" unicode="&#x1ecd;" horiz-adv-x="613" 
d="M568 274q0 -59 -21.5 -110.5t-59.5 -89.5t-89.5 -60t-111.5 -22q-57 0 -101.5 19.5t-75.5 52t-47 75t-16 88.5q0 58 21.5 109.5t59.5 89.5t90 60t112 22q57 0 101.5 -19.5t75 -52t46.5 -74.5t16 -88zM106 231q0 -44 15 -78t40 -57.5t58.5 -36t69.5 -12.5q46 0 86.5 16.5
t70 46.5t46.5 70.5t17 88.5q0 43 -15 77.5t-40.5 58t-59 36t-69.5 12.5q-46 0 -86 -16.5t-69.5 -46.5t-46.5 -70.5t-17 -88.5zM270 -183q-22 0 -37 15t-15 37t15 37t37 15t37 -15t15 -37t-15 -37t-37 -15z" />
    <glyph glyph-name="uni1EE4" unicode="&#x1ee4;" horiz-adv-x="729" 
d="M639 267q-29 -132 -104.5 -203.5t-208.5 -71.5q-63 0 -111.5 18.5t-79 54t-41.5 86.5t3 116l95 443h60l-95 -444q-12 -54 -4.5 -94.5t30.5 -67.5t60 -40.5t85 -13.5q96 0 162 54t89 162l94 444h60zM308 -193q-22 0 -37 15t-15 37t15 37t37 15t37 -15t15 -37t-15 -37
t-37 -15z" />
    <glyph glyph-name="uni1EE5" unicode="&#x1ee5;" horiz-adv-x="578" 
d="M402 66q-32 -35 -75 -54.5t-94 -19.5q-47 0 -83 15.5t-58 44t-29.5 69t3.5 90.5l61 289h58l-60 -285q-18 -81 15.5 -124.5t108.5 -43.5q52 0 93.5 24t72.5 69l76 360h58l-106 -500h-55zM217 -183q-22 0 -37 15t-15 37t15 37t37 15t37 -15t15 -37t-15 -37t-37 -15z" />
    <glyph glyph-name="uogonek" unicode="&#x173;" horiz-adv-x="578" 
d="M359 -192q-32 0 -55.5 19t-23.5 52q0 21 10 40.5t25.5 35.5t35 28.5t38.5 19.5l13 63q-32 -35 -75 -54.5t-94 -19.5q-47 0 -83 15.5t-58 44t-29.5 69t3.5 90.5l61 289h58l-60 -285q-18 -81 15.5 -124.5t108.5 -43.5q52 0 93.5 24t72.5 69l76 360h58l-106 -500
q-46 -20 -74.5 -49.5t-28.5 -58.5q0 -38 46 -38q18 0 30 6l-10 -46q-21 -6 -47 -6z" />
    <glyph glyph-name="uring" unicode="&#x16f;" horiz-adv-x="578" 
d="M402 66q-32 -35 -75 -54.5t-94 -19.5q-47 0 -83 15.5t-58 44t-29.5 69t3.5 90.5l61 289h58l-60 -285q-18 -81 15.5 -124.5t108.5 -43.5q52 0 93.5 24t72.5 69l76 360h58l-106 -500h-55zM465 665q0 -37 -26.5 -62.5t-64.5 -25.5t-64.5 25.5t-26.5 62.5q0 38 26.5 63
t64.5 25t64.5 -25t26.5 -63zM320 665q0 -23 15.5 -38.5t38.5 -15.5t38.5 15.5t15.5 38.5t-15.5 38.5t-38.5 15.5t-38.5 -15.5t-15.5 -38.5z" />
    <glyph glyph-name="utilde" unicode="&#x169;" horiz-adv-x="578" 
d="M402 66q-32 -35 -75 -54.5t-94 -19.5q-47 0 -83 15.5t-58 44t-29.5 69t3.5 90.5l61 289h58l-60 -285q-18 -81 15.5 -124.5t108.5 -43.5q52 0 93.5 24t72.5 69l76 360h58l-106 -500h-55zM187 573q17 53 44.5 78t64.5 25q23 0 41.5 -9t34.5 -19.5t30.5 -19t30.5 -8.5
q24 0 39 14.5t25 41.5h47q-17 -54 -44 -78.5t-66 -24.5q-22 0 -40 8.5t-34 19t-31 19.5t-32 9q-23 0 -38 -14.5t-25 -41.5h-47z" />
    <glyph glyph-name="v" unicode="v" horiz-adv-x="511" 
d="M54 500h62l106 -391l271 391h70l-362 -508z" />
    <glyph glyph-name="w" unicode="w" horiz-adv-x="714" 
d="M65 500h57l48 -403l238 411l65 -411l218 403h58l-269 -503h-42l-57 368l-212 -368h-42z" />
    <glyph glyph-name="wacute" unicode="&#x1e83;" horiz-adv-x="714" 
d="M65 500h57l48 -403l238 411l65 -411l218 403h58l-269 -503h-42l-57 368l-212 -368h-42zM514 710h76l-147 -160h-47z" />
    <glyph glyph-name="wcircumflex" unicode="&#x175;" horiz-adv-x="714" 
d="M65 500h57l48 -403l238 411l65 -411l218 403h58l-269 -503h-42l-57 368l-212 -368h-42zM267 598l194 120l142 -124l-29 -35l-118 104l-166 -105z" />
    <glyph glyph-name="wdieresis" unicode="&#x1e85;" horiz-adv-x="714" 
d="M65 500h57l48 -403l238 411l65 -411l218 403h58l-269 -503h-42l-57 368l-212 -368h-42zM608 632q0 -22 -15 -37t-37 -15t-37 15t-15 37t15 37t37 15t37 -15t15 -37zM388 632q0 -22 -15 -37t-37 -15t-37 15t-15 37t15 37t37 15t37 -15t15 -37z" />
    <glyph glyph-name="wgrave" unicode="&#x1e81;" horiz-adv-x="714" 
d="M65 500h57l48 -403l238 411l65 -411l218 403h58l-269 -503h-42l-57 368l-212 -368h-42zM305 710h68l63 -160h-46z" />
    <glyph glyph-name="x" unicode="x" horiz-adv-x="509" 
d="M224 260l-144 240h61l122 -202l208 202h71l-253 -246l154 -254h-62l-130 217l-223 -217h-72z" />
    <glyph glyph-name="y" unicode="y" horiz-adv-x="514" 
d="M175 21l-115 479h60l98 -418l279 418h66l-460 -684h-65z" />
    <glyph glyph-name="yacute" unicode="&#xfd;" horiz-adv-x="514" 
d="M175 21l-115 479h60l98 -418l279 418h66l-460 -684h-65zM410 710h76l-147 -160h-47z" />
    <glyph glyph-name="ycircumflex" unicode="&#x177;" horiz-adv-x="514" 
d="M175 21l-115 479h60l98 -418l279 418h66l-460 -684h-65zM163 598l194 120l142 -124l-29 -35l-118 104l-166 -105z" />
    <glyph glyph-name="ydieresis" unicode="&#xff;" horiz-adv-x="514" 
d="M175 21l-115 479h60l98 -418l279 418h66l-460 -684h-65zM504 632q0 -22 -15 -37t-37 -15t-37 15t-15 37t15 37t37 15t37 -15t15 -37zM284 632q0 -22 -15 -37t-37 -15t-37 15t-15 37t15 37t37 15t37 -15t15 -37z" />
    <glyph glyph-name="yen" unicode="&#xa5;" horiz-adv-x="639" 
d="M114 187h161l19 90h-161l10 50h145l-163 383h63l148 -350l295 350h71l-325 -383h150l-11 -50h-166l-19 -90h166l-11 -50h-166l-29 -137h-56l29 137h-162z" />
    <glyph glyph-name="ygrave" unicode="&#x1ef3;" horiz-adv-x="514" 
d="M175 21l-115 479h60l98 -418l279 418h66l-460 -684h-65zM202 710h68l63 -160h-46z" />
    <glyph glyph-name="z" unicode="z" horiz-adv-x="486" 
d="M391 447h-299l11 53h410l-428 -447h323l-12 -53h-433z" />
    <glyph glyph-name="zacute" unicode="&#x17a;" horiz-adv-x="486" 
d="M391 447h-299l11 53h410l-428 -447h323l-12 -53h-433zM412 710h76l-147 -160h-47z" />
    <glyph glyph-name="zcaron" unicode="&#x17e;" horiz-adv-x="486" 
d="M391 447h-299l11 53h410l-428 -447h323l-12 -53h-433zM503 688l-194 -120l-141 124l28 35l118 -104l166 105z" />
    <glyph glyph-name="zdotaccent" unicode="&#x17c;" horiz-adv-x="486" 
d="M391 447h-299l11 53h410l-428 -447h323l-12 -53h-433zM344 580q-22 0 -37 15t-15 37t15 37t37 15t37 -15t15 -37t-15 -37t-37 -15z" />
    <glyph glyph-name="zero" unicode="0" horiz-adv-x="846" 
d="M815 385q0 -75 -28 -146t-81 -125.5t-128.5 -88t-170.5 -33.5q-80 0 -141.5 27.5t-103.5 74t-64 106.5t-22 125q0 75 28 146t81 125.5t128.5 88t170.5 33.5q79 0 141 -27.5t104 -74t64 -106.5t22 -125zM135 330q0 -56 18 -107.5t53.5 -90.5t87 -62t117.5 -23q79 0 143 27
t109 72.5t69 106t24 127.5q0 56 -18 107.5t-53 90.5t-86.5 62t-118.5 23q-79 0 -142.5 -27t-108.5 -72.5t-69.5 -106t-24.5 -127.5z" />
    </font>
</defs>
</svg>
