<?xml version="1.0" standalone="no"?>
<!DOCTYPE svg PUBLIC "-//W3C//DTD SVG 1.1//EN" "http://www.w3.org/Graphics/SVG/1.1/DTD/svg11.dtd" >
<svg xmlns="http://www.w3.org/2000/svg" xmlns:xlink="http://www.w3.org/1999/xlink" version="1.1">
<metadata>
Created by Christoph Koeberlin (http://christoph.koe.berlin)
Copyright (c) 2018 Swiss Typefaces Sarl. All rights reserved.
</metadata>
<defs>
<font id="Font" horiz-adv-x="0" >
  <font-face 
    font-family="Font"
    font-weight="275"
    font-stretch="normal"
    units-per-em="1000"
    panose-1="2 11 3 4 0 0 0 0 0 0"
    ascent="800"
    descent="-200"
    x-height="500"
    cap-height="710"
    bbox="-344 -215 1048 929"
    underline-thickness="50"
    underline-position="-115"
    unicode-range="U+000D-FB02"
  />
<missing-glyph horiz-adv-x="500" 
d="M0 710h500v-710h-500v710zM250 371l216 320h-432zM19 28l221 327l-221 327v-654zM481 28v654l-220 -327zM466 19l-216 320l-216 -320h432z" />
    <glyph glyph-name=".notdef" horiz-adv-x="500" 
d="M0 710h500v-710h-500v710zM250 371l216 320h-432zM19 28l221 327l-221 327v-654zM481 28v654l-220 -327zM466 19l-216 320l-216 -320h432z" />
    <glyph glyph-name="glyph1" 
 />
    <glyph glyph-name="uni000D" unicode="&#xd;" horiz-adv-x="264" 
 />
    <glyph glyph-name="space" unicode=" " horiz-adv-x="264" 
 />
    <glyph glyph-name="exclam" unicode="!" horiz-adv-x="235" 
d="M89 415v295h57v-295l-11 -211h-36zM117 -8q-25 0 -42 18t-17 41q0 17 9 31.5t23 22.5h54q14 -8 23 -22.5t9 -31.5q0 -23 -17 -41t-42 -18z" />
    <glyph glyph-name="quotedbl" unicode="&#x22;" horiz-adv-x="400" 
d="M73 710h52v-236h-52v236zM275 710h52v-236h-52v236z" />
    <glyph glyph-name="numbersign" unicode="#" horiz-adv-x="742" 
d="M106 0l66 210h-137v50h153l62 197h-139v50h154l64 203h53l-64 -203h202l64 203h52l-63 -203h135v-50h-151l-62 -197h137v-50h-152l-66 -210h-53l66 210h-201l-66 -210h-54zM442 260l63 197h-202l-62 -197h201z" />
    <glyph glyph-name="dollar" unicode="$" horiz-adv-x="510" 
d="M227 -6q-66 5 -115.5 36t-76.5 69l43 35q26 -37 71 -63t102 -26q76 0 120 35.5t44 94.5q0 28 -10 49.5t-28.5 39.5t-44 32.5t-55.5 28.5l-69 32q-80 37 -115 83.5t-35 109.5q0 32 12.5 60t35 50t53.5 36.5t68 18.5v83h56v-82q55 -5 93.5 -28.5t65.5 -55.5l-41 -37
q-27 35 -62.5 52.5t-83.5 17.5q-29 0 -54.5 -8.5t-45 -23.5t-30.5 -36.5t-11 -46.5q0 -47 28.5 -79.5t93.5 -61.5l69 -32q36 -17 66.5 -36t53 -42t35 -52t12.5 -66q0 -35 -11.5 -67t-35 -57t-59 -42t-83.5 -21v-82h-56v82z" />
    <glyph glyph-name="percent" unicode="%" horiz-adv-x="432" 
d="M214 440q-29 0 -54.5 10.5t-44 29t-29.5 43.5t-11 55t11 55.5t29.5 44t44 29t54.5 10.5q30 0 55.5 -10.5t45 -29t30.5 -44t11 -55.5t-11 -55t-30.5 -43.5t-45 -29t-55.5 -10.5zM214 484q42 0 68 27.5t26 66.5q0 40 -26 67t-68 27q-40 0 -65.5 -27t-25.5 -67
q0 -39 25.5 -66.5t65.5 -27.5zM83 380h268v-50h-268v50zM214 -7q-29 0 -54.5 10.5t-44 29t-29.5 43.5t-11 55t11 55.5t29.5 44t44 29t54.5 10.5q30 0 55.5 -10.5t45 -29t30.5 -44t11 -55.5t-11 -55t-30.5 -43.5t-45 -29t-55.5 -10.5zM214 37q42 0 68 27.5t26 66.5
q0 40 -26 67.5t-68 27.5q-40 0 -65.5 -27.5t-25.5 -67.5q0 -39 25.5 -66.5t65.5 -27.5z" />
    <glyph glyph-name="ampersand" unicode="&#x26;" horiz-adv-x="618" 
d="M253 -8q-49 0 -90 17.5t-71 47.5t-46.5 70.5t-16.5 87.5q0 46 16.5 86.5t46.5 71t71 48t90 17.5q40 0 81 -19l-152 291h349v-53h-262l347 -657h-63l-91 171q-8 -40 -26 -73t-45 -56.5t-62 -36.5t-76 -13zM253 45q36 0 66.5 13t53 36t35 54t12.5 67q0 34 -12 65t-34 54.5
t-53 37t-68 13.5q-36 0 -67 -13t-53 -36t-34.5 -54t-12.5 -67t12.5 -67t34.5 -54t53 -36t67 -13z" />
    <glyph glyph-name="quotesingle" unicode="'" horiz-adv-x="198" 
d="M73 710h52v-236h-52v236z" />
    <glyph glyph-name="parenleft" unicode="(" horiz-adv-x="245" 
d="M205.987 -111q-25.998 54 -44.4971 105t-30.498 101t-17.499 101t-5.5 105t5.5 105t17.499 101t30.498 101t44.4971 105l-45.9971 20q-27.998 -57 -47.4971 -108t-31.998 -102t-18.499 -105t-6 -117t6 -117t18.499 -105t31.998 -102t47.4971 -108z" />
    <glyph glyph-name="parenright" unicode=")" horiz-adv-x="245" 
d="M39 -111q26 54 44.5 105t30.5 101t17.5 101t5.5 105t-5.5 105t-17.5 101t-30.5 101t-44.5 105l46 20q28 -57 47.5 -108t32 -102t18.5 -105t6 -117t-6 -117t-18.5 -105t-32 -102t-47.5 -108z" />
    <glyph glyph-name="asterisk" unicode="*" horiz-adv-x="428" 
d="M97 427l80 108l-130 45l14 44l130 -44v130h46v-130l130 43l14 -44l-129 -42l80 -109l-38 -28l-80 110l-79 -109z" />
    <glyph glyph-name="plus" unicode="+" horiz-adv-x="590" 
d="M76 297h195v188h49v-188h194v-48h-194v-193h-49v193h-195v48z" />
    <glyph glyph-name="comma" unicode="," horiz-adv-x="238" 
d="M114 0h-42v103h96v-104l-54 -137h-44z" />
    <glyph glyph-name="hyphen" unicode="-" horiz-adv-x="377" 
d="M70 302h236v-59h-236v59z" />
    <glyph glyph-name="period" unicode="." horiz-adv-x="244" 
d="M122 -8q-25 0 -42 18t-17 41q0 25 17 43t42 18t42 -18t17 -43q0 -23 -17 -41t-42 -18z" />
    <glyph glyph-name="slash" unicode="/" horiz-adv-x="459" 
d="M375 710h55l-345 -710h-56z" />
    <glyph glyph-name="zero" unicode="0" horiz-adv-x="831" 
d="M415 -8q-76 0 -142.5 28t-115.5 76.5t-77 115t-28 143.5t28 143.5t77 115t115.5 76.5t142.5 28t142.5 -28t116 -76.5t77.5 -115t28 -143.5t-28 -143.5t-77.5 -115t-116 -76.5t-142.5 -28zM415 45q65 0 121 23.5t97 65.5t64.5 98.5t23.5 122.5t-23.5 122.5t-64.5 98.5
t-97 65.5t-121 23.5t-120.5 -23.5t-96 -65.5t-64 -98.5t-23.5 -122.5t23.5 -122.5t64 -98.5t96 -65.5t120.5 -23.5z" />
    <glyph glyph-name="one" unicode="1" horiz-adv-x="260" 
d="M100 661l57 57v-718h-57v661z" />
    <glyph glyph-name="two" unicode="2" horiz-adv-x="534" 
d="M333 329q-37 -17 -70 -17q-43 0 -80 16t-64 43.5t-42 64t-15 78.5q0 43 16 80.5t44 65t65.5 43t80.5 15.5t81 -15.5t66 -43t44 -65t16 -80.5q0 -60 -28 -113.5t-89 -120.5l-205 -226h328v-54h-449zM268 362q32 0 59.5 11.5t47.5 32t31.5 48t11.5 60.5q0 32 -11.5 59.5
t-31.5 48t-47.5 32t-59.5 11.5t-59 -11.5t-47 -32t-31.5 -48t-11.5 -59.5q0 -33 11.5 -60.5t31.5 -48t47 -32t59 -11.5z" />
    <glyph glyph-name="three" unicode="3" horiz-adv-x="515" 
d="M232 -8q-63 0 -115 27t-83 73l45 34q23 -36 62 -58.5t90 -22.5q37 0 69 12t56 34.5t38 54.5t14 73q0 42 -14 74.5t-38.5 55t-58.5 34.5t-74 12h-53l167 261h-276v54h367l-169 -266q51 -6 89.5 -25.5t64.5 -49.5t39.5 -68.5t13.5 -81.5q0 -50 -17.5 -91.5t-48.5 -71.5
t-74 -47t-94 -17z" />
    <glyph glyph-name="four" unicode="4" horiz-adv-x="617" 
d="M426 201h-413l469 517v-463h97v-54h-97v-201h-56v201zM426 255v328l-296 -328h296z" />
    <glyph glyph-name="five" unicode="5" horiz-adv-x="521" 
d="M247 -8q-64 0 -116.5 26.5t-82.5 72.5l45 35q22 -35 61.5 -58t90.5 -23q37 0 69 12.5t56 35t37.5 55t13.5 72.5t-13.5 72.5t-37.5 55.5t-56.5 35.5t-70.5 12.5q-40 0 -70.5 -14.5t-50.5 -34.5l-40 20v343h349v-54h-292v-233q28 14 54.5 20t51.5 6q52 0 95.5 -17t74 -48
t47.5 -73t17 -91q0 -50 -17.5 -91.5t-48.5 -72t-73.5 -47.5t-92.5 -17z" />
    <glyph glyph-name="six" unicode="6" horiz-adv-x="540" 
d="M277 -8q-49 0 -91 18t-73 49t-48.5 72.5t-17.5 88.5q0 35 10.5 66.5t26.5 58.5l222 365h65l-171 -281q23 11 42 14.5t38 3.5q48 0 89.5 -18t72 -48.5t48.5 -72t18 -88.5t-17.5 -88.5t-48.5 -72.5t-73.5 -49t-91.5 -18zM277 45q38 0 69.5 13.5t54.5 37.5t35.5 56t12.5 68
t-12.5 67.5t-35.5 55.5t-54.5 37.5t-69.5 13.5t-69.5 -13.5t-54 -37.5t-35.5 -55.5t-13 -67.5t13 -68t35.5 -56t54 -37.5t69.5 -13.5z" />
    <glyph glyph-name="seven" unicode="7" horiz-adv-x="492" 
d="M402 656h-373v54h460l-356 -710h-61z" />
    <glyph glyph-name="eight" unicode="8" horiz-adv-x="552" 
d="M276 -8q-48 0 -89 17.5t-71.5 47.5t-48 71.5t-17.5 89.5q0 69 35.5 123t95.5 80q-32 20 -51.5 55t-19.5 78q0 35 13 65t35.5 52t52.5 34.5t65 12.5t65 -12.5t52.5 -34.5t35.5 -52t13 -65q0 -43 -19.5 -78t-51.5 -55q59 -26 95 -80t36 -123q0 -48 -17.5 -89.5t-48 -71.5
t-71.5 -47.5t-89 -17.5zM276 664q-23 0 -43 -8.5t-34.5 -23.5t-23 -35t-8.5 -43q0 -24 8.5 -44t23 -35t34.5 -23.5t43 -8.5t43 8.5t34.5 23.5t23 35t8.5 44q0 23 -8.5 43t-23 35t-34.5 23.5t-43 8.5zM276 46q36 0 66.5 13.5t53 36.5t35 54.5t12.5 67.5t-12.5 67t-35 54
t-53 36.5t-66.5 13.5t-66.5 -13.5t-53 -36.5t-35 -54t-12.5 -67t12.5 -67.5t35 -54.5t53 -36.5t66.5 -13.5z" />
    <glyph glyph-name="nine" unicode="9" horiz-adv-x="540" 
d="M341 280q-23 -11 -42 -14.5t-39 -3.5q-48 0 -89 18t-72 49t-48.5 72.5t-17.5 88.5t17.5 88.5t48.5 72.5t73 49t91 18t91 -18t73 -49t48.5 -72.5t17.5 -88.5q0 -35 -10.5 -67t-27.5 -59l-221 -365h-65zM263 315q37 0 69 14t54.5 37.5t35.5 55.5t13 68t-13 68t-35.5 55.5
t-54.5 37.5t-69 14q-38 0 -69.5 -14t-54.5 -37.5t-35.5 -55.5t-12.5 -68t12.5 -68t35.5 -55.5t54.5 -37.5t69.5 -14z" />
    <glyph glyph-name="colon" unicode=":" horiz-adv-x="244" 
d="M122 -6q-25 0 -42 18t-17 41q0 25 17 43t42 18t42 -18t17 -43q0 -23 -17 -41t-42 -18zM122 386q-25 0 -42 18t-17 41q0 25 17 43t42 18t42 -18t17 -43q0 -23 -17 -41t-42 -18z" />
    <glyph glyph-name="semicolon" unicode=";" horiz-adv-x="244" 
d="M120 388q-25 0 -42 18t-17 41q0 25 17 43t42 18t42 -18t17 -43q0 -23 -17 -41t-42 -18zM114 0h-42v103h96v-104l-54 -137h-44z" />
    <glyph glyph-name="equal" unicode="=" horiz-adv-x="590" 
d="M72 411h446v-48h-446v48zM72 184h446v-48h-446v48z" />
    <glyph glyph-name="question" unicode="?" horiz-adv-x="456" 
d="M163 361h55q35 0 64 11t50 31.5t32.5 48t11.5 60.5t-11.5 61t-31 48.5t-47 32t-58.5 11.5q-32 0 -59 -11.5t-47 -32t-31 -48.5t-11 -61h-59q0 43 16 81t44 65.5t65.5 43.5t80.5 16q42 0 79.5 -16t65.5 -43.5t44.5 -65.5t16.5 -81q0 -44 -16.5 -81.5t-45.5 -65t-69 -43.5
t-86 -16h-53v55zM220 -8q-25 0 -42 18t-17 41q0 17 9 31.5t23 22.5h54q14 -8 23 -22.5t9 -31.5q0 -23 -17 -41t-42 -18z" />
    <glyph glyph-name="at" unicode="@" horiz-adv-x="817" 
d="M400 -8q-81 0 -146.5 26.5t-111 73.5t-70 111t-24.5 138q0 83 31 152t84.5 119t125 78t152.5 28q75 0 137.5 -22t108 -62.5t70.5 -98t25 -129.5q0 -62 -15 -107.5t-40 -75.5t-56 -44.5t-64 -14.5t-58.5 15t-37.5 41q-25 -23 -59 -39t-79 -16q-38 0 -67.5 13.5t-49.5 37
t-31 54t-11 64.5q0 45 16.5 85t45.5 70.5t68.5 48t86.5 17.5q39 0 69.5 -13t50.5 -36l7 34h49l-52 -243q-8 -39 8 -63.5t51 -24.5q23 0 44.5 13t38.5 38t27.5 62t10.5 85q0 64 -22.5 114t-62 84t-94 51.5t-117.5 17.5q-72 0 -134.5 -25t-109 -69t-73 -105.5t-26.5 -134.5
q0 -65 21 -120t60.5 -96t95.5 -64t127 -23q49 0 99.5 10t92.5 32l17 -44q-47 -21 -103 -32t-106 -11zM266 338q0 -57 31.5 -92.5t86.5 -35.5q35 0 66 15.5t51 44.5q1 5 1 10.5t2 10.5l35 163q-18 29 -48.5 42.5t-62.5 13.5q-33 0 -62.5 -13t-51.5 -36.5t-35 -55t-13 -67.5z
" />
    <glyph glyph-name="A" unicode="A" horiz-adv-x="699" 
d="M349 718l340 -718h-64l-100 213h-351l-100 -213h-65zM499 269l-149 318l-150 -318h299z" />
    <glyph glyph-name="B" unicode="B" horiz-adv-x="629" 
d="M103 710h227q51 0 89 -14.5t63.5 -39.5t38 -58t12.5 -69q0 -57 -23.5 -95.5t-67.5 -59.5q28 -8 53.5 -22.5t44.5 -36.5t30 -52t11 -69q0 -48 -17 -84t-48 -60.5t-74.5 -37t-96.5 -12.5h-242v710zM332 392q68 0 104 37.5t36 93.5q0 27 -9.5 51t-27.5 41.5t-44 28t-60 10.5
h-168v-262h169zM352 56q81 0 124.5 37.5t43.5 102.5q0 31 -10 57t-31 45t-53 30t-75 11h-188v-283h189z" />
    <glyph glyph-name="C" unicode="C" horiz-adv-x="718" 
d="M403 -8q-76 0 -142 27.5t-115 76.5t-77 115.5t-28 143.5t28 143.5t77 115t115 76.5t142 28q45 0 86 -9.5t77 -27t65 -40.5t49 -50l-43 -38q-38 49 -98.5 78.5t-135.5 29.5q-63 0 -118 -23t-95.5 -64t-63.5 -97t-23 -122q0 -65 23 -121t63.5 -97t95.5 -64t118 -23
q75 0 135.5 29.5t98.5 78.5l43 -38q-20 -27 -49 -50.5t-65 -40.5t-77 -27t-86 -10z" />
    <glyph glyph-name="D" unicode="D" horiz-adv-x="740" 
d="M103 710h205q84 0 154 -27t120.5 -74.5t78.5 -113t28 -141.5q0 -77 -28 -141.5t-78.5 -112t-120.5 -74t-154 -26.5h-205v710zM307 56q72 0 131.5 22.5t101.5 62.5t65 94.5t23 119.5q0 64 -23 119t-65 95t-101.5 62.5t-131.5 22.5h-144v-598h144z" />
    <glyph glyph-name="E" unicode="E" horiz-adv-x="538" 
d="M92 710h401v-58h-341v-258h281v-59h-281v-277h341v-58h-401v710z" />
    <glyph glyph-name="F" unicode="F" horiz-adv-x="514" 
d="M103 710h392v-58h-332v-258h263v-59h-263v-335h-60v710z" />
    <glyph glyph-name="G" unicode="G" horiz-adv-x="719" 
d="M402 -8q-77 0 -143 27.5t-115 76.5t-77 115.5t-28 143.5t28 143.5t76.5 115t114.5 76.5t143 28q41 0 79.5 -8.5t72 -23.5t62 -35.5t48.5 -44.5l-43 -39q-37 42 -93 67.5t-126 25.5q-64 0 -119 -23t-95.5 -64t-63.5 -97t-23 -121t23.5 -121t64 -97t95.5 -64t119 -23
q67 0 121.5 19t86.5 46v220h-235l26 59h269v-307q-17 -18 -44.5 -35t-62 -30.5t-75.5 -21.5t-86 -8z" />
    <glyph glyph-name="H" unicode="H" horiz-adv-x="765" 
d="M103 710h60v-316h439v316h60v-710h-60v335h-439v-335h-60v710z" />
    <glyph glyph-name="I" unicode="I" horiz-adv-x="265" 
d="M103 710h60v-710h-60v710z" />
    <glyph glyph-name="J" unicode="J" horiz-adv-x="522" 
d="M225 -8q-42 0 -78.5 13t-64 38t-43 62.5t-15.5 87.5h59q0 -71 39.5 -107t102.5 -36q65 0 103.5 36t38.5 107v517h60v-520q0 -50 -16 -87t-43.5 -62t-64 -37t-78.5 -12z" />
    <glyph glyph-name="K" unicode="K" horiz-adv-x="615" 
d="M103 710h60v-361l351 361h75l-352 -361l384 -349h-82l-376 341v-341h-60v710z" />
    <glyph glyph-name="L" unicode="L" horiz-adv-x="516" 
d="M103 710h60v-651h336v-59h-396v710z" />
    <glyph glyph-name="M" unicode="M" horiz-adv-x="881" 
d="M103 718l338 -395l337 395v-718h-60v567l-277 -330l-278 330v-567h-60v718z" />
    <glyph glyph-name="N" unicode="N" horiz-adv-x="789" 
d="M163 574v-574h-60v718l523 -582v574h60v-718z" />
    <glyph glyph-name="O" unicode="O" horiz-adv-x="808" 
d="M404 -8q-77 0 -143 27.5t-115 76.5t-77 115.5t-28 143.5t28 143.5t77 115t115 76.5t143 28q76 0 142.5 -28t115.5 -76.5t77 -115t28 -143.5t-28 -143.5t-77 -115.5t-115.5 -76.5t-142.5 -27.5zM404 51q64 0 119 23.5t95 64t62.5 96t22.5 120.5q0 64 -22.5 120t-62.5 96.5
t-95 64t-119 23.5t-119 -23.5t-95 -64t-62.5 -96.5t-22.5 -120q0 -65 22.5 -120.5t62.5 -96t95 -64t119 -23.5z" />
    <glyph glyph-name="P" unicode="P" horiz-adv-x="568" 
d="M103 710h198q56 0 99.5 -15t73 -42t45 -65t15.5 -83t-15.5 -82.5t-45 -64.5t-73 -42.5t-98.5 -15.5h-139v-300h-60v710zM301 356q85 0 128.5 41t43.5 108t-43.5 108t-128.5 41h-138v-298h138z" />
    <glyph glyph-name="Q" unicode="Q" horiz-adv-x="847" 
d="M404 -8q-77 0 -143 27.5t-115 76.5t-77 115.5t-28 143.5t28 143.5t77 115t115 76.5t143 28q76 0 142.5 -28t115.5 -76.5t77 -115t28 -143.5q0 -66 -20.5 -123.5t-56.5 -103.5l99 -95l-39 -41l-99 94q-48 -45 -111.5 -69.5t-135.5 -24.5zM404 51q60 0 112 20.5t91 56.5
l-88 85l39 41l87 -83q27 38 42.5 84.5t15.5 99.5q0 64 -22.5 120t-62.5 96.5t-95 64t-119 23.5t-119 -23.5t-95 -64t-62.5 -96.5t-22.5 -120q0 -65 22.5 -120.5t62.5 -96t95 -64t119 -23.5z" />
    <glyph glyph-name="R" unicode="R" horiz-adv-x="609" 
d="M103 710h200q107 0 163.5 -53t56.5 -138q0 -34 -10 -65.5t-32 -57t-57.5 -43t-85.5 -23.5l263 -330h-72l-260 328h-106v-328h-60v710zM302 382q80 0 119.5 36.5t39.5 99.5t-39.5 99.5t-119.5 36.5h-139v-272h139z" />
    <glyph glyph-name="S" unicode="S" horiz-adv-x="520" 
d="M257 -8q-72 0 -129 31t-89 76l46 39q27 -36 71.5 -62t99.5 -26q75 0 118.5 33t43.5 92q0 56 -37 90.5t-99 61.5l-69 29q-81 35 -116 83t-35 111q0 38 16.5 69t44.5 53t63.5 34t74.5 12q57 0 105 -22t82 -64l-43 -42q-28 35 -63.5 52.5t-83.5 17.5q-27 0 -51.5 -7.5
t-43 -22t-30 -35.5t-11.5 -47q0 -45 27 -78.5t92 -61.5l69 -30q36 -16 67 -35t53.5 -42.5t35 -53t12.5 -66.5q0 -41 -15 -75.5t-43 -60t-69.5 -39.5t-93.5 -14z" />
    <glyph glyph-name="T" unicode="T" horiz-adv-x="512" 
d="M226 652h-210v58h480v-58h-210v-652h-60v652z" />
    <glyph glyph-name="U" unicode="U" horiz-adv-x="732" 
d="M366 -8q-62 0 -112.5 18.5t-86 53.5t-55 86t-19.5 116v444h60v-447q0 -107 58 -160t155 -53t155 53t58 160v447h60v-444q0 -65 -19.5 -116t-55 -86t-86 -53.5t-112.5 -18.5z" />
    <glyph glyph-name="V" unicode="V" horiz-adv-x="653" 
d="M6 710h65l255 -578l255 578h66l-320 -718z" />
    <glyph glyph-name="W" unicode="W" horiz-adv-x="883" 
d="M15 710h62l172 -552l192 560l193 -560l171 552h63l-231 -718l-196 569l-196 -569z" />
    <glyph glyph-name="X" unicode="X" horiz-adv-x="626" 
d="M275 365l-250 345h70l218 -298l218 298h70l-249 -345l267 -365h-69l-236 320l-236 -320h-70z" />
    <glyph glyph-name="Y" unicode="Y" horiz-adv-x="606" 
d="M273 301l-260 409h70l220 -349l220 349h70l-260 -409v-301h-60v301z" />
    <glyph glyph-name="Z" unicode="Z" horiz-adv-x="578" 
d="M444 652h-389v58h492l-436 -652h438v-58h-542z" />
    <glyph glyph-name="bracketleft" unicode="[" horiz-adv-x="289" 
d="M261.984 -130v49h-112.993v762h112.993v49h-165.99v-860h165.99z" />
    <glyph glyph-name="bracketright" unicode="]" horiz-adv-x="289" 
d="M27 -130v49h113v762h-113v49h166v-860h-166z" />
    <glyph glyph-name="underscore" unicode="_" horiz-adv-x="527" 
d="M53 0h421v-50h-421v50z" />
    <glyph glyph-name="grave" unicode="`" 
d="M-108 710h71l95 -160h-49z" />
    <glyph glyph-name="a" unicode="a" horiz-adv-x="618" 
d="M480 64q-33 -35 -78 -53.5t-99 -18.5q-56 0 -103.5 20t-81.5 55t-53 82t-19 101t19 101t53 82t81.5 55t103.5 20q53 0 98.5 -18.5t78.5 -53.5v64h57v-500h-57v64zM304 46q58 0 104 25t72 64v229q-26 40 -72 65t-104 25q-44 0 -80.5 -16t-62.5 -43.5t-41 -64.5t-15 -80
t15 -80t41 -64.5t62.5 -43.5t80.5 -16z" />
    <glyph glyph-name="b" unicode="b" horiz-adv-x="618" 
d="M81 710h58v-274q32 35 77.5 53.5t99.5 18.5q56 0 103 -20t81 -55t53 -82t19 -101t-19 -101t-53 -82t-81 -55t-103 -20q-54 0 -99.5 18.5t-77.5 53.5v-64h-58v710zM315 454q-60 0 -105 -25t-71 -65v-229q26 -39 71.5 -64t104.5 -25q43 0 79.5 16t62.5 43.5t41 64.5t15 80
t-15 80t-41 64.5t-62.5 43.5t-79.5 16z" />
    <glyph glyph-name="c" unicode="c" horiz-adv-x="524" 
d="M304 -8q-56 0 -103.5 20t-82 55t-53.5 82t-19 101t19 101t53.5 82t82 55t103.5 20q60 0 107.5 -21.5t81.5 -55.5l-38 -41q-27 28 -65 46t-86 18q-44 0 -80.5 -16t-62.5 -43.5t-41 -64.5t-15 -80t15 -80t41 -64.5t62.5 -43.5t80.5 -16q48 0 86 18t65 45l37 -40
q-33 -35 -80.5 -56t-107.5 -21z" />
    <glyph glyph-name="d" unicode="d" horiz-adv-x="618" 
d="M480 0v64q-32 -35 -77.5 -53.5t-99.5 -18.5q-56 0 -103.5 20t-81.5 55t-53 82t-19 101t19 101t53 82t81.5 55t103.5 20q54 0 99.5 -18.5t77.5 -53.5v274h57v-710h-57zM304 454q-44 0 -80.5 -16t-62.5 -43.5t-41 -64.5t-15 -80t15 -80t41 -64.5t62.5 -43.5t80.5 -16
q58 0 104 25t72 64v229q-26 40 -71.5 65t-104.5 25z" />
    <glyph glyph-name="e" unicode="e" horiz-adv-x="573" 
d="M304 -8q-56 0 -103.5 20t-82 55t-53.5 82t-19 101t19 101t52.5 82t79 55t99.5 20t98 -19t75.5 -54t48.5 -84t17 -109h-430q1 -43 17 -79t43 -62t62.5 -40.5t76.5 -14.5q51 0 92.5 19t68.5 47l37 -41q-33 -34 -84 -56.5t-114 -22.5zM293 455q-33 0 -64 -11t-55.5 -31.5
t-42 -51t-23.5 -69.5h363q-8 80 -57.5 121.5t-120.5 41.5z" />
    <glyph glyph-name="f" unicode="f" horiz-adv-x="331" 
d="M124 447h-106v53h104q-21 16 -33.5 39.5t-12.5 51.5q0 53 38.5 86t105.5 33h99v-52h-95q-42 0 -67 -20.5t-25 -57.5q0 -36 25.5 -57.5t63.5 -22.5h99v-53h-139v-447h-57v447z" />
    <glyph glyph-name="g" unicode="g" horiz-adv-x="613" 
d="M293 -194q-57 0 -113.5 17.5t-97.5 49.5l32 48q32 -27 80.5 -44t100.5 -17q42 0 77.5 9t61.5 27.5t40.5 46.5t14.5 67q0 21 -4.5 42.5t-11.5 35.5q-32 -35 -77.5 -54.5t-100.5 -19.5t-100.5 19t-78.5 52t-51 78t-18 98q0 52 18 97.5t51 78.5t78.5 52t100.5 19
q54 0 98.5 -19t76.5 -53v64h57v-390q10 -26 15.5 -51.5t5.5 -53.5q0 -54 -22 -92t-57.5 -62t-81.5 -34.5t-94 -10.5zM296 67q58 0 103 25.5t71 65.5v206q-25 40 -70.5 65t-103.5 25q-41 0 -76 -14.5t-60.5 -40.5t-39.5 -61.5t-14 -76.5t14 -76.5t39.5 -61.5t60.5 -41t76 -15
z" />
    <glyph glyph-name="h" unicode="h" horiz-adv-x="579" 
d="M81 710h58v-288q26 42 70.5 64t98.5 22q92 0 144 -55t52 -148v-305h-57v300q0 69 -39.5 111.5t-110.5 42.5q-61 0 -101.5 -33t-56.5 -87v-334h-58v710z" />
    <glyph glyph-name="i" unicode="i" horiz-adv-x="220" 
d="M81 500h58v-500h-58v500zM82 627q-10 7 -16 17.5t-6 23.5q0 20 15 35t36 15q20 0 35 -15t15 -35q0 -13 -6 -23.5t-16 -17.5h-57z" />
    <glyph glyph-name="j" unicode="j" horiz-adv-x="228" 
d="M-20 -131h20q53 0 71 25.5t18 76.5v529h58v-543q0 -141 -142 -141h-25v53zM90 627q-10 7 -16 17.5t-6 23.5q0 20 15 35t36 15q20 0 35 -15t15 -35q0 -13 -6 -23.5t-16 -17.5h-57z" />
    <glyph glyph-name="k" unicode="k" horiz-adv-x="494" 
d="M81 710h58v-445l253 235h77l-259 -240l288 -260h-80l-279 252v-252h-58v710z" />
    <glyph glyph-name="l" unicode="l" horiz-adv-x="220" 
d="M81 710h58v-710h-58v710z" />
    <glyph glyph-name="m" unicode="m" horiz-adv-x="881" 
d="M415 300q0 66 -33.5 110t-100.5 44q-53 0 -89 -30t-53 -84v-340h-58v500h58v-75q26 42 65.5 62.5t87.5 20.5q63 0 101.5 -27.5t58.5 -71.5q26 48 71 73.5t100 25.5q89 0 136 -55t47 -148v-305h-57v300q0 66 -33.5 110t-100.5 44q-51 0 -88.5 -30t-55.5 -91q1 -7 1 -14
v-319h-57v300z" />
    <glyph glyph-name="n" unicode="n" horiz-adv-x="579" 
d="M81 500h58v-78q26 42 70.5 64t98.5 22q92 0 144 -55t52 -148v-305h-57v300q0 69 -39.5 111.5t-110.5 42.5q-61 0 -101.5 -33t-56.5 -87v-334h-58v500z" />
    <glyph glyph-name="o" unicode="o" horiz-adv-x="610" 
d="M305 -8q-57 0 -104.5 20t-82 55t-53.5 82t-19 101t19 101t53.5 82t82 55t104.5 20t104.5 -20t82 -55t53.5 -82t19 -101t-19 -101t-53.5 -82t-82 -55t-104.5 -20zM305 46q44 0 81 16t63.5 43.5t41 64.5t14.5 80t-14.5 80t-41 64.5t-63.5 43.5t-81 16t-81 -16t-63.5 -43.5
t-41 -64.5t-14.5 -80t14.5 -80t41 -64.5t63.5 -43.5t81 -16z" />
    <glyph glyph-name="p" unicode="p" horiz-adv-x="618" 
d="M139 500v-64q32 35 77.5 53.5t99.5 18.5q56 0 103 -20t81 -55t53 -82t19 -101t-19 -101t-53 -82t-81 -55t-103 -20q-54 0 -99.5 18.5t-77.5 53.5v-248h-58v684h58zM315 46q43 0 79.5 16t62.5 43.5t41 64.5t15 80t-15 80t-41 64.5t-62.5 43.5t-79.5 16q-59 0 -104.5 -25
t-71.5 -64v-229q26 -40 71 -65t105 -25z" />
    <glyph glyph-name="q" unicode="q" horiz-adv-x="618" 
d="M537 -184h-57v248q-32 -35 -77.5 -53.5t-99.5 -18.5q-56 0 -103.5 20t-81.5 55t-53 82t-19 101t19 101t53 82t81.5 55t103.5 20q54 0 99.5 -18.5t77.5 -53.5v64h57v-684zM304 46q59 0 104.5 25t71.5 65v229q-26 39 -72 64t-104 25q-44 0 -80.5 -16t-62.5 -43.5t-41 -64.5
t-15 -80t15 -80t41 -64.5t62.5 -43.5t80.5 -16z" />
    <glyph glyph-name="r" unicode="r" horiz-adv-x="338" 
d="M81 500h58v-75q23 38 61 59.5t90 21.5q8 0 17 -0.5t17 -1.5v-59q-10 2 -20 3t-21 1q-54 0 -91.5 -28t-52.5 -75v-346h-58v500z" />
    <glyph glyph-name="s" unicode="s" horiz-adv-x="413" 
d="M207 -8q-63 0 -106 30t-66 75l47 30q20 -39 49.5 -61t76.5 -22q48 0 78.5 22.5t30.5 59.5q0 39 -25 61.5t-74 39.5l-45 16q-63 23 -88.5 59.5t-25.5 80.5q0 27 10.5 50t30 39.5t47 26t60.5 9.5q48 0 84 -21.5t56 -59.5l-46 -27q-13 25 -35 40.5t-59 15.5q-42 0 -66.5 -20
t-24.5 -53q0 -32 19.5 -54t67.5 -39l47 -17q62 -23 93 -56.5t31 -87.5q0 -29 -11.5 -53.5t-33 -43.5t-52.5 -29.5t-70 -10.5z" />
    <glyph glyph-name="t" unicode="t" horiz-adv-x="336" 
d="M255 0q-141 0 -141 141v306h-93l-13 53h106v122l57 28v-150h149l-13 -53h-136v-292q0 -53 19 -77.5t73 -24.5h50v-53h-58z" />
    <glyph glyph-name="u" unicode="u" horiz-adv-x="579" 
d="M440 78q-27 -42 -71 -64t-98 -22q-92 0 -144 55t-52 148v305h57v-300q0 -69 39.5 -111.5t109.5 -42.5q61 0 101.5 32t57.5 85v337h57v-500h-57v78z" />
    <glyph glyph-name="v" unicode="v" horiz-adv-x="517" 
d="M2 500h64l193 -393l193 393h64l-257 -508z" />
    <glyph glyph-name="w" unicode="w" horiz-adv-x="717" 
d="M13 500h60l134 -402l152 410l152 -412l133 404h60l-168 -502h-40l-137 370l-137 -370h-40z" />
    <glyph glyph-name="x" unicode="x" horiz-adv-x="507" 
d="M219 255l-195 245h66l164 -203l163 203h66l-195 -244l206 -256h-67l-173 216l-174 -216h-67z" />
    <glyph glyph-name="y" unicode="y" horiz-adv-x="511" 
d="M226 27l-218 473h62l186 -410l188 410h62l-318 -684h-62z" />
    <glyph glyph-name="z" unicode="z" horiz-adv-x="481" 
d="M350 447h-300v53h404l-334 -447h325v-53h-429z" />
    <glyph glyph-name="braceleft" unicode="{" horiz-adv-x="293" 
d="M263.984 -130v49h-23.999q-50.9971 0 -66.9961 23.5t-15.999 75.5v170q0 47 -9.49902 72.5q-9.5 25.5 -41.498 39.5q31.998 14 41.498 40q9.49902 26 9.49902 73v169q0 52 15.999 75.5t65.9961 23.5h24.999v49h-31.998q-69.9961 0 -98.4941 -34.5
q-28.499 -34.5 -28.499 -106.5v-182q0 -18 -1.99902 -33.5q-2 -15.5 -8.5 -26t-18.999 -16.5t-32.498 -6h-9.99902v-49h9.99902q19.999 0 32.498 -6t18.999 -17t8.5 -26q1.99902 -15 1.99902 -33v-183q0 -72 28.999 -106.5q28.998 -34.5 98.9932 -34.5h30.999z" />
    <glyph glyph-name="bar" unicode="|" horiz-adv-x="245" 
d="M96 710h53v-894h-53v894z" />
    <glyph glyph-name="braceright" unicode="}" horiz-adv-x="293" 
d="M29 -130v49h24q51 0 67 23.5t16 75.5v170q0 47 9.5 72.5t41.5 39.5q-32 14 -41.5 40t-9.5 73v169q0 52 -16 75.5t-66 23.5h-25v49h32q70 0 98.5 -34.5t28.5 -106.5v-182q0 -18 2 -33.5t8.5 -26t19 -16.5t32.5 -6h10v-49h-10q-20 0 -32.5 -6t-19 -17t-8.5 -26t-2 -33v-183
q0 -72 -29 -106.5t-99 -34.5h-31z" />
    <glyph glyph-name="uni00A0" unicode="&#xa0;" horiz-adv-x="264" 
 />
    <glyph glyph-name="exclamdown" unicode="&#xa1;" horiz-adv-x="235" 
d="M117 508q25 0 42 -18t17 -41q0 -17 -9 -31.5t-23 -22.5h-54q-14 8 -23 22.5t-9 31.5q0 23 17 41t42 18zM135 296l11 -211v-269h-57v269l10 211h36z" />
    <glyph glyph-name="sterling" unicode="&#xa3;" horiz-adv-x="561" 
d="M53 54h115v270h-115v50h115q-34 24 -54 62.5t-20 84.5q0 41 15 77t42 62.5t63.5 42t80.5 15.5q42 0 78.5 -15.5t63.5 -42.5t42.5 -63.5t15.5 -77.5h-58q0 31 -10.5 57.5t-29.5 46t-45 31t-57 11.5t-57.5 -11t-45.5 -30.5t-30 -45.5t-11 -57t11 -57.5t30 -46.5t45.5 -31.5
t57.5 -11.5h88v-50h-158v-270h300v-54h-472v54z" />
    <glyph glyph-name="yen" unicode="&#xa5;" horiz-adv-x="636" 
d="M126 335h140l-238 375h70l220 -349l220 349h70l-239 -375h141v-51h-162v-76h162v-51h-162v-157h-60v157h-162v51h162v76h-162v51z" />
    <glyph glyph-name="dieresis" unicode="&#xa8;" 
d="M110 580q-22 0 -37 15t-15 37t15 37t37 15t37 -15t15 -37t-15 -37t-37 -15zM-110 580q-22 0 -37 15t-15 37t15 37t37 15t37 -15t15 -37t-15 -37t-37 -15z" />
    <glyph glyph-name="copyright" unicode="&#xa9;" horiz-adv-x="824" 
d="M412 -8q-75 0 -141 28.5t-115.5 78t-78 115t-28.5 140.5t28.5 141t78 115.5t115.5 78.5t141 29t140.5 -29t115 -78.5t78 -115.5t28.5 -141t-28.5 -140.5t-78 -115t-115 -78t-140.5 -28.5zM412 35q65 0 122.5 25t100 68.5t67.5 102t25 124.5t-25 124.5t-67.5 101.5
t-100 68t-122.5 25t-122.5 -25t-100 -68t-67.5 -101.5t-25 -124.5t24.5 -124.5t67.5 -102t100.5 -68.5t122.5 -25zM429 183q-36 0 -67.5 13t-54.5 36t-36.5 54.5t-13.5 68.5q0 36 13.5 67.5t36.5 55t54.5 36.5t67.5 13t66.5 -13t51.5 -36l-28 -35q-16 17 -39 28t-51 11
q-27 0 -50 -9.5t-39.5 -27t-25.5 -40.5t-9 -50t9 -50t25.5 -40.5t39.5 -27t50 -9.5q28 0 51 11t39 28l28 -34q-20 -23 -51 -36.5t-67 -13.5z" />
    <glyph glyph-name="guillemotleft" unicode="&#xab;" horiz-adv-x="493" 
d="M245 250l150 218l42 -29l-130 -189l130 -189l-42 -29zM48 250l150 218l42 -29l-130 -189l130 -189l-42 -29z" />
    <glyph glyph-name="uni00AD" unicode="&#xad;" horiz-adv-x="377" 
d="M70 302h236v-60h-236v60z" />
    <glyph glyph-name="macron" unicode="&#xaf;" 
d="M-143 679h286v-45h-286v45z" />
    <glyph glyph-name="degree" unicode="&#xb0;" horiz-adv-x="341" 
d="M171 470q-25 0 -47.5 9.5t-39 26t-26 39t-9.5 47.5t9.5 47.5t26 39t39 26t47.5 9.5t47.5 -9.5t39 -26t26 -39t9.5 -47.5t-9.5 -47.5t-26 -39t-39 -26t-47.5 -9.5zM171 509q34 0 58 24.5t24 58.5t-24 58t-58 24t-58.5 -24t-24.5 -58t24.5 -58.5t58.5 -24.5z" />
    <glyph glyph-name="acute" unicode="&#xb4;" 
d="M108.993 710h-70.9951l-94.9941 -160h48.9961z" />
    <glyph glyph-name="periodcentered" unicode="&#xb7;" horiz-adv-x="244" 
d="M122 198q-25 0 -42 18t-17 41q0 25 17 43t42 18t42 -18t17 -43q0 -23 -17 -41t-42 -18z" />
    <glyph glyph-name="cedilla" unicode="&#xb8;" 
d="M13 0h43l-78 -165h-65z" />
    <glyph glyph-name="guillemotright" unicode="&#xbb;" horiz-adv-x="493" 
d="M253 61l130 189l-130 189l42 29l150 -218l-150 -218zM56 61l130 189l-130 189l42 29l150 -218l-150 -218z" />
    <glyph glyph-name="questiondown" unicode="&#xbf;" horiz-adv-x="456" 
d="M209 395q-14 8 -23 22.5t-9 31.5q0 23 17 41t42 18t42 -18t17 -41q0 -17 -9 -31.5t-23 -22.5h-54zM229 -194q-42 0 -79.5 16t-65.5 43.5t-44.5 65t-16.5 81.5q0 43 16.5 81t45.5 65.5t68.5 43.5t86.5 16h53v-55h-55q-35 0 -64 -11t-50 -31.5t-32.5 -48t-11.5 -60.5
t11.5 -61t31 -48.5t46.5 -32t59 -11.5t59 11.5t47 32t31 48.5t11 61h59q0 -44 -16 -81.5t-44 -65t-65.5 -43.5t-80.5 -16z" />
    <glyph glyph-name="Agrave" unicode="&#xc0;" horiz-adv-x="675" 
d="M349 718l340 -718h-64l-100 213h-351l-100 -213h-65zM499 269l-149 318l-150 -318h299zM197 913h71l92 -145h-51z" />
    <glyph glyph-name="Aacute" unicode="&#xc1;" horiz-adv-x="675" 
d="M349 718l340 -718h-64l-100 213h-351l-100 -213h-65zM499 269l-149 318l-150 -318h299zM475.971 913h-70.9951l-91.9951 -145h50.9971z" />
    <glyph glyph-name="Acircumflex" unicode="&#xc2;" horiz-adv-x="675" 
d="M349 718l340 -718h-64l-100 213h-351l-100 -213h-65zM499 269l-149 318l-150 -318h299zM169 810l169 117l169 -117l-25 -40l-144 103l-144 -103z" />
    <glyph glyph-name="Atilde" unicode="&#xc3;" horiz-adv-x="675" 
d="M349 718l340 -718h-64l-100 213h-351l-100 -213h-65zM499 269l-149 318l-150 -318h299zM173 807q8 42 34 65t58 23q22 0 41 -9t36 -19.5t32.5 -19t31.5 -8.5q24 0 36.5 14.5t17.5 41.5h45l-2 -15q-8 -40 -33 -64t-60 -24q-22 0 -40.5 8.5t-35 19t-33 19.5t-33.5 9
q-23 0 -35 -14.5t-17 -41.5h-46z" />
    <glyph glyph-name="Adieresis" unicode="&#xc4;" horiz-adv-x="675" 
d="M349 718l340 -718h-64l-100 213h-351l-100 -213h-65zM499 269l-149 318l-150 -318h299zM448 791q-22 0 -37 15t-15 37t15 37t37 15t37 -15t15 -37t-15 -37t-37 -15zM228 791q-22 0 -37 15t-15 37t15 37t37 15t37 -15t15 -37t-15 -37t-37 -15z" />
    <glyph glyph-name="Aring" unicode="&#xc5;" horiz-adv-x="675" 
d="M349 718l340 -718h-64l-100 213h-351l-100 -213h-65zM499 269l-149 318l-150 -318h299zM338 753q-38 0 -64.5 25.5t-26.5 62.5q0 38 26.5 63t64.5 25t64.5 -25t26.5 -63q0 -37 -26.5 -62.5t-64.5 -25.5zM338 787q23 0 38.5 15.5t15.5 38.5t-15.5 38.5t-38.5 15.5
t-38.5 -15.5t-15.5 -38.5t15.5 -38.5t38.5 -15.5z" />
    <glyph glyph-name="AE" unicode="&#xc6;" horiz-adv-x="1023" 
d="M6 0l309 653l-27 57h396l28 -58h-334l122 -258h286l28 -59h-287l130 -277h335l28 -58h-399l-100 213h-350l-100 -213h-65zM495 269l-149 319l-149 -319h298z" />
    <glyph glyph-name="Ccedilla" unicode="&#xc7;" horiz-adv-x="723" 
d="M403 -8q-76 0 -142 27.5t-115 76.5t-77 115.5t-28 143.5t28 143.5t77 115t115 76.5t142 28q45 0 86 -9.5t77 -27t65 -40.5t49 -50l-43 -38q-38 49 -98.5 78.5t-135.5 29.5q-63 0 -118 -23t-95.5 -64t-63.5 -97t-23 -122q0 -65 23 -121t63.5 -97t95.5 -64t118 -23
q75 0 135.5 29.5t98.5 78.5l43 -38q-20 -27 -49 -50.5t-65 -40.5t-77 -27t-86 -10zM413 0h43l-78 -165h-65z" />
    <glyph glyph-name="Egrave" unicode="&#xc8;" horiz-adv-x="552" 
d="M92 710h401v-58h-341v-258h281v-59h-281v-277h341v-58h-401v710zM170 913h71l92 -145h-51z" />
    <glyph glyph-name="Eacute" unicode="&#xc9;" horiz-adv-x="552" 
d="M92 710h401v-58h-341v-258h281v-59h-281v-277h341v-58h-401v710zM448.973 913h-70.9961l-91.9941 -145h50.9971z" />
    <glyph glyph-name="Ecircumflex" unicode="&#xca;" horiz-adv-x="552" 
d="M92 710h401v-58h-341v-258h281v-59h-281v-277h341v-58h-401v710zM142 810l169 117l169 -117l-25 -40l-144 103l-144 -103z" />
    <glyph glyph-name="Edieresis" unicode="&#xcb;" horiz-adv-x="552" 
d="M92 710h401v-58h-341v-258h281v-59h-281v-277h341v-58h-401v710zM421 791q-22 0 -37 15t-15 37t15 37t37 15t37 -15t15 -37t-15 -37t-37 -15zM201 791q-22 0 -37 15t-15 37t15 37t37 15t37 -15t15 -37t-15 -37t-37 -15z" />
    <glyph glyph-name="Igrave" unicode="&#xcc;" horiz-adv-x="265" 
d="M103 710h60v-710h-60v710zM-8 913h71l92 -145h-51z" />
    <glyph glyph-name="Iacute" unicode="&#xcd;" horiz-adv-x="265" 
d="M103 710h60v-710h-60v710zM270.983 913h-70.9951l-91.9951 -145h50.9971z" />
    <glyph glyph-name="Icircumflex" unicode="&#xce;" horiz-adv-x="265" 
d="M103 710h60v-710h-60v710zM-37 810l169 117l169 -117l-25 -40l-144 103l-144 -103z" />
    <glyph glyph-name="Idieresis" unicode="&#xcf;" horiz-adv-x="265" 
d="M103 710h60v-710h-60v710zM242 791q-22 0 -37 15t-15 37t15 37t37 15t37 -15t15 -37t-15 -37t-37 -15zM22 791q-22 0 -37 15t-15 37t15 37t37 15t37 -15t15 -37t-15 -37t-37 -15z" />
    <glyph glyph-name="Eth" unicode="&#xd0;" horiz-adv-x="764" 
d="M127 710h205q84 0 154 -27t120.5 -74.5t78.5 -113t28 -141.5q0 -77 -28 -141.5t-78.5 -112t-120.5 -74t-154 -26.5h-205v710zM331 56q72 0 131.5 22.5t101.5 62.5t65 94.5t23 119.5q0 64 -23 119t-65 95t-101.5 62.5t-131.5 22.5h-144v-598h144zM6 386h333v-51h-333v51z
" />
    <glyph glyph-name="Ntilde" unicode="&#xd1;" horiz-adv-x="789" 
d="M163 574v-574h-60v718l523 -582v574h60v-718zM231 807q8 42 34 65t58 23q22 0 41 -9t36 -19.5t32.5 -19t31.5 -8.5q24 0 36.5 14.5t17.5 41.5h45l-2 -15q-8 -40 -33 -64t-60 -24q-22 0 -40.5 8.5t-35 19t-33 19.5t-33.5 9q-23 0 -35 -14.5t-17 -41.5h-46z" />
    <glyph glyph-name="Ograve" unicode="&#xd2;" horiz-adv-x="827" 
d="M404 -8q-77 0 -143 27.5t-115 76.5t-77 115.5t-28 143.5t28 143.5t77 115t115 76.5t143 28q76 0 142.5 -28t115.5 -76.5t77 -115t28 -143.5t-28 -143.5t-77 -115.5t-115.5 -76.5t-142.5 -27.5zM404 51q64 0 119 23.5t95 64t62.5 96t22.5 120.5q0 64 -22.5 120t-62.5 96.5
t-95 64t-119 23.5t-119 -23.5t-95 -64t-62.5 -96.5t-22.5 -120q0 -65 22.5 -120.5t62.5 -96t95 -64t119 -23.5zM273 913h71l92 -145h-51z" />
    <glyph glyph-name="Oacute" unicode="&#xd3;" horiz-adv-x="827" 
d="M404 -8q-77 0 -143 27.5t-115 76.5t-77 115.5t-28 143.5t28 143.5t77 115t115 76.5t143 28q76 0 142.5 -28t115.5 -76.5t77 -115t28 -143.5t-28 -143.5t-77 -115.5t-115.5 -76.5t-142.5 -27.5zM404 51q64 0 119 23.5t95 64t62.5 96t22.5 120.5q0 64 -22.5 120t-62.5 96.5
t-95 64t-119 23.5t-119 -23.5t-95 -64t-62.5 -96.5t-22.5 -120q0 -65 22.5 -120.5t62.5 -96t95 -64t119 -23.5zM551.967 913h-70.9961l-91.9941 -145h50.9961z" />
    <glyph glyph-name="Ocircumflex" unicode="&#xd4;" horiz-adv-x="827" 
d="M404 -8q-77 0 -143 27.5t-115 76.5t-77 115.5t-28 143.5t28 143.5t77 115t115 76.5t143 28q76 0 142.5 -28t115.5 -76.5t77 -115t28 -143.5t-28 -143.5t-77 -115.5t-115.5 -76.5t-142.5 -27.5zM404 51q64 0 119 23.5t95 64t62.5 96t22.5 120.5q0 64 -22.5 120t-62.5 96.5
t-95 64t-119 23.5t-119 -23.5t-95 -64t-62.5 -96.5t-22.5 -120q0 -65 22.5 -120.5t62.5 -96t95 -64t119 -23.5zM245 810l169 117l169 -117l-25 -40l-144 103l-144 -103z" />
    <glyph glyph-name="Otilde" unicode="&#xd5;" horiz-adv-x="827" 
d="M404 -8q-77 0 -143 27.5t-115 76.5t-77 115.5t-28 143.5t28 143.5t77 115t115 76.5t143 28q76 0 142.5 -28t115.5 -76.5t77 -115t28 -143.5t-28 -143.5t-77 -115.5t-115.5 -76.5t-142.5 -27.5zM404 51q64 0 119 23.5t95 64t62.5 96t22.5 120.5q0 64 -22.5 120t-62.5 96.5
t-95 64t-119 23.5t-119 -23.5t-95 -64t-62.5 -96.5t-22.5 -120q0 -65 22.5 -120.5t62.5 -96t95 -64t119 -23.5zM249 806q8 42 34 65t58 23q22 0 41 -9t36 -19.5t32.5 -19t31.5 -8.5q24 0 36.5 14.5t17.5 41.5h45l-2 -15q-8 -40 -33 -64t-60 -24q-22 0 -40.5 8.5t-35 19
t-33 19.5t-33.5 9q-23 0 -35 -14.5t-17 -41.5h-46z" />
    <glyph glyph-name="Odieresis" unicode="&#xd6;" horiz-adv-x="827" 
d="M404 -8q-77 0 -143 27.5t-115 76.5t-77 115.5t-28 143.5t28 143.5t77 115t115 76.5t143 28q76 0 142.5 -28t115.5 -76.5t77 -115t28 -143.5t-28 -143.5t-77 -115.5t-115.5 -76.5t-142.5 -27.5zM404 51q64 0 119 23.5t95 64t62.5 96t22.5 120.5q0 64 -22.5 120t-62.5 96.5
t-95 64t-119 23.5t-119 -23.5t-95 -64t-62.5 -96.5t-22.5 -120q0 -65 22.5 -120.5t62.5 -96t95 -64t119 -23.5zM524 790q-22 0 -37 15t-15 37t15 37t37 15t37 -15t15 -37t-15 -37t-37 -15zM304 790q-22 0 -37 15t-15 37t15 37t37 15t37 -15t15 -37t-15 -37t-37 -15z" />
    <glyph glyph-name="multiply" unicode="&#xd7;" horiz-adv-x="590" 
d="M114 122l147 147l-149 149l34 34l149 -149l145 144l34 -33l-145 -145l149 -149l-34 -34l-149 149l-147 -147z" />
    <glyph glyph-name="Oslash" unicode="&#xd8;" horiz-adv-x="828" 
d="M95 -26l75 100q-12 10 -23 22q-49 49 -77 115.5t-28 143.5t28 143.5t77 115t115 76.5t143 28q76 0 142 -28q34 -14 63 -34l84 112l39 -31l-84 -111q7 -6 14 -13q49 -48 77 -114.5t28 -143.5t-28 -143.5t-77 -115.5t-115.5 -76.5t-142.5 -27.5q-77 0 -143 27
q-27 11 -51 26l-77 -102zM524 635q-55 24 -119 24t-119 -23.5t-95 -64t-62.5 -96.5t-22.5 -120q0 -65 22.5 -120.5t62.5 -96.5q8 -8 16 -15l367 485q-23 16 -50 27zM405 51q64 0 119 23.5t95 64t62.5 96t22.5 120.5q0 64 -22.5 120t-62.5 96l-6 6l-365 -484q18 -10 38 -19
q55 -23 119 -23z" />
    <glyph glyph-name="Ugrave" unicode="&#xd9;" horiz-adv-x="732" 
d="M366 -8q-62 0 -112.5 18.5t-86 53.5t-55 86t-19.5 116v444h60v-447q0 -107 58 -160t155 -53t155 53t58 160v447h60v-444q0 -65 -19.5 -116t-55 -86t-86 -53.5t-112.5 -18.5zM224 913h71l92 -145h-51z" />
    <glyph glyph-name="Uacute" unicode="&#xda;" horiz-adv-x="732" 
d="M366 -8q-62 0 -112.5 18.5t-86 53.5t-55 86t-19.5 116v444h60v-447q0 -107 58 -160t155 -53t155 53t58 160v447h60v-444q0 -65 -19.5 -116t-55 -86t-86 -53.5t-112.5 -18.5zM502.97 913h-70.9961l-91.9941 -145h50.9971z" />
    <glyph glyph-name="Ucircumflex" unicode="&#xdb;" horiz-adv-x="732" 
d="M366 -8q-62 0 -112.5 18.5t-86 53.5t-55 86t-19.5 116v444h60v-447q0 -107 58 -160t155 -53t155 53t58 160v447h60v-444q0 -65 -19.5 -116t-55 -86t-86 -53.5t-112.5 -18.5zM196 810l169 117l169 -117l-25 -40l-144 103l-144 -103z" />
    <glyph glyph-name="Udieresis" unicode="&#xdc;" horiz-adv-x="732" 
d="M366 -8q-62 0 -112.5 18.5t-86 53.5t-55 86t-19.5 116v444h60v-447q0 -107 58 -160t155 -53t155 53t58 160v447h60v-444q0 -65 -19.5 -116t-55 -86t-86 -53.5t-112.5 -18.5zM475 791q-22 0 -37 15t-15 37t15 37t37 15t37 -15t15 -37t-15 -37t-37 -15zM255 791
q-22 0 -37 15t-15 37t15 37t37 15t37 -15t15 -37t-15 -37t-37 -15z" />
    <glyph glyph-name="Yacute" unicode="&#xdd;" horiz-adv-x="606" 
d="M273 301l-260 409h70l220 -349l220 349h70l-260 -409v-301h-60v301zM441.973 913h-70.9951l-91.9941 -145h50.9961z" />
    <glyph glyph-name="Thorn" unicode="&#xde;" horiz-adv-x="577" 
d="M103 710h60v-146h134q56 0 100 -15.5t74 -42.5t46 -64.5t16 -81.5q0 -45 -16 -83t-46 -65t-74 -42.5t-100 -15.5h-134v-154h-60v710zM163 508v-298h135q86 0 130 41t44 109q0 66 -44 107t-130 41h-135z" />
    <glyph glyph-name="germandbls" unicode="&#xdf;" horiz-adv-x="536" 
d="M442 51q0 39 -14 72t-40 57t-62.5 38t-80.5 14v46l120 169h-226v-447h-58v569q0 141 142 141h34v-53h-26q-54 0 -73 -24.5t-19 -77.5v-55h328l-159 -225q45 -9 80.5 -29.5t60 -49.5t37.5 -66t13 -79q0 -50 -18.5 -93t-52 -74.5t-80.5 -49.5t-103 -18v55q44 0 80.5 13.5
t62.5 37.5t40 57t14 72z" />
    <glyph glyph-name="agrave" unicode="&#xe0;" horiz-adv-x="618" 
d="M480 64q-33 -35 -78 -53.5t-99 -18.5q-56 0 -103.5 20t-81.5 55t-53 82t-19 101t19 101t53 82t81.5 55t103.5 20q53 0 98.5 -18.5t78.5 -53.5v64h57v-500h-57v64zM304 46q58 0 104 25t72 64v229q-26 40 -72 65t-104 25q-44 0 -80.5 -16t-62.5 -43.5t-41 -64.5t-15 -80
t15 -80t41 -64.5t62.5 -43.5t80.5 -16zM180 710h71l95 -160h-49z" />
    <glyph glyph-name="aacute" unicode="&#xe1;" horiz-adv-x="618" 
d="M480 64q-33 -35 -78 -53.5t-99 -18.5q-56 0 -103.5 20t-81.5 55t-53 82t-19 101t19 101t53 82t81.5 55t103.5 20q53 0 98.5 -18.5t78.5 -53.5v64h57v-500h-57v64zM304 46q58 0 104 25t72 64v229q-26 40 -72 65t-104 25q-44 0 -80.5 -16t-62.5 -43.5t-41 -64.5t-15 -80
t15 -80t41 -64.5t62.5 -43.5t80.5 -16zM452.973 710h-70.9961l-94.9941 -160h48.9971z" />
    <glyph glyph-name="acircumflex" unicode="&#xe2;" horiz-adv-x="618" 
d="M480 64q-33 -35 -78 -53.5t-99 -18.5q-56 0 -103.5 20t-81.5 55t-53 82t-19 101t19 101t53 82t81.5 55t103.5 20q53 0 98.5 -18.5t78.5 -53.5v64h57v-500h-57v64zM304 46q58 0 104 25t72 64v229q-26 40 -72 65t-104 25q-44 0 -80.5 -16t-62.5 -43.5t-41 -64.5t-15 -80
t15 -80t41 -64.5t62.5 -43.5t80.5 -16zM470 596l-27 -37l-129 103l-129 -103l-27 37l156 122z" />
    <glyph glyph-name="atilde" unicode="&#xe3;" horiz-adv-x="618" 
d="M480 64q-33 -35 -78 -53.5t-99 -18.5q-56 0 -103.5 20t-81.5 55t-53 82t-19 101t19 101t53 82t81.5 55t103.5 20q53 0 98.5 -18.5t78.5 -53.5v64h57v-500h-57v64zM304 46q58 0 104 25t72 64v229q-26 40 -72 65t-104 25q-44 0 -80.5 -16t-62.5 -43.5t-41 -64.5t-15 -80
t15 -80t41 -64.5t62.5 -43.5t80.5 -16zM150 588q8 42 34 65t58 23q22 0 41 -9t36 -19.5t32.5 -19t31.5 -8.5q24 0 36.5 14.5t17.5 41.5h45l-2 -15q-8 -40 -33 -64t-60 -24q-22 0 -40.5 8.5t-35 19t-33 19.5t-33.5 9q-23 0 -35 -14.5t-17 -41.5h-46z" />
    <glyph glyph-name="adieresis" unicode="&#xe4;" horiz-adv-x="618" 
d="M480 64q-33 -35 -78 -53.5t-99 -18.5q-56 0 -103.5 20t-81.5 55t-53 82t-19 101t19 101t53 82t81.5 55t103.5 20q53 0 98.5 -18.5t78.5 -53.5v64h57v-500h-57v64zM304 46q58 0 104 25t72 64v229q-26 40 -72 65t-104 25q-44 0 -80.5 -16t-62.5 -43.5t-41 -64.5t-15 -80
t15 -80t41 -64.5t62.5 -43.5t80.5 -16zM424 580q-22 0 -37 15t-15 37t15 37t37 15t37 -15t15 -37t-15 -37t-37 -15zM204 580q-22 0 -37 15t-15 37t15 37t37 15t37 -15t15 -37t-15 -37t-37 -15z" />
    <glyph glyph-name="aring" unicode="&#xe5;" horiz-adv-x="618" 
d="M480 64q-33 -35 -78 -53.5t-99 -18.5q-56 0 -103.5 20t-81.5 55t-53 82t-19 101t19 101t53 82t81.5 55t103.5 20q53 0 98.5 -18.5t78.5 -53.5v64h57v-500h-57v64zM304 46q58 0 104 25t72 64v229q-26 40 -72 65t-104 25q-44 0 -80.5 -16t-62.5 -43.5t-41 -64.5t-15 -80
t15 -80t41 -64.5t62.5 -43.5t80.5 -16zM314 577q-38 0 -64.5 25.5t-26.5 62.5q0 38 26.5 63t64.5 25t64.5 -25t26.5 -63q0 -37 -26.5 -62.5t-64.5 -25.5zM314 611q23 0 38.5 15.5t15.5 38.5t-15.5 38.5t-38.5 15.5t-38.5 -15.5t-15.5 -38.5t15.5 -38.5t38.5 -15.5z" />
    <glyph glyph-name="ae" unicode="&#xe6;" horiz-adv-x="943" 
d="M872 71q-33 -34 -84 -56.5t-114 -22.5q-66 0 -122 28t-93 83q-45 -59 -101.5 -85t-122.5 -26q-91 0 -143.5 44.5t-52.5 119.5q0 36 14.5 65.5t40.5 51.5t62.5 34t81.5 12q55 0 99.5 -13.5t77.5 -36.5v44q0 39 -12.5 66t-34 43.5t-50 24t-61.5 7.5q-50 0 -90.5 -17
t-66.5 -43l-29 47q32 27 79 47t107 20q30 0 61 -6.5t57.5 -21t47 -38.5t30.5 -59q34 61 91 93t122 32q49 0 92 -17t75.5 -50t51.5 -83t20 -116h-431q2 -44 18 -80t43 -61.5t62.5 -40t76.5 -14.5q51 0 92.5 19t68.5 47zM663 455q-32 0 -63 -11t-56 -31.5t-43 -51t-24 -69.5
h364q-8 80 -57.5 121.5t-120.5 41.5zM237 46q64 0 112 26.5t77 72.5q-2 4 -3.5 13.5t-3 20t-2.5 19.5t-1 14q-32 27 -75.5 42t-97.5 15q-64 0 -104.5 -29.5t-40.5 -83.5t39.5 -82t99.5 -28z" />
    <glyph glyph-name="ccedilla" unicode="&#xe7;" horiz-adv-x="524" 
d="M304 -8q-56 0 -103.5 20t-82 55t-53.5 82t-19 101t19 101t53.5 82t82 55t103.5 20q60 0 107.5 -21.5t81.5 -55.5l-38 -41q-27 28 -65 46t-86 18q-44 0 -80.5 -16t-62.5 -43.5t-41 -64.5t-15 -80t15 -80t41 -64.5t62.5 -43.5t80.5 -16q48 0 86 18t65 45l37 -40
q-33 -35 -80.5 -56t-107.5 -21zM291 0h43l-78 -165h-65z" />
    <glyph glyph-name="egrave" unicode="&#xe8;" horiz-adv-x="573" 
d="M304 -8q-56 0 -103.5 20t-82 55t-53.5 82t-19 101t19 101t52.5 82t79 55t99.5 20t98 -19t75.5 -54t48.5 -84t17 -109h-430q1 -43 17 -79t43 -62t62.5 -40.5t76.5 -14.5q51 0 92.5 19t68.5 47l37 -41q-33 -34 -84 -56.5t-114 -22.5zM293 455q-33 0 -64 -11t-55.5 -31.5
t-42 -51t-23.5 -69.5h363q-8 80 -57.5 121.5t-120.5 41.5zM163 710h71l95 -160h-49z" />
    <glyph glyph-name="eacute" unicode="&#xe9;" horiz-adv-x="573" 
d="M304 -8q-56 0 -103.5 20t-82 55t-53.5 82t-19 101t19 101t52.5 82t79 55t99.5 20t98 -19t75.5 -54t48.5 -84t17 -109h-430q1 -43 17 -79t43 -62t62.5 -40.5t76.5 -14.5q51 0 92.5 19t68.5 47l37 -41q-33 -34 -84 -56.5t-114 -22.5zM293 455q-33 0 -64 -11t-55.5 -31.5
t-42 -51t-23.5 -69.5h363q-8 80 -57.5 121.5t-120.5 41.5zM435.974 710h-70.9961l-94.9941 -160h48.9971z" />
    <glyph glyph-name="ecircumflex" unicode="&#xea;" horiz-adv-x="573" 
d="M304 -8q-56 0 -103.5 20t-82 55t-53.5 82t-19 101t19 101t52.5 82t79 55t99.5 20t98 -19t75.5 -54t48.5 -84t17 -109h-430q1 -43 17 -79t43 -62t62.5 -40.5t76.5 -14.5q51 0 92.5 19t68.5 47l37 -41q-33 -34 -84 -56.5t-114 -22.5zM293 455q-33 0 -64 -11t-55.5 -31.5
t-42 -51t-23.5 -69.5h363q-8 80 -57.5 121.5t-120.5 41.5zM453 596l-27 -37l-129 103l-129 -103l-27 37l156 122z" />
    <glyph glyph-name="edieresis" unicode="&#xeb;" horiz-adv-x="573" 
d="M304 -8q-56 0 -103.5 20t-82 55t-53.5 82t-19 101t19 101t52.5 82t79 55t99.5 20t98 -19t75.5 -54t48.5 -84t17 -109h-430q1 -43 17 -79t43 -62t62.5 -40.5t76.5 -14.5q51 0 92.5 19t68.5 47l37 -41q-33 -34 -84 -56.5t-114 -22.5zM293 455q-33 0 -64 -11t-55.5 -31.5
t-42 -51t-23.5 -69.5h363q-8 80 -57.5 121.5t-120.5 41.5zM407 580q-22 0 -37 15t-15 37t15 37t37 15t37 -15t15 -37t-15 -37t-37 -15zM187 580q-22 0 -37 15t-15 37t15 37t37 15t37 -15t15 -37t-15 -37t-37 -15z" />
    <glyph glyph-name="igrave" unicode="&#xec;" horiz-adv-x="220" 
d="M81 500h58v-500h-58v500zM-24 710h71l95 -160h-49z" />
    <glyph glyph-name="iacute" unicode="&#xed;" horiz-adv-x="220" 
d="M81 500h58v-500h-58v500zM248.984 710h-70.9951l-94.9941 -160h48.9971z" />
    <glyph glyph-name="icircumflex" unicode="&#xee;" horiz-adv-x="220" 
d="M81 500h58v-500h-58v500zM266 596l-27 -37l-129 103l-129 -103l-27 37l156 122z" />
    <glyph glyph-name="idieresis" unicode="&#xef;" horiz-adv-x="220" 
d="M81 500h58v-500h-58v500zM0 580q-22 0 -37 15t-15 37t15 37t37 15t37 -15t15 -37t-15 -37t-37 -15zM220 580q-22 0 -37 15t-15 37t15 37t37 15t37 -15t15 -37t-15 -37t-37 -15z" />
    <glyph glyph-name="eth" unicode="&#xf0;" horiz-adv-x="610" 
d="M190 628h105l-58 82h64l57 -82h130v-45h-98l123 -176q27 -40 39 -78t12 -79q0 -53 -19.5 -100t-54 -82t-82 -55.5t-104.5 -20.5t-104.5 20.5t-82 55.5t-53.5 82t-19 100q0 52 19 99t52.5 82t80.5 55.5t103 21.5q20 0 42 -4t51 -16l-67 95h-136v45zM304 45q45 0 82 16
t63.5 43.5t41 65t14.5 80.5t-14.5 80t-41 65t-63.5 44t-82 16q-44 0 -81 -16t-63.5 -44t-41.5 -65t-15 -80t15 -80.5t41.5 -65t63.5 -43.5t81 -16z" />
    <glyph glyph-name="ntilde" unicode="&#xf1;" horiz-adv-x="579" 
d="M81 500h58v-78q26 42 70.5 64t98.5 22q92 0 144 -55t52 -148v-305h-57v300q0 69 -39.5 111.5t-110.5 42.5q-61 0 -101.5 -33t-56.5 -87v-334h-58v500zM140 588q8 42 34 65t58 23q22 0 41 -9t36 -19.5t32.5 -19t31.5 -8.5q24 0 36.5 14.5t17.5 41.5h45l-2 -15
q-8 -40 -33 -64t-60 -24q-22 0 -40.5 8.5t-35 19t-33 19.5t-33.5 9q-23 0 -35 -14.5t-17 -41.5h-46z" />
    <glyph glyph-name="ograve" unicode="&#xf2;" horiz-adv-x="610" 
d="M305 -8q-57 0 -104.5 20t-82 55t-53.5 82t-19 101t19 101t53.5 82t82 55t104.5 20t104.5 -20t82 -55t53.5 -82t19 -101t-19 -101t-53.5 -82t-82 -55t-104.5 -20zM305 46q44 0 81 16t63.5 43.5t41 64.5t14.5 80t-14.5 80t-41 64.5t-63.5 43.5t-81 16t-81 -16t-63.5 -43.5
t-41 -64.5t-14.5 -80t14.5 -80t41 -64.5t63.5 -43.5t81 -16zM172 710h71l95 -160h-49z" />
    <glyph glyph-name="oacute" unicode="&#xf3;" horiz-adv-x="610" 
d="M305 -8q-57 0 -104.5 20t-82 55t-53.5 82t-19 101t19 101t53.5 82t82 55t104.5 20t104.5 -20t82 -55t53.5 -82t19 -101t-19 -101t-53.5 -82t-82 -55t-104.5 -20zM305 46q44 0 81 16t63.5 43.5t41 64.5t14.5 80t-14.5 80t-41 64.5t-63.5 43.5t-81 16t-81 -16t-63.5 -43.5
t-41 -64.5t-14.5 -80t14.5 -80t41 -64.5t63.5 -43.5t81 -16zM444.973 710h-70.9951l-94.9941 -160h48.9971z" />
    <glyph glyph-name="ocircumflex" unicode="&#xf4;" horiz-adv-x="610" 
d="M305 -8q-57 0 -104.5 20t-82 55t-53.5 82t-19 101t19 101t53.5 82t82 55t104.5 20t104.5 -20t82 -55t53.5 -82t19 -101t-19 -101t-53.5 -82t-82 -55t-104.5 -20zM305 46q44 0 81 16t63.5 43.5t41 64.5t14.5 80t-14.5 80t-41 64.5t-63.5 43.5t-81 16t-81 -16t-63.5 -43.5
t-41 -64.5t-14.5 -80t14.5 -80t41 -64.5t63.5 -43.5t81 -16zM461 596l-27 -37l-129 103l-129 -103l-27 37l156 122z" />
    <glyph glyph-name="otilde" unicode="&#xf5;" horiz-adv-x="610" 
d="M305 -8q-57 0 -104.5 20t-82 55t-53.5 82t-19 101t19 101t53.5 82t82 55t104.5 20t104.5 -20t82 -55t53.5 -82t19 -101t-19 -101t-53.5 -82t-82 -55t-104.5 -20zM305 46q44 0 81 16t63.5 43.5t41 64.5t14.5 80t-14.5 80t-41 64.5t-63.5 43.5t-81 16t-81 -16t-63.5 -43.5
t-41 -64.5t-14.5 -80t14.5 -80t41 -64.5t63.5 -43.5t81 -16zM141 588q8 42 34 65t58 23q22 0 41 -9t36 -19.5t32.5 -19t31.5 -8.5q24 0 36.5 14.5t17.5 41.5h45l-2 -15q-8 -40 -33 -64t-60 -24q-22 0 -40.5 8.5t-35 19t-33 19.5t-33.5 9q-23 0 -35 -14.5t-17 -41.5h-46z" />
    <glyph glyph-name="odieresis" unicode="&#xf6;" horiz-adv-x="610" 
d="M305 -8q-57 0 -104.5 20t-82 55t-53.5 82t-19 101t19 101t53.5 82t82 55t104.5 20t104.5 -20t82 -55t53.5 -82t19 -101t-19 -101t-53.5 -82t-82 -55t-104.5 -20zM305 46q44 0 81 16t63.5 43.5t41 64.5t14.5 80t-14.5 80t-41 64.5t-63.5 43.5t-81 16t-81 -16t-63.5 -43.5
t-41 -64.5t-14.5 -80t14.5 -80t41 -64.5t63.5 -43.5t81 -16zM415 580q-22 0 -37 15t-15 37t15 37t37 15t37 -15t15 -37t-15 -37t-37 -15zM195 580q-22 0 -37 15t-15 37t15 37t37 15t37 -15t15 -37t-15 -37t-37 -15z" />
    <glyph glyph-name="divide" unicode="&#xf7;" horiz-adv-x="664" 
d="M332 350q-25 0 -42.5 17.5t-17.5 42.5t17.5 42.5t42.5 17.5q24 0 41.5 -17.5t17.5 -42.5t-17.5 -42.5t-41.5 -17.5zM112 298h440v-55h-440v55zM332 71q-25 0 -42.5 17.5t-17.5 42.5t17.5 42.5t42.5 17.5q24 0 41.5 -17.5t17.5 -42.5t-17.5 -42.5t-41.5 -17.5z" />
    <glyph glyph-name="oslash" unicode="&#xf8;" horiz-adv-x="612" 
d="M55 -28l70 89l-6 6q-34 35 -53 82t-19 101t19 101t53.5 82t82 55t104.5 20t104 -20q21 -9 38 -20l74 93l37 -30l-73 -92l6 -6q35 -35 54 -82t19 -101t-19 -101t-53.5 -82t-82 -55t-104.5 -20t-105 20q-20 8 -38 19l-71 -89zM306 46q44 0 81 16t63.5 43.5t41 64.5t14.5 80
t-14.5 80t-41.5 64l-252 -319q13 -7 27 -13q37 -16 81 -16zM387 438q-37 16 -81 16t-81 -16t-63.5 -43.5t-41 -64.5t-14.5 -80t14.5 -80t40.5 -64l252 318q-12 8 -26 14z" />
    <glyph glyph-name="ugrave" unicode="&#xf9;" horiz-adv-x="579" 
d="M440 78q-27 -42 -71 -64t-98 -22q-92 0 -144 55t-52 148v305h57v-300q0 -69 39.5 -111.5t109.5 -42.5q61 0 101.5 32t57.5 85v337h57v-500h-57v78zM153 710h71l95 -160h-49z" />
    <glyph glyph-name="uacute" unicode="&#xfa;" horiz-adv-x="579" 
d="M440 78q-27 -42 -71 -64t-98 -22q-92 0 -144 55t-52 148v305h57v-300q0 -69 39.5 -111.5t109.5 -42.5q61 0 101.5 32t57.5 85v337h57v-500h-57v78zM425.974 710h-70.9951l-94.9941 -160h48.9971z" />
    <glyph glyph-name="ucircumflex" unicode="&#xfb;" horiz-adv-x="579" 
d="M440 78q-27 -42 -71 -64t-98 -22q-92 0 -144 55t-52 148v305h57v-300q0 -69 39.5 -111.5t109.5 -42.5q61 0 101.5 32t57.5 85v337h57v-500h-57v78zM443 596l-27 -37l-129 103l-129 -103l-27 37l156 122z" />
    <glyph glyph-name="udieresis" unicode="&#xfc;" horiz-adv-x="579" 
d="M440 78q-27 -42 -71 -64t-98 -22q-92 0 -144 55t-52 148v305h57v-300q0 -69 39.5 -111.5t109.5 -42.5q61 0 101.5 32t57.5 85v337h57v-500h-57v78zM397 580q-22 0 -37 15t-15 37t15 37t37 15t37 -15t15 -37t-15 -37t-37 -15zM177 580q-22 0 -37 15t-15 37t15 37t37 15
t37 -15t15 -37t-15 -37t-37 -15z" />
    <glyph glyph-name="yacute" unicode="&#xfd;" horiz-adv-x="511" 
d="M226 27l-218 473h62l186 -410l188 410h62l-318 -684h-62zM396.976 710h-70.9951l-94.9941 -160h48.9961z" />
    <glyph glyph-name="thorn" unicode="&#xfe;" horiz-adv-x="618" 
d="M81 -184v894h58v-274q32 35 77.5 53.5t99.5 18.5q56 0 103 -20t81 -55t53 -82t19 -101t-19 -101t-53 -82t-81 -55t-103 -20q-54 0 -99.5 18.5t-77.5 53.5v-248h-58zM315 454q-59 0 -104.5 -25t-71.5 -65v-229q26 -40 72 -64.5t104 -24.5q43 0 79.5 16t62.5 43.5t41 64.5
t15 80t-15 80t-41 64.5t-62.5 43.5t-79.5 16z" />
    <glyph glyph-name="ydieresis" unicode="&#xff;" horiz-adv-x="511" 
d="M226 27l-218 473h62l186 -410l188 410h62l-318 -684h-62zM368 580q-22 0 -37 15t-15 37t15 37t37 15t37 -15t15 -37t-15 -37t-37 -15zM148 580q-22 0 -37 15t-15 37t15 37t37 15t37 -15t15 -37t-15 -37t-37 -15z" />
    <glyph glyph-name="Abreve" unicode="&#x102;" horiz-adv-x="675" 
d="M349 718l340 -718h-64l-100 213h-351l-100 -213h-65zM499 269l-149 318l-150 -318h299zM338 776q-68 0 -106 36.5t-42 93.5h44q5 -42 31.5 -65.5t72.5 -23.5q47 0 73.5 23.5t31.5 65.5h44q-4 -57 -42 -93.5t-107 -36.5z" />
    <glyph glyph-name="Amacron" unicode="&#x100;" horiz-adv-x="675" 
d="M349 718l340 -718h-64l-100 213h-351l-100 -213h-65zM499 269l-149 318l-150 -318h299zM195 860h286v-45h-286v45z" />
    <glyph glyph-name="Aogonek" unicode="&#x104;" horiz-adv-x="675" 
d="M349 718l340 -718q-38 -16 -61.5 -41.5t-23.5 -54.5q0 -26 16.5 -38.5t40.5 -12.5q12 0 22.5 3t16.5 7v-42q-12 -8 -27.5 -10.5t-29.5 -2.5q-19 0 -36.5 5.5t-31 16t-21.5 26t-8 36.5q0 18 7 35t18 31.5t25 25.5t28 18l-99 211h-351l-100 -213h-65zM499 269l-149 318
l-150 -318h299z" />
    <glyph glyph-name="Cacute" unicode="&#x106;" horiz-adv-x="723" 
d="M403 -8q-76 0 -142 27.5t-115 76.5t-77 115.5t-28 143.5t28 143.5t77 115t115 76.5t142 28q45 0 86 -9.5t77 -27t65 -40.5t49 -50l-43 -38q-38 49 -98.5 78.5t-135.5 29.5q-63 0 -118 -23t-95.5 -64t-63.5 -97t-23 -122q0 -65 23 -121t63.5 -97t95.5 -64t118 -23
q75 0 135.5 29.5t98.5 78.5l43 -38q-20 -27 -49 -50.5t-65 -40.5t-77 -27t-86 -10zM550.967 913h-70.9961l-91.9941 -145h50.9971z" />
    <glyph glyph-name="Ccaron" unicode="&#x10c;" horiz-adv-x="723" 
d="M403 -8q-76 0 -142 27.5t-115 76.5t-77 115.5t-28 143.5t28 143.5t77 115t115 76.5t142 28q45 0 86 -9.5t77 -27t65 -40.5t49 -50l-43 -38q-38 49 -98.5 78.5t-135.5 29.5q-63 0 -118 -23t-95.5 -64t-63.5 -97t-23 -122q0 -65 23 -121t63.5 -97t95.5 -64t118 -23
q75 0 135.5 29.5t98.5 78.5l43 -38q-20 -27 -49 -50.5t-65 -40.5t-77 -27t-86 -10zM580.965 886.946l-168.99 -116.993l-168.989 116.993l24.998 39.9971l143.991 -102.994l143.991 102.994z" />
    <glyph glyph-name="Ccircumflex" unicode="&#x108;" horiz-adv-x="723" 
d="M403 -8q-76 0 -142 27.5t-115 76.5t-77 115.5t-28 143.5t28 143.5t77 115t115 76.5t142 28q45 0 86 -9.5t77 -27t65 -40.5t49 -50l-43 -38q-38 49 -98.5 78.5t-135.5 29.5q-63 0 -118 -23t-95.5 -64t-63.5 -97t-23 -122q0 -65 23 -121t63.5 -97t95.5 -64t118 -23
q75 0 135.5 29.5t98.5 78.5l43 -38q-20 -27 -49 -50.5t-65 -40.5t-77 -27t-86 -10zM243 810l169 117l169 -117l-25 -40l-144 103l-144 -103z" />
    <glyph glyph-name="Cdotaccent" unicode="&#x10a;" horiz-adv-x="723" 
d="M403 -8q-76 0 -142 27.5t-115 76.5t-77 115.5t-28 143.5t28 143.5t77 115t115 76.5t142 28q45 0 86 -9.5t77 -27t65 -40.5t49 -50l-43 -38q-38 49 -98.5 78.5t-135.5 29.5q-63 0 -118 -23t-95.5 -64t-63.5 -97t-23 -122q0 -65 23 -121t63.5 -97t95.5 -64t118 -23
q75 0 135.5 29.5t98.5 78.5l43 -38q-20 -27 -49 -50.5t-65 -40.5t-77 -27t-86 -10zM412 791q-22 0 -37 15t-15 37t15 37t37 15t37 -15t15 -37t-15 -37t-37 -15z" />
    <glyph glyph-name="Dcaron" unicode="&#x10e;" horiz-adv-x="740" 
d="M103 710h205q84 0 154 -27t120.5 -74.5t78.5 -113t28 -141.5q0 -77 -28 -141.5t-78.5 -112t-120.5 -74t-154 -26.5h-205v710zM307 56q72 0 131.5 22.5t101.5 62.5t65 94.5t23 119.5q0 64 -23 119t-65 95t-101.5 62.5t-131.5 22.5h-144v-598h144zM506.969 886.946
l-168.989 -116.993l-168.99 116.993l24.999 39.9971l143.991 -102.994l143.991 102.994z" />
    <glyph glyph-name="Dcroat" unicode="&#x110;" horiz-adv-x="764" 
d="M127 710h205q84 0 154 -27t120.5 -74.5t78.5 -113t28 -141.5q0 -77 -28 -141.5t-78.5 -112t-120.5 -74t-154 -26.5h-205v710zM331 56q72 0 131.5 22.5t101.5 62.5t65 94.5t23 119.5q0 64 -23 119t-65 95t-101.5 62.5t-131.5 22.5h-144v-598h144zM6 386h333v-51h-333v51z
" />
    <glyph glyph-name="Ebreve" unicode="&#x114;" horiz-adv-x="552" 
d="M92 710h401v-58h-341v-258h281v-59h-281v-277h341v-58h-401v710zM311 776q-68 0 -106 36.5t-42 93.5h44q5 -42 31.5 -65.5t72.5 -23.5q47 0 73.5 23.5t31.5 65.5h44q-4 -57 -42 -93.5t-107 -36.5z" />
    <glyph glyph-name="Ecaron" unicode="&#x11a;" horiz-adv-x="552" 
d="M92 710h401v-58h-341v-258h281v-59h-281v-277h341v-58h-401v710zM479.971 886.946l-168.989 -116.993l-168.99 116.993l24.999 39.9971l143.991 -102.994l143.991 102.994z" />
    <glyph glyph-name="Emacron" unicode="&#x112;" horiz-adv-x="552" 
d="M92 710h401v-58h-341v-258h281v-59h-281v-277h341v-58h-401v710zM168 860h286v-45h-286v45z" />
    <glyph glyph-name="Eogonek" unicode="&#x118;" horiz-adv-x="552" 
d="M92 710h401v-58h-341v-258h281v-59h-281v-277h341v-58h-401v710zM458 -192q-19 0 -36.5 5.5t-31 16t-21.5 26t-8 36.5q0 19 7.5 36t19 31.5t26.5 25.5t30 18l59 -3q-37 -16 -60.5 -41.5t-23.5 -54.5q0 -26 16.5 -38.5t39.5 -12.5q13 0 23 3t16 7v-42q-11 -8 -26.5 -10.5
t-29.5 -2.5z" />
    <glyph glyph-name="Edotaccent" unicode="&#x116;" horiz-adv-x="552" 
d="M92 710h401v-58h-341v-258h281v-59h-281v-277h341v-58h-401v710zM311 791q-22 0 -37 15t-15 37t15 37t37 15t37 -15t15 -37t-15 -37t-37 -15z" />
    <glyph glyph-name="Gbreve" unicode="&#x11e;" horiz-adv-x="746" 
d="M402 -8q-77 0 -143 27.5t-115 76.5t-77 115.5t-28 143.5t28 143.5t76.5 115t114.5 76.5t143 28q41 0 79.5 -8.5t72 -23.5t62 -35.5t48.5 -44.5l-43 -39q-37 42 -93 67.5t-126 25.5q-64 0 -119 -23t-95.5 -64t-63.5 -97t-23 -121t23.5 -121t64 -97t95.5 -64t119 -23
q67 0 121.5 19t86.5 46v220h-235l26 59h269v-307q-17 -18 -44.5 -35t-62 -30.5t-75.5 -21.5t-86 -8zM401 776q-68 0 -106 36.5t-42 93.5h44q5 -42 31.5 -65.5t72.5 -23.5q47 0 73.5 23.5t31.5 65.5h44q-4 -57 -42 -93.5t-107 -36.5z" />
    <glyph glyph-name="Gcircumflex" unicode="&#x11c;" horiz-adv-x="746" 
d="M402 -8q-77 0 -143 27.5t-115 76.5t-77 115.5t-28 143.5t28 143.5t76.5 115t114.5 76.5t143 28q41 0 79.5 -8.5t72 -23.5t62 -35.5t48.5 -44.5l-43 -39q-37 42 -93 67.5t-126 25.5q-64 0 -119 -23t-95.5 -64t-63.5 -97t-23 -121t23.5 -121t64 -97t95.5 -64t119 -23
q67 0 121.5 19t86.5 46v220h-235l26 59h269v-307q-17 -18 -44.5 -35t-62 -30.5t-75.5 -21.5t-86 -8zM232 810l169 117l169 -117l-25 -40l-144 103l-144 -103z" />
    <glyph glyph-name="uni0122" unicode="&#x122;" horiz-adv-x="746" 
d="M402 -8q-77 0 -143 27.5t-115 76.5t-77 115.5t-28 143.5t28 143.5t76.5 115t114.5 76.5t143 28q41 0 79.5 -8.5t72 -23.5t62 -35.5t48.5 -44.5l-43 -39q-37 42 -93 67.5t-126 25.5q-64 0 -119 -23t-95.5 -64t-63.5 -97t-23 -121t23.5 -121t64 -97t95.5 -64t119 -23
q67 0 121.5 19t86.5 46v220h-235l26 59h269v-307q-17 -18 -44.5 -35t-62 -30.5t-75.5 -21.5t-86 -8zM376 -50h66l-106 -165h-46z" />
    <glyph glyph-name="Gdotaccent" unicode="&#x120;" horiz-adv-x="746" 
d="M402 -8q-77 0 -143 27.5t-115 76.5t-77 115.5t-28 143.5t28 143.5t76.5 115t114.5 76.5t143 28q41 0 79.5 -8.5t72 -23.5t62 -35.5t48.5 -44.5l-43 -39q-37 42 -93 67.5t-126 25.5q-64 0 -119 -23t-95.5 -64t-63.5 -97t-23 -121t23.5 -121t64 -97t95.5 -64t119 -23
q67 0 121.5 19t86.5 46v220h-235l26 59h269v-307q-17 -18 -44.5 -35t-62 -30.5t-75.5 -21.5t-86 -8zM401 791q-22 0 -37 15t-15 37t15 37t37 15t37 -15t15 -37t-15 -37t-37 -15z" />
    <glyph glyph-name="Hbar" unicode="&#x126;" horiz-adv-x="767" 
d="M104 710h60v-316h439v316h60v-710h-60v335h-439v-335h-60v710zM40 577h688v-50h-688v50z" />
    <glyph glyph-name="Hcircumflex" unicode="&#x124;" horiz-adv-x="765" 
d="M103 710h60v-316h439v316h60v-710h-60v335h-439v-335h-60v710zM213 810l169 117l169 -117l-25 -40l-144 103l-144 -103z" />
    <glyph glyph-name="Ibreve" unicode="&#x12c;" horiz-adv-x="265" 
d="M103 710h60v-710h-60v710zM132 776q-68 0 -106 36.5t-42 93.5h44q5 -42 31.5 -65.5t72.5 -23.5q47 0 73.5 23.5t31.5 65.5h44q-4 -57 -42 -93.5t-107 -36.5z" />
    <glyph glyph-name="Idotaccent" unicode="&#x130;" horiz-adv-x="265" 
d="M103 710h60v-710h-60v710zM132 791q-22 0 -37 15t-15 37t15 37t37 15t37 -15t15 -37t-15 -37t-37 -15z" />
    <glyph glyph-name="Imacron" unicode="&#x12a;" horiz-adv-x="265" 
d="M103 710h60v-710h-60v710zM-11 860h286v-45h-286v45z" />
    <glyph glyph-name="Iogonek" unicode="&#x12e;" horiz-adv-x="265" 
d="M103 710h60v-710h-60v710zM117 -192q-19 0 -36.5 5.5t-31 16t-21.5 26t-8 36.5q0 19 7.5 36t19 31.5t26.5 25.5t30 18l59 -3q-37 -16 -60.5 -41.5t-23.5 -54.5q0 -26 16.5 -38.5t39.5 -12.5q13 0 23 3t16 7v-42q-11 -8 -26.5 -10.5t-29.5 -2.5z" />
    <glyph glyph-name="Itilde" unicode="&#x128;" horiz-adv-x="265" 
d="M103 710h60v-710h-60v710zM-33 807q8 42 34 65t58 23q22 0 41 -9t36 -19.5t32.5 -19t31.5 -8.5q24 0 36.5 14.5t17.5 41.5h45l-2 -15q-8 -40 -33 -64t-60 -24q-22 0 -40.5 8.5t-35 19t-33 19.5t-33.5 9q-23 0 -35 -14.5t-17 -41.5h-46z" />
    <glyph glyph-name="uni1ECA" unicode="&#x1eca;" horiz-adv-x="265" 
d="M103 710h60v-710h-60v710zM132 -193q-22 0 -37 15t-15 37t15 37t37 15t37 -15t15 -37t-15 -37t-37 -15z" />
    <glyph glyph-name="Jcircumflex" unicode="&#x134;" horiz-adv-x="522" 
d="M225 -8q-42 0 -78.5 13t-64 38t-43 62.5t-15.5 87.5h59q0 -71 39.5 -107t102.5 -36q65 0 103.5 36t38.5 107v517h60v-520q0 -50 -16 -87t-43.5 -62t-64 -37t-78.5 -12zM228 810l169 117l169 -117l-25 -40l-144 103l-144 -103z" />
    <glyph glyph-name="uni0136" unicode="&#x136;" horiz-adv-x="615" 
d="M103 710h60v-361l351 361h75l-352 -361l384 -349h-82l-376 341v-341h-60v710zM312 -50h66l-106 -165h-46z" />
    <glyph glyph-name="Lacute" unicode="&#x139;" horiz-adv-x="516" 
d="M103 710h60v-651h336v-59h-396v710zM271.983 913h-70.9961l-91.9941 -145h50.9971z" />
    <glyph glyph-name="Lcaron" unicode="&#x13d;" horiz-adv-x="517" 
d="M103 710h60v-651h336v-59h-396v710zM304 710h58l-43 -167h-42z" />
    <glyph glyph-name="uni013B" unicode="&#x13b;" horiz-adv-x="516" 
d="M103 710h60v-651h336v-59h-396v710zM265 -50h66l-106 -165h-46z" />
    <glyph glyph-name="Ldot" unicode="&#x13f;" horiz-adv-x="520" 
d="M103 710h60v-651h336v-59h-396v710zM382 322q-22 0 -37 15t-15 37t15 37t37 15t37 -15t15 -37t-15 -37t-37 -15z" />
    <glyph glyph-name="Lslash" unicode="&#x141;" horiz-adv-x="584" 
d="M171 710h60v-651h336v-59h-396v710zM11 271l351 234l28 -43l-351 -233z" />
    <glyph glyph-name="Nacute" unicode="&#x143;" horiz-adv-x="789" 
d="M163 574v-574h-60v718l523 -582v574h60v-718zM533.968 913h-70.9961l-91.9941 -145h50.9971z" />
    <glyph glyph-name="Ncaron" unicode="&#x147;" horiz-adv-x="789" 
d="M163 574v-574h-60v718l523 -582v574h60v-718zM564.966 886.946l-168.99 -116.993l-168.989 116.993l24.998 39.9971l143.991 -102.994l143.991 102.994z" />
    <glyph glyph-name="uni0145" unicode="&#x145;" horiz-adv-x="789" 
d="M163 574v-574h-60v718l523 -582v574h60v-718zM378 -50h66l-106 -165h-46z" />
    <glyph glyph-name="OE" unicode="&#x152;" horiz-adv-x="1096" 
d="M404 -8q-77 0 -143 27.5t-115 76.5t-77 115.5t-28 143.5t28 143.5t77 115t115 76.5t143 28q71 0 132.5 -24t109.5 -66v82h402v-58h-344v-89q50 -73 61 -169h222v-59h-221q-2 -54 -18.5 -101t-43.5 -88v-88h344v-58h-402v81q-48 -42 -109.5 -65.5t-132.5 -23.5zM404 51
q64 0 119 23.5t95 64t62.5 96t22.5 120.5q0 64 -22.5 120t-62.5 96.5t-95 64t-119 23.5t-119 -23.5t-95 -64t-62.5 -96.5t-22.5 -120q0 -65 22.5 -120.5t62.5 -96t95 -64t119 -23.5z" />
    <glyph glyph-name="Obreve" unicode="&#x14e;" horiz-adv-x="827" 
d="M404 -8q-77 0 -143 27.5t-115 76.5t-77 115.5t-28 143.5t28 143.5t77 115t115 76.5t143 28q76 0 142.5 -28t115.5 -76.5t77 -115t28 -143.5t-28 -143.5t-77 -115.5t-115.5 -76.5t-142.5 -27.5zM404 51q64 0 119 23.5t95 64t62.5 96t22.5 120.5q0 64 -22.5 120t-62.5 96.5
t-95 64t-119 23.5t-119 -23.5t-95 -64t-62.5 -96.5t-22.5 -120q0 -65 22.5 -120.5t62.5 -96t95 -64t119 -23.5zM414 776q-68 0 -106 36.5t-42 93.5h44q5 -42 31.5 -65.5t72.5 -23.5q47 0 73.5 23.5t31.5 65.5h44q-4 -57 -42 -93.5t-107 -36.5z" />
    <glyph glyph-name="Ohungarumlaut" unicode="&#x150;" horiz-adv-x="827" 
d="M404 -8q-77 0 -143 27.5t-115 76.5t-77 115.5t-28 143.5t28 143.5t77 115t115 76.5t143 28q76 0 142.5 -28t115.5 -76.5t77 -115t28 -143.5t-28 -143.5t-77 -115.5t-115.5 -76.5t-142.5 -27.5zM404 51q64 0 119 23.5t95 64t62.5 96t22.5 120.5q0 64 -22.5 120t-62.5 96.5
t-95 64t-119 23.5t-119 -23.5t-95 -64t-62.5 -96.5t-22.5 -120q0 -65 22.5 -120.5t62.5 -96t95 -64t119 -23.5zM390 913h68l-112 -145h-47zM590 913h68l-112 -145h-47z" />
    <glyph glyph-name="Omacron" unicode="&#x14c;" horiz-adv-x="827" 
d="M404 -8q-77 0 -143 27.5t-115 76.5t-77 115.5t-28 143.5t28 143.5t77 115t115 76.5t143 28q76 0 142.5 -28t115.5 -76.5t77 -115t28 -143.5t-28 -143.5t-77 -115.5t-115.5 -76.5t-142.5 -27.5zM404 51q64 0 119 23.5t95 64t62.5 96t22.5 120.5q0 64 -22.5 120t-62.5 96.5
t-95 64t-119 23.5t-119 -23.5t-95 -64t-62.5 -96.5t-22.5 -120q0 -65 22.5 -120.5t62.5 -96t95 -64t119 -23.5zM271 860h286v-45h-286v45z" />
    <glyph glyph-name="uni1ECC" unicode="&#x1ecc;" horiz-adv-x="827" 
d="M404 -8q-77 0 -143 27.5t-115 76.5t-77 115.5t-28 143.5t28 143.5t77 115t115 76.5t143 28q76 0 142.5 -28t115.5 -76.5t77 -115t28 -143.5t-28 -143.5t-77 -115.5t-115.5 -76.5t-142.5 -27.5zM404 51q64 0 119 23.5t95 64t62.5 96t22.5 120.5q0 64 -22.5 120t-62.5 96.5
t-95 64t-119 23.5t-119 -23.5t-95 -64t-62.5 -96.5t-22.5 -120q0 -65 22.5 -120.5t62.5 -96t95 -64t119 -23.5zM413 -193q-22 0 -37 15t-15 37t15 37t37 15t37 -15t15 -37t-15 -37t-37 -15z" />
    <glyph glyph-name="Racute" unicode="&#x154;" horiz-adv-x="609" 
d="M103 710h200q107 0 163.5 -53t56.5 -138q0 -34 -10 -65.5t-32 -57t-57.5 -43t-85.5 -23.5l263 -330h-72l-260 328h-106v-328h-60v710zM302 382q80 0 119.5 36.5t39.5 99.5t-39.5 99.5t-119.5 36.5h-139v-272h139zM436.974 913h-70.9961l-91.9941 -145h50.9971z" />
    <glyph glyph-name="Rcaron" unicode="&#x158;" horiz-adv-x="609" 
d="M103 710h200q107 0 163.5 -53t56.5 -138q0 -34 -10 -65.5t-32 -57t-57.5 -43t-85.5 -23.5l263 -330h-72l-260 328h-106v-328h-60v710zM302 382q80 0 119.5 36.5t39.5 99.5t-39.5 99.5t-119.5 36.5h-139v-272h139zM466.972 886.946l-168.99 -116.993l-168.989 116.993
l24.998 39.9971l143.991 -102.994l143.991 102.994z" />
    <glyph glyph-name="uni0156" unicode="&#x156;" horiz-adv-x="609" 
d="M103 710h200q107 0 163.5 -53t56.5 -138q0 -34 -10 -65.5t-32 -57t-57.5 -43t-85.5 -23.5l263 -330h-72l-260 328h-106v-328h-60v710zM302 382q80 0 119.5 36.5t39.5 99.5t-39.5 99.5t-119.5 36.5h-139v-272h139zM305 -50h66l-106 -165h-46z" />
    <glyph glyph-name="Sacute" unicode="&#x15a;" horiz-adv-x="520" 
d="M257 -8q-72 0 -129 31t-89 76l46 39q27 -36 71.5 -62t99.5 -26q75 0 118.5 33t43.5 92q0 56 -37 90.5t-99 61.5l-69 29q-81 35 -116 83t-35 111q0 38 16.5 69t44.5 53t63.5 34t74.5 12q57 0 105 -22t82 -64l-43 -42q-28 35 -63.5 52.5t-83.5 17.5q-27 0 -51.5 -7.5
t-43 -22t-30 -35.5t-11.5 -47q0 -45 27 -78.5t92 -61.5l69 -30q36 -16 67 -35t53.5 -42.5t35 -53t12.5 -66.5q0 -41 -15 -75.5t-43 -60t-69.5 -39.5t-93.5 -14zM398.976 913h-70.9951l-91.9951 -145h50.9971z" />
    <glyph glyph-name="Scaron" unicode="&#x160;" horiz-adv-x="520" 
d="M257 -8q-72 0 -129 31t-89 76l46 39q27 -36 71.5 -62t99.5 -26q75 0 118.5 33t43.5 92q0 56 -37 90.5t-99 61.5l-69 29q-81 35 -116 83t-35 111q0 38 16.5 69t44.5 53t63.5 34t74.5 12q57 0 105 -22t82 -64l-43 -42q-28 35 -63.5 52.5t-83.5 17.5q-27 0 -51.5 -7.5
t-43 -22t-30 -35.5t-11.5 -47q0 -45 27 -78.5t92 -61.5l69 -30q36 -16 67 -35t53.5 -42.5t35 -53t12.5 -66.5q0 -41 -15 -75.5t-43 -60t-69.5 -39.5t-93.5 -14zM429.974 886.946l-168.989 -116.993l-168.99 116.993l24.999 39.9971l143.991 -102.994l143.991 102.994z" />
    <glyph glyph-name="Scedilla" unicode="&#x15e;" horiz-adv-x="520" 
d="M257 -8q-72 0 -129 31t-89 76l46 39q27 -36 71.5 -62t99.5 -26q75 0 118.5 33t43.5 92q0 56 -37 90.5t-99 61.5l-69 29q-81 35 -116 83t-35 111q0 38 16.5 69t44.5 53t63.5 34t74.5 12q57 0 105 -22t82 -64l-43 -42q-28 35 -63.5 52.5t-83.5 17.5q-27 0 -51.5 -7.5
t-43 -22t-30 -35.5t-11.5 -47q0 -45 27 -78.5t92 -61.5l69 -30q36 -16 67 -35t53.5 -42.5t35 -53t12.5 -66.5q0 -41 -15 -75.5t-43 -60t-69.5 -39.5t-93.5 -14zM270 0h43l-78 -165h-65z" />
    <glyph glyph-name="Scircumflex" unicode="&#x15c;" horiz-adv-x="520" 
d="M257 -8q-72 0 -129 31t-89 76l46 39q27 -36 71.5 -62t99.5 -26q75 0 118.5 33t43.5 92q0 56 -37 90.5t-99 61.5l-69 29q-81 35 -116 83t-35 111q0 38 16.5 69t44.5 53t63.5 34t74.5 12q57 0 105 -22t82 -64l-43 -42q-28 35 -63.5 52.5t-83.5 17.5q-27 0 -51.5 -7.5
t-43 -22t-30 -35.5t-11.5 -47q0 -45 27 -78.5t92 -61.5l69 -30q36 -16 67 -35t53.5 -42.5t35 -53t12.5 -66.5q0 -41 -15 -75.5t-43 -60t-69.5 -39.5t-93.5 -14zM92 810l169 117l169 -117l-25 -40l-144 103l-144 -103z" />
    <glyph glyph-name="uni0218" unicode="&#x218;" horiz-adv-x="520" 
d="M257 -8q-72 0 -129 31t-89 76l46 39q27 -36 71.5 -62t99.5 -26q75 0 118.5 33t43.5 92q0 56 -37 90.5t-99 61.5l-69 29q-81 35 -116 83t-35 111q0 38 16.5 69t44.5 53t63.5 34t74.5 12q57 0 105 -22t82 -64l-43 -42q-28 35 -63.5 52.5t-83.5 17.5q-27 0 -51.5 -7.5
t-43 -22t-30 -35.5t-11.5 -47q0 -45 27 -78.5t92 -61.5l69 -30q36 -16 67 -35t53.5 -42.5t35 -53t12.5 -66.5q0 -41 -15 -75.5t-43 -60t-69.5 -39.5t-93.5 -14zM226 -50h66l-106 -165h-46z" />
    <glyph glyph-name="Tcaron" unicode="&#x164;" horiz-adv-x="512" 
d="M226 652h-210v58h480v-58h-210v-652h-60v652zM423.975 886.946l-168.99 -116.993l-168.989 116.993l24.998 39.9971l143.991 -102.994l143.991 102.994z" />
    <glyph glyph-name="uni0162" unicode="&#x162;" horiz-adv-x="512" 
d="M226 652h-210v58h480v-58h-210v-652h-60v652zM220 -50h66l-106 -165h-46z" />
    <glyph glyph-name="uni021A" unicode="&#x21a;" horiz-adv-x="512" 
d="M226 652h-210v58h480v-58h-210v-652h-60v652zM220 -50h66l-106 -165h-46z" />
    <glyph glyph-name="Ubreve" unicode="&#x16c;" horiz-adv-x="732" 
d="M366 -8q-62 0 -112.5 18.5t-86 53.5t-55 86t-19.5 116v444h60v-447q0 -107 58 -160t155 -53t155 53t58 160v447h60v-444q0 -65 -19.5 -116t-55 -86t-86 -53.5t-112.5 -18.5zM365 776q-68 0 -106 36.5t-42 93.5h44q5 -42 31.5 -65.5t72.5 -23.5q47 0 73.5 23.5t31.5 65.5
h44q-4 -57 -42 -93.5t-107 -36.5z" />
    <glyph glyph-name="Uhungarumlaut" unicode="&#x170;" horiz-adv-x="732" 
d="M366 -8q-62 0 -112.5 18.5t-86 53.5t-55 86t-19.5 116v444h60v-447q0 -107 58 -160t155 -53t155 53t58 160v447h60v-444q0 -65 -19.5 -116t-55 -86t-86 -53.5t-112.5 -18.5zM341 913h68l-112 -145h-47zM541 913h68l-112 -145h-47z" />
    <glyph glyph-name="Umacron" unicode="&#x16a;" horiz-adv-x="732" 
d="M366 -8q-62 0 -112.5 18.5t-86 53.5t-55 86t-19.5 116v444h60v-447q0 -107 58 -160t155 -53t155 53t58 160v447h60v-444q0 -65 -19.5 -116t-55 -86t-86 -53.5t-112.5 -18.5zM222 860h286v-45h-286v45z" />
    <glyph glyph-name="Uogonek" unicode="&#x172;" horiz-adv-x="732" 
d="M366 -8q-62 0 -112.5 18.5t-86 53.5t-55 86t-19.5 116v444h60v-447q0 -107 58 -160t155 -53t155 53t58 160v447h60v-444q0 -65 -19.5 -116t-55 -86t-86 -53.5t-112.5 -18.5zM381 -192q-19 0 -36.5 5.5t-31 16t-21.5 26t-8 36.5q0 19 7.5 36t19 31.5t26.5 25.5t30 18
l59 -3q-37 -16 -60.5 -41.5t-23.5 -54.5q0 -26 16.5 -38.5t39.5 -12.5q13 0 23 3t16 7v-42q-11 -8 -26.5 -10.5t-29.5 -2.5z" />
    <glyph glyph-name="Uring" unicode="&#x16e;" horiz-adv-x="732" 
d="M366 -8q-62 0 -112.5 18.5t-86 53.5t-55 86t-19.5 116v444h60v-447q0 -107 58 -160t155 -53t155 53t58 160v447h60v-444q0 -65 -19.5 -116t-55 -86t-86 -53.5t-112.5 -18.5zM365 753q-38 0 -64.5 25.5t-26.5 62.5q0 38 26.5 63t64.5 25t64.5 -25t26.5 -63
q0 -37 -26.5 -62.5t-64.5 -25.5zM365 787q23 0 38.5 15.5t15.5 38.5t-15.5 38.5t-38.5 15.5t-38.5 -15.5t-15.5 -38.5t15.5 -38.5t38.5 -15.5z" />
    <glyph glyph-name="Utilde" unicode="&#x168;" horiz-adv-x="732" 
d="M366 -8q-62 0 -112.5 18.5t-86 53.5t-55 86t-19.5 116v444h60v-447q0 -107 58 -160t155 -53t155 53t58 160v447h60v-444q0 -65 -19.5 -116t-55 -86t-86 -53.5t-112.5 -18.5zM200 807q8 42 34 65t58 23q22 0 41 -9t36 -19.5t32.5 -19t31.5 -8.5q24 0 36.5 14.5t17.5 41.5
h45l-2 -15q-8 -40 -33 -64t-60 -24q-22 0 -40.5 8.5t-35 19t-33 19.5t-33.5 9q-23 0 -35 -14.5t-17 -41.5h-46z" />
    <glyph glyph-name="uni1EE4" unicode="&#x1ee4;" horiz-adv-x="732" 
d="M366 -8q-62 0 -112.5 18.5t-86 53.5t-55 86t-19.5 116v444h60v-447q0 -107 58 -160t155 -53t155 53t58 160v447h60v-444q0 -65 -19.5 -116t-55 -86t-86 -53.5t-112.5 -18.5zM366 -193q-22 0 -37 15t-15 37t15 37t37 15t37 -15t15 -37t-15 -37t-37 -15z" />
    <glyph glyph-name="Wacute" unicode="&#x1e82;" horiz-adv-x="883" 
d="M15 710h62l172 -552l192 560l193 -560l171 552h63l-231 -718l-196 569l-196 -569zM578.965 913h-70.9961l-91.9941 -145h50.9971z" />
    <glyph glyph-name="Wcircumflex" unicode="&#x174;" horiz-adv-x="883" 
d="M15 710h62l172 -552l192 560l193 -560l171 552h63l-231 -718l-196 569l-196 -569zM272 810l169 117l169 -117l-25 -40l-144 103l-144 -103z" />
    <glyph glyph-name="Wdieresis" unicode="&#x1e84;" horiz-adv-x="883" 
d="M15 710h62l172 -552l192 560l193 -560l171 552h63l-231 -718l-196 569l-196 -569zM551 791q-22 0 -37 15t-15 37t15 37t37 15t37 -15t15 -37t-15 -37t-37 -15zM331 791q-22 0 -37 15t-15 37t15 37t37 15t37 -15t15 -37t-15 -37t-37 -15z" />
    <glyph glyph-name="Wgrave" unicode="&#x1e80;" horiz-adv-x="883" 
d="M15 710h62l172 -552l192 560l193 -560l171 552h63l-231 -718l-196 569l-196 -569zM300 913h71l92 -145h-51z" />
    <glyph glyph-name="Ycircumflex" unicode="&#x176;" horiz-adv-x="606" 
d="M273 301l-260 409h70l220 -349l220 349h70l-260 -409v-301h-60v301zM135 810l169 117l169 -117l-25 -40l-144 103l-144 -103z" />
    <glyph glyph-name="Ydieresis" unicode="&#x178;" horiz-adv-x="606" 
d="M273 301l-260 409h70l220 -349l220 349h70l-260 -409v-301h-60v301zM414 791q-22 0 -37 15t-15 37t15 37t37 15t37 -15t15 -37t-15 -37t-37 -15zM194 791q-22 0 -37 15t-15 37t15 37t37 15t37 -15t15 -37t-15 -37t-37 -15z" />
    <glyph glyph-name="Ygrave" unicode="&#x1ef2;" horiz-adv-x="606" 
d="M273 301l-260 409h70l220 -349l220 349h70l-260 -409v-301h-60v301zM163 913h71l92 -145h-51z" />
    <glyph glyph-name="uni0232" unicode="&#x232;" horiz-adv-x="606" 
d="M273 301l-260 409h70l220 -349l220 349h70l-260 -409v-301h-60v301zM161 860h286v-45h-286v45z" />
    <glyph glyph-name="Zacute" unicode="&#x179;" horiz-adv-x="578" 
d="M444 652h-389v58h492l-436 -652h438v-58h-542zM440.973 913h-70.9951l-91.9941 -145h50.9961z" />
    <glyph glyph-name="Zcaron" unicode="&#x17d;" horiz-adv-x="578" 
d="M444 652h-389v58h492l-436 -652h438v-58h-542zM471.971 886.946l-168.989 -116.993l-168.989 116.993l24.998 39.9971l143.991 -102.994l143.991 102.994z" />
    <glyph glyph-name="Zdotaccent" unicode="&#x17b;" horiz-adv-x="578" 
d="M444 652h-389v58h492l-436 -652h438v-58h-542zM303 791q-22 0 -37 15t-15 37t15 37t37 15t37 -15t15 -37t-15 -37t-37 -15z" />
    <glyph glyph-name="uni1E9E" unicode="&#x1e9e;" horiz-adv-x="620" 
d="M103 710h413l-157 -258h1q48 -4 87 -21t66.5 -45.5t43 -68.5t15.5 -89q0 -54 -18.5 -96t-51.5 -71.5t-77.5 -45t-96.5 -15.5h-37v58h40q39 0 72 12t57 34t37.5 53.5t13.5 70.5q0 40 -13.5 71.5t-37.5 53.5t-57 34t-72 12h-40v52l125 203h-252v-654h-61v710z" />
    <glyph glyph-name="abreve" unicode="&#x103;" horiz-adv-x="618" 
d="M480 64q-33 -35 -78 -53.5t-99 -18.5q-56 0 -103.5 20t-81.5 55t-53 82t-19 101t19 101t53 82t81.5 55t103.5 20q53 0 98.5 -18.5t78.5 -53.5v64h57v-500h-57v64zM304 46q58 0 104 25t72 64v229q-26 40 -72 65t-104 25q-44 0 -80.5 -16t-62.5 -43.5t-41 -64.5t-15 -80
t15 -80t41 -64.5t62.5 -43.5t80.5 -16zM314 580q-69 0 -106.5 36.5t-41.5 93.5h45q5 -42 31 -65t72 -23q47 0 72.5 23t30.5 65h46q-4 -57 -41.5 -93.5t-107.5 -36.5z" />
    <glyph glyph-name="amacron" unicode="&#x101;" horiz-adv-x="618" 
d="M480 64q-33 -35 -78 -53.5t-99 -18.5q-56 0 -103.5 20t-81.5 55t-53 82t-19 101t19 101t53 82t81.5 55t103.5 20q53 0 98.5 -18.5t78.5 -53.5v64h57v-500h-57v64zM304 46q58 0 104 25t72 64v229q-26 40 -72 65t-104 25q-44 0 -80.5 -16t-62.5 -43.5t-41 -64.5t-15 -80
t15 -80t41 -64.5t62.5 -43.5t80.5 -16zM171 679h286v-45h-286v45z" />
    <glyph glyph-name="aogonek" unicode="&#x105;" horiz-adv-x="618" 
d="M480 64q-33 -35 -78 -53.5t-99 -18.5q-56 0 -103.5 20t-81.5 55t-53 82t-19 101t19 101t53 82t81.5 55t103.5 20q53 0 98.5 -18.5t78.5 -53.5v64h57v-500h-57v64zM304 46q58 0 104 25t72 64v229q-26 40 -72 65t-104 25q-44 0 -80.5 -16t-62.5 -43.5t-41 -64.5t-15 -80
t15 -80t41 -64.5t62.5 -43.5t80.5 -16zM491 -192q-18 0 -35.5 5.5t-30.5 16t-21 26t-8 36.5q0 19 7.5 36t19.5 31.5t27 25.5t30 18l57 -3q-37 -16 -60.5 -41.5t-23.5 -54.5q0 -26 16 -38.5t40 -12.5q12 0 22.5 3t16.5 7v-42q-12 -8 -27 -10.5t-30 -2.5z" />
    <glyph glyph-name="cacute" unicode="&#x107;" horiz-adv-x="524" 
d="M304 -8q-56 0 -103.5 20t-82 55t-53.5 82t-19 101t19 101t53.5 82t82 55t103.5 20q60 0 107.5 -21.5t81.5 -55.5l-38 -41q-27 28 -65 46t-86 18q-44 0 -80.5 -16t-62.5 -43.5t-41 -64.5t-15 -80t15 -80t41 -64.5t62.5 -43.5t80.5 -16q48 0 86 18t65 45l37 -40
q-33 -35 -80.5 -56t-107.5 -21zM442.973 710h-70.9951l-94.9941 -160h48.9971z" />
    <glyph glyph-name="ccaron" unicode="&#x10d;" horiz-adv-x="524" 
d="M304 -8q-56 0 -103.5 20t-82 55t-53.5 82t-19 101t19 101t53.5 82t82 55t103.5 20q60 0 107.5 -21.5t81.5 -55.5l-38 -41q-27 28 -65 46t-86 18q-44 0 -80.5 -16t-62.5 -43.5t-41 -64.5t-15 -80t15 -80t41 -64.5t62.5 -43.5t80.5 -16q48 0 86 18t65 45l37 -40
q-33 -35 -80.5 -56t-107.5 -21zM146.991 680.958l26.998 36.998l128.992 -102.993l128.992 102.993l26.998 -36.998l-155.99 -121.992z" />
    <glyph glyph-name="ccircumflex" unicode="&#x109;" horiz-adv-x="524" 
d="M304 -8q-56 0 -103.5 20t-82 55t-53.5 82t-19 101t19 101t53.5 82t82 55t103.5 20q60 0 107.5 -21.5t81.5 -55.5l-38 -41q-27 28 -65 46t-86 18q-44 0 -80.5 -16t-62.5 -43.5t-41 -64.5t-15 -80t15 -80t41 -64.5t62.5 -43.5t80.5 -16q48 0 86 18t65 45l37 -40
q-33 -35 -80.5 -56t-107.5 -21zM460 596l-27 -37l-129 103l-129 -103l-27 37l156 122z" />
    <glyph glyph-name="cdotaccent" unicode="&#x10b;" horiz-adv-x="524" 
d="M304 -8q-56 0 -103.5 20t-82 55t-53.5 82t-19 101t19 101t53.5 82t82 55t103.5 20q60 0 107.5 -21.5t81.5 -55.5l-38 -41q-27 28 -65 46t-86 18q-44 0 -80.5 -16t-62.5 -43.5t-41 -64.5t-15 -80t15 -80t41 -64.5t62.5 -43.5t80.5 -16q48 0 86 18t65 45l37 -40
q-33 -35 -80.5 -56t-107.5 -21zM304 580q-22 0 -37 15t-15 37t15 37t37 15t37 -15t15 -37t-15 -37t-37 -15z" />
    <glyph glyph-name="dcaron" unicode="&#x10f;" horiz-adv-x="642" 
d="M480 0v64q-32 -35 -77.5 -53.5t-99.5 -18.5q-56 0 -103.5 20t-81.5 55t-53 82t-19 101t19 101t53 82t81.5 55t103.5 20q54 0 99.5 -18.5t77.5 -53.5v274h57v-710h-57zM304 454q-44 0 -80.5 -16t-62.5 -43.5t-41 -64.5t-15 -80t15 -80t41 -64.5t62.5 -43.5t80.5 -16
q58 0 104 25t72 64v229q-26 40 -71.5 65t-104.5 25zM634 710h58l-43 -167h-42z" />
    <glyph glyph-name="dcroat" unicode="&#x111;" horiz-adv-x="618" 
d="M480 0v64q-32 -35 -77.5 -53.5t-99.5 -18.5q-56 0 -103.5 20t-81.5 55t-53 82t-19 101t19 101t53 82t81.5 55t103.5 20q54 0 99.5 -18.5t77.5 -53.5v274h57v-710h-57zM304 454q-44 0 -80.5 -16t-62.5 -43.5t-41 -64.5t-15 -80t15 -80t41 -64.5t62.5 -43.5t80.5 -16
q58 0 104 25t72 64v229q-26 40 -71.5 65t-104.5 25zM301 634h313v-45h-313v45z" />
    <glyph glyph-name="ebreve" unicode="&#x115;" horiz-adv-x="573" 
d="M304 -8q-56 0 -103.5 20t-82 55t-53.5 82t-19 101t19 101t52.5 82t79 55t99.5 20t98 -19t75.5 -54t48.5 -84t17 -109h-430q1 -43 17 -79t43 -62t62.5 -40.5t76.5 -14.5q51 0 92.5 19t68.5 47l37 -41q-33 -34 -84 -56.5t-114 -22.5zM293 455q-33 0 -64 -11t-55.5 -31.5
t-42 -51t-23.5 -69.5h363q-8 80 -57.5 121.5t-120.5 41.5zM297 580q-69 0 -106.5 36.5t-41.5 93.5h45q5 -42 31 -65t72 -23q47 0 72.5 23t30.5 65h46q-4 -57 -41.5 -93.5t-107.5 -36.5z" />
    <glyph glyph-name="ecaron" unicode="&#x11b;" horiz-adv-x="573" 
d="M304 -8q-56 0 -103.5 20t-82 55t-53.5 82t-19 101t19 101t52.5 82t79 55t99.5 20t98 -19t75.5 -54t48.5 -84t17 -109h-430q1 -43 17 -79t43 -62t62.5 -40.5t76.5 -14.5q51 0 92.5 19t68.5 47l37 -41q-33 -34 -84 -56.5t-114 -22.5zM293 455q-33 0 -64 -11t-55.5 -31.5
t-42 -51t-23.5 -69.5h363q-8 80 -57.5 121.5t-120.5 41.5zM139.991 680.958l26.999 36.998l128.992 -102.993l128.991 102.993l26.999 -36.998l-155.99 -121.992z" />
    <glyph glyph-name="emacron" unicode="&#x113;" horiz-adv-x="573" 
d="M304 -8q-56 0 -103.5 20t-82 55t-53.5 82t-19 101t19 101t52.5 82t79 55t99.5 20t98 -19t75.5 -54t48.5 -84t17 -109h-430q1 -43 17 -79t43 -62t62.5 -40.5t76.5 -14.5q51 0 92.5 19t68.5 47l37 -41q-33 -34 -84 -56.5t-114 -22.5zM293 455q-33 0 -64 -11t-55.5 -31.5
t-42 -51t-23.5 -69.5h363q-8 80 -57.5 121.5t-120.5 41.5zM154 679h286v-45h-286v45z" />
    <glyph glyph-name="eogonek" unicode="&#x119;" horiz-adv-x="571" 
d="M495 -179q-12 -8 -27.5 -10.5t-29.5 -2.5q-40 0 -70 23t-30 69q0 27 12 53.5t34 50.5q-38 -12 -80 -12q-56 0 -103.5 20t-82 55t-53.5 82t-19 101t19 101t52.5 82t79 55t99.5 20q52 0 95.5 -18t75.5 -52.5t50 -84t18 -111.5h-430q1 -45 18 -81t44 -61.5t62.5 -39.5
t74.5 -14q51 0 92.5 19t68.5 47l37 -41q-18 -16 -36.5 -34.5t-34.5 -39t-26 -42.5t-10 -44q0 -33 18.5 -45.5t42.5 -12.5q12 0 22.5 3t16.5 7v-42zM293 455q-35 0 -66 -11.5t-55.5 -32.5t-41 -51.5t-22.5 -67.5h363q-8 80 -57.5 121.5t-120.5 41.5z" />
    <glyph glyph-name="edotaccent" unicode="&#x117;" horiz-adv-x="573" 
d="M304 -8q-56 0 -103.5 20t-82 55t-53.5 82t-19 101t19 101t52.5 82t79 55t99.5 20t98 -19t75.5 -54t48.5 -84t17 -109h-430q1 -43 17 -79t43 -62t62.5 -40.5t76.5 -14.5q51 0 92.5 19t68.5 47l37 -41q-33 -34 -84 -56.5t-114 -22.5zM293 455q-33 0 -64 -11t-55.5 -31.5
t-42 -51t-23.5 -69.5h363q-8 80 -57.5 121.5t-120.5 41.5zM297 580q-22 0 -37 15t-15 37t15 37t37 15t37 -15t15 -37t-15 -37t-37 -15z" />
    <glyph glyph-name="gbreve" unicode="&#x11f;" horiz-adv-x="613" 
d="M293 -194q-57 0 -113.5 17.5t-97.5 49.5l32 48q32 -27 80.5 -44t100.5 -17q42 0 77.5 9t61.5 27.5t40.5 46.5t14.5 67q0 21 -4.5 42.5t-11.5 35.5q-32 -35 -77.5 -54.5t-100.5 -19.5t-100.5 19t-78.5 52t-51 78t-18 98q0 52 18 97.5t51 78.5t78.5 52t100.5 19
q54 0 98.5 -19t76.5 -53v64h57v-390q10 -26 15.5 -51.5t5.5 -53.5q0 -54 -22 -92t-57.5 -62t-81.5 -34.5t-94 -10.5zM296 67q58 0 103 25.5t71 65.5v206q-25 40 -70.5 65t-103.5 25q-41 0 -76 -14.5t-60.5 -40.5t-39.5 -61.5t-14 -76.5t14 -76.5t39.5 -61.5t60.5 -41t76 -15
zM294 580q-69 0 -106.5 36.5t-41.5 93.5h45q5 -42 31 -65t72 -23q47 0 72.5 23t30.5 65h46q-4 -57 -41.5 -93.5t-107.5 -36.5z" />
    <glyph glyph-name="gcircumflex" unicode="&#x11d;" horiz-adv-x="613" 
d="M293 -194q-57 0 -113.5 17.5t-97.5 49.5l32 48q32 -27 80.5 -44t100.5 -17q42 0 77.5 9t61.5 27.5t40.5 46.5t14.5 67q0 21 -4.5 42.5t-11.5 35.5q-32 -35 -77.5 -54.5t-100.5 -19.5t-100.5 19t-78.5 52t-51 78t-18 98q0 52 18 97.5t51 78.5t78.5 52t100.5 19
q54 0 98.5 -19t76.5 -53v64h57v-390q10 -26 15.5 -51.5t5.5 -53.5q0 -54 -22 -92t-57.5 -62t-81.5 -34.5t-94 -10.5zM296 67q58 0 103 25.5t71 65.5v206q-25 40 -70.5 65t-103.5 25q-41 0 -76 -14.5t-60.5 -40.5t-39.5 -61.5t-14 -76.5t14 -76.5t39.5 -61.5t60.5 -41t76 -15
zM450 596l-27 -37l-129 103l-129 -103l-27 37l156 122z" />
    <glyph glyph-name="uni0123" unicode="&#x123;" horiz-adv-x="613" 
d="M293 -194q-57 0 -113.5 17.5t-97.5 49.5l32 48q32 -27 80.5 -44t100.5 -17q42 0 77.5 9t61.5 27.5t40.5 46.5t14.5 67q0 21 -4.5 42.5t-11.5 35.5q-32 -35 -77.5 -54.5t-100.5 -19.5t-100.5 19t-78.5 52t-51 78t-18 98q0 52 18 97.5t51 78.5t78.5 52t100.5 19
q54 0 98.5 -19t76.5 -53v64h57v-390q10 -26 15.5 -51.5t5.5 -53.5q0 -54 -22 -92t-57.5 -62t-81.5 -34.5t-94 -10.5zM296 67q58 0 103 25.5t71 65.5v206q-25 40 -70.5 65t-103.5 25q-41 0 -76 -14.5t-60.5 -40.5t-39.5 -61.5t-14 -76.5t14 -76.5t39.5 -61.5t60.5 -41t76 -15
zM329.979 544.967h-65.9951l105.993 164.99h45.9971z" />
    <glyph glyph-name="gdotaccent" unicode="&#x121;" horiz-adv-x="613" 
d="M293 -194q-57 0 -113.5 17.5t-97.5 49.5l32 48q32 -27 80.5 -44t100.5 -17q42 0 77.5 9t61.5 27.5t40.5 46.5t14.5 67q0 21 -4.5 42.5t-11.5 35.5q-32 -35 -77.5 -54.5t-100.5 -19.5t-100.5 19t-78.5 52t-51 78t-18 98q0 52 18 97.5t51 78.5t78.5 52t100.5 19
q54 0 98.5 -19t76.5 -53v64h57v-390q10 -26 15.5 -51.5t5.5 -53.5q0 -54 -22 -92t-57.5 -62t-81.5 -34.5t-94 -10.5zM296 67q58 0 103 25.5t71 65.5v206q-25 40 -70.5 65t-103.5 25q-41 0 -76 -14.5t-60.5 -40.5t-39.5 -61.5t-14 -76.5t14 -76.5t39.5 -61.5t60.5 -41t76 -15
zM294 580q-22 0 -37 15t-15 37t15 37t37 15t37 -15t15 -37t-15 -37t-37 -15z" />
    <glyph glyph-name="hbar" unicode="&#x127;" horiz-adv-x="579" 
d="M81 710h58v-288q26 42 70.5 64t98.5 22q92 0 144 -55t52 -148v-305h-57v300q0 69 -39.5 111.5t-110.5 42.5q-61 0 -101.5 -33t-56.5 -87v-334h-58v710zM5 634h313v-45h-313v45z" />
    <glyph glyph-name="hcircumflex" unicode="&#x125;" horiz-adv-x="579" 
d="M81 710h58v-288q26 42 70.5 64t98.5 22q92 0 144 -55t52 -148v-305h-57v300q0 69 -39.5 111.5t-110.5 42.5q-61 0 -101.5 -33t-56.5 -87v-334h-58v710zM142 810l169 117l169 -117l-25 -40l-144 103l-144 -103z" />
    <glyph glyph-name="dotlessi" unicode="&#x131;" horiz-adv-x="220" 
d="M81 500h58v-500h-58v500z" />
    <glyph glyph-name="ibreve" unicode="&#x12d;" horiz-adv-x="220" 
d="M81 500h58v-500h-58v500zM110 580q-69 0 -106.5 36.5t-41.5 93.5h45q5 -42 31 -65t72 -23q47 0 72.5 23t30.5 65h46q-4 -57 -41.5 -93.5t-107.5 -36.5z" />
    <glyph glyph-name="imacron" unicode="&#x12b;" horiz-adv-x="220" 
d="M81 500h58v-500h-58v500zM-33 679h286v-45h-286v45z" />
    <glyph glyph-name="iogonek" unicode="&#x12f;" horiz-adv-x="220" 
d="M81 500h58v-500h-58v500zM82 627q-10 7 -16 17.5t-6 23.5q0 20 15 35t36 15q20 0 35 -15t15 -35q0 -13 -6 -23.5t-16 -17.5h-57zM93 -192q-18 0 -35.5 5.5t-30.5 16t-21 26t-8 36.5q0 19 7.5 36t19.5 31.5t27 25.5t30 18l57 -3q-37 -16 -60.5 -41.5t-23.5 -54.5
q0 -26 16 -38.5t40 -12.5q12 0 22.5 3t16.5 7v-42q-12 -8 -27 -10.5t-30 -2.5z" />
    <glyph glyph-name="itilde" unicode="&#x129;" horiz-adv-x="220" 
d="M81 500h58v-500h-58v500zM-54 588q8 42 34 65t58 23q22 0 41 -9t36 -19.5t32.5 -19t31.5 -8.5q24 0 36.5 14.5t17.5 41.5h45l-2 -15q-8 -40 -33 -64t-60 -24q-22 0 -40.5 8.5t-35 19t-33 19.5t-33.5 9q-23 0 -35 -14.5t-17 -41.5h-46z" />
    <glyph glyph-name="uni1ECB" unicode="&#x1ecb;" horiz-adv-x="220" 
d="M81 500h58v-500h-58v500zM82 627q-10 7 -16 17.5t-6 23.5q0 20 15 35t36 15q20 0 35 -15t15 -35q0 -13 -6 -23.5t-16 -17.5h-57zM110 -183q-22 0 -37 15t-15 37t15 37t37 15t37 -15t15 -37t-15 -37t-37 -15z" />
    <glyph glyph-name="uni0237" unicode="&#x237;" horiz-adv-x="228" 
d="M-20 -131h20q53 0 71 25.5t18 76.5v529h58v-543q0 -141 -142 -141h-25v53z" />
    <glyph glyph-name="jcircumflex" unicode="&#x135;" horiz-adv-x="228" 
d="M-20 -131h20q53 0 71 25.5t18 76.5v529h58v-543q0 -141 -142 -141h-25v53zM274 596l-27 -37l-129 103l-129 -103l-27 37l156 122z" />
    <glyph glyph-name="uni0137" unicode="&#x137;" horiz-adv-x="494" 
d="M81 710h58v-445l253 235h77l-259 -240l288 -260h-80l-279 252v-252h-58v710zM244 -50h66l-106 -165h-46z" />
    <glyph glyph-name="lacute" unicode="&#x13a;" horiz-adv-x="220" 
d="M81 710h58v-710h-58v710zM248.984 920h-70.9951l-94.9941 -160h48.9971z" />
    <glyph glyph-name="lcaron" unicode="&#x13e;" horiz-adv-x="244" 
d="M81 710h58v-710h-58v710zM235 710h58l-43 -167h-42z" />
    <glyph glyph-name="uni013C" unicode="&#x13c;" horiz-adv-x="220" 
d="M81 710h58v-710h-58v710zM77 -50h66l-106 -165h-46z" />
    <glyph glyph-name="ldot" unicode="&#x140;" horiz-adv-x="319" 
d="M81 710h58v-710h-58v710zM269 312q-22 0 -37 15t-15 37t15 37t37 15t37 -15t15 -37t-15 -37t-37 -15z" />
    <glyph glyph-name="lslash" unicode="&#x142;" horiz-adv-x="329" 
d="M141 710h58v-710h-58v710zM22 302l271 180l25 -39l-271 -180z" />
    <glyph glyph-name="nacute" unicode="&#x144;" horiz-adv-x="579" 
d="M81 500h58v-78q26 42 70.5 64t98.5 22q92 0 144 -55t52 -148v-305h-57v300q0 69 -39.5 111.5t-110.5 42.5q-61 0 -101.5 -33t-56.5 -87v-334h-58v500zM442.973 710h-70.9951l-94.9941 -160h48.9971z" />
    <glyph glyph-name="ncaron" unicode="&#x148;" horiz-adv-x="579" 
d="M81 500h58v-78q26 42 70.5 64t98.5 22q92 0 144 -55t52 -148v-305h-57v300q0 69 -39.5 111.5t-110.5 42.5q-61 0 -101.5 -33t-56.5 -87v-334h-58v500zM146.991 680.958l26.998 36.998l128.992 -102.993l128.992 102.993l26.998 -36.998l-155.99 -121.992z" />
    <glyph glyph-name="uni0146" unicode="&#x146;" horiz-adv-x="579" 
d="M81 500h58v-78q26 42 70.5 64t98.5 22q92 0 144 -55t52 -148v-305h-57v300q0 69 -39.5 111.5t-110.5 42.5q-61 0 -101.5 -33t-56.5 -87v-334h-58v500zM262 -50h66l-106 -165h-46z" />
    <glyph glyph-name="oe" unicode="&#x153;" horiz-adv-x="1033" 
d="M962 71q-33 -34 -84 -56.5t-114 -22.5q-72 0 -133 35.5t-96 104.5q-35 -69 -96 -104.5t-134 -35.5q-57 0 -104.5 20t-82 55t-53.5 82t-19 101t19 101t53.5 82t82 55t104.5 20q73 0 134 -35t96 -104q34 69 93 104t128 35q48 0 91.5 -17t76 -50.5t52 -83t19.5 -115.5h-432
q2 -44 18.5 -80t43.5 -62t62.5 -40t76.5 -14q51 0 92 19t69 47zM753 455q-33 0 -64 -11t-56.5 -32t-43 -51.5t-23.5 -68.5h365q-8 80 -57.5 121.5t-120.5 41.5zM305 46q44 0 81 16t63.5 43.5t41.5 64.5t15 80t-15 80t-41.5 64.5t-63.5 43.5t-81 16t-81 -16t-63.5 -43.5
t-41 -64.5t-14.5 -80t14.5 -80t41 -64.5t63.5 -43.5t81 -16z" />
    <glyph glyph-name="obreve" unicode="&#x14f;" horiz-adv-x="610" 
d="M305 -8q-57 0 -104.5 20t-82 55t-53.5 82t-19 101t19 101t53.5 82t82 55t104.5 20t104.5 -20t82 -55t53.5 -82t19 -101t-19 -101t-53.5 -82t-82 -55t-104.5 -20zM305 46q44 0 81 16t63.5 43.5t41 64.5t14.5 80t-14.5 80t-41 64.5t-63.5 43.5t-81 16t-81 -16t-63.5 -43.5
t-41 -64.5t-14.5 -80t14.5 -80t41 -64.5t63.5 -43.5t81 -16zM305 580q-69 0 -106.5 36.5t-41.5 93.5h45q5 -42 31 -65t72 -23q47 0 72.5 23t30.5 65h46q-4 -57 -41.5 -93.5t-107.5 -36.5z" />
    <glyph glyph-name="ohungarumlaut" unicode="&#x151;" horiz-adv-x="610" 
d="M305 -8q-57 0 -104.5 20t-82 55t-53.5 82t-19 101t19 101t53.5 82t82 55t104.5 20t104.5 -20t82 -55t53.5 -82t19 -101t-19 -101t-53.5 -82t-82 -55t-104.5 -20zM305 46q44 0 81 16t63.5 43.5t41 64.5t14.5 80t-14.5 80t-41 64.5t-63.5 43.5t-81 16t-81 -16t-63.5 -43.5
t-41 -64.5t-14.5 -80t14.5 -80t41 -64.5t63.5 -43.5t81 -16zM301 710h66l-116 -161h-45zM466 710h66l-116 -161h-45z" />
    <glyph glyph-name="omacron" unicode="&#x14d;" horiz-adv-x="610" 
d="M305 -8q-57 0 -104.5 20t-82 55t-53.5 82t-19 101t19 101t53.5 82t82 55t104.5 20t104.5 -20t82 -55t53.5 -82t19 -101t-19 -101t-53.5 -82t-82 -55t-104.5 -20zM305 46q44 0 81 16t63.5 43.5t41 64.5t14.5 80t-14.5 80t-41 64.5t-63.5 43.5t-81 16t-81 -16t-63.5 -43.5
t-41 -64.5t-14.5 -80t14.5 -80t41 -64.5t63.5 -43.5t81 -16zM162 679h286v-45h-286v45z" />
    <glyph glyph-name="uni1ECD" unicode="&#x1ecd;" horiz-adv-x="610" 
d="M305 -8q-57 0 -104.5 20t-82 55t-53.5 82t-19 101t19 101t53.5 82t82 55t104.5 20t104.5 -20t82 -55t53.5 -82t19 -101t-19 -101t-53.5 -82t-82 -55t-104.5 -20zM305 46q44 0 81 16t63.5 43.5t41 64.5t14.5 80t-14.5 80t-41 64.5t-63.5 43.5t-81 16t-81 -16t-63.5 -43.5
t-41 -64.5t-14.5 -80t14.5 -80t41 -64.5t63.5 -43.5t81 -16zM305 -183q-22 0 -37 15t-15 37t15 37t37 15t37 -15t15 -37t-15 -37t-37 -15z" />
    <glyph glyph-name="racute" unicode="&#x155;" horiz-adv-x="338" 
d="M81 500h58v-75q23 38 61 59.5t90 21.5q8 0 17 -0.5t17 -1.5v-59q-10 2 -20 3t-21 1q-54 0 -91.5 -28t-52.5 -75v-346h-58v500zM344.979 710h-70.9951l-94.9941 -160h48.9971z" />
    <glyph glyph-name="rcaron" unicode="&#x159;" horiz-adv-x="338" 
d="M81 500h58v-75q23 38 61 59.5t90 21.5q8 0 17 -0.5t17 -1.5v-59q-10 2 -20 3t-21 1q-54 0 -91.5 -28t-52.5 -75v-346h-58v500zM48.9971 680.958l26.998 36.998l128.992 -102.993l128.992 102.993l26.998 -36.998l-155.99 -121.992z" />
    <glyph glyph-name="uni0157" unicode="&#x157;" horiz-adv-x="338" 
d="M81 500h58v-75q23 38 61 59.5t90 21.5q8 0 17 -0.5t17 -1.5v-59q-10 2 -20 3t-21 1q-54 0 -91.5 -28t-52.5 -75v-346h-58v500zM76 -50h66l-106 -165h-46z" />
    <glyph glyph-name="sacute" unicode="&#x15b;" horiz-adv-x="413" 
d="M207 -8q-63 0 -106 30t-66 75l47 30q20 -39 49.5 -61t76.5 -22q48 0 78.5 22.5t30.5 59.5q0 39 -25 61.5t-74 39.5l-45 16q-63 23 -88.5 59.5t-25.5 80.5q0 27 10.5 50t30 39.5t47 26t60.5 9.5q48 0 84 -21.5t56 -59.5l-46 -27q-13 25 -35 40.5t-59 15.5q-42 0 -66.5 -20
t-24.5 -53q0 -32 19.5 -54t67.5 -39l47 -17q62 -23 93 -56.5t31 -87.5q0 -29 -11.5 -53.5t-33 -43.5t-52.5 -29.5t-70 -10.5zM348.979 710h-70.9951l-94.9941 -160h48.9971z" />
    <glyph glyph-name="scaron" unicode="&#x161;" horiz-adv-x="413" 
d="M207 -8q-63 0 -106 30t-66 75l47 30q20 -39 49.5 -61t76.5 -22q48 0 78.5 22.5t30.5 59.5q0 39 -25 61.5t-74 39.5l-45 16q-63 23 -88.5 59.5t-25.5 80.5q0 27 10.5 50t30 39.5t47 26t60.5 9.5q48 0 84 -21.5t56 -59.5l-46 -27q-13 25 -35 40.5t-59 15.5q-42 0 -66.5 -20
t-24.5 -53q0 -32 19.5 -54t67.5 -39l47 -17q62 -23 93 -56.5t31 -87.5q0 -29 -11.5 -53.5t-33 -43.5t-52.5 -29.5t-70 -10.5zM52.9971 680.958l26.998 36.998l128.992 -102.993l128.992 102.993l26.998 -36.998l-155.99 -121.992z" />
    <glyph glyph-name="scedilla" unicode="&#x15f;" horiz-adv-x="413" 
d="M207 -8q-63 0 -106 30t-66 75l47 30q20 -39 49.5 -61t76.5 -22q48 0 78.5 22.5t30.5 59.5q0 39 -25 61.5t-74 39.5l-45 16q-63 23 -88.5 59.5t-25.5 80.5q0 27 10.5 50t30 39.5t47 26t60.5 9.5q48 0 84 -21.5t56 -59.5l-46 -27q-13 25 -35 40.5t-59 15.5q-42 0 -66.5 -20
t-24.5 -53q0 -32 19.5 -54t67.5 -39l47 -17q62 -23 93 -56.5t31 -87.5q0 -29 -11.5 -53.5t-33 -43.5t-52.5 -29.5t-70 -10.5zM205 0h43l-78 -165h-65z" />
    <glyph glyph-name="scircumflex" unicode="&#x15d;" horiz-adv-x="413" 
d="M207 -8q-63 0 -106 30t-66 75l47 30q20 -39 49.5 -61t76.5 -22q48 0 78.5 22.5t30.5 59.5q0 39 -25 61.5t-74 39.5l-45 16q-63 23 -88.5 59.5t-25.5 80.5q0 27 10.5 50t30 39.5t47 26t60.5 9.5q48 0 84 -21.5t56 -59.5l-46 -27q-13 25 -35 40.5t-59 15.5q-42 0 -66.5 -20
t-24.5 -53q0 -32 19.5 -54t67.5 -39l47 -17q62 -23 93 -56.5t31 -87.5q0 -29 -11.5 -53.5t-33 -43.5t-52.5 -29.5t-70 -10.5zM366 596l-27 -37l-129 103l-129 -103l-27 37l156 122z" />
    <glyph glyph-name="uni0219" unicode="&#x219;" horiz-adv-x="413" 
d="M207 -8q-63 0 -106 30t-66 75l47 30q20 -39 49.5 -61t76.5 -22q48 0 78.5 22.5t30.5 59.5q0 39 -25 61.5t-74 39.5l-45 16q-63 23 -88.5 59.5t-25.5 80.5q0 27 10.5 50t30 39.5t47 26t60.5 9.5q48 0 84 -21.5t56 -59.5l-46 -27q-13 25 -35 40.5t-59 15.5q-42 0 -66.5 -20
t-24.5 -53q0 -32 19.5 -54t67.5 -39l47 -17q62 -23 93 -56.5t31 -87.5q0 -29 -11.5 -53.5t-33 -43.5t-52.5 -29.5t-70 -10.5zM176 -50h66l-106 -165h-46z" />
    <glyph glyph-name="tcaron" unicode="&#x165;" horiz-adv-x="336" 
d="M255 0q-141 0 -141 141v306h-93l-13 53h106v122l57 28v-150h149l-13 -53h-136v-292q0 -53 19 -77.5t73 -24.5h50v-53h-58zM274 710h58l-43 -167h-42z" />
    <glyph glyph-name="uni0163" unicode="&#x163;" horiz-adv-x="336" 
d="M255 0q-141 0 -141 141v306h-93l-13 53h106v122l57 28v-150h149l-13 -53h-136v-292q0 -53 19 -77.5t73 -24.5h50v-53h-58zM177 -50h66l-106 -165h-46z" />
    <glyph glyph-name="uni021B" unicode="&#x21b;" horiz-adv-x="336" 
d="M255 0q-141 0 -141 141v306h-93l-13 53h106v122l57 28v-150h149l-13 -53h-136v-292q0 -53 19 -77.5t73 -24.5h50v-53h-58zM177 -50h66l-106 -165h-46z" />
    <glyph glyph-name="ubreve" unicode="&#x16d;" horiz-adv-x="579" 
d="M440 78q-27 -42 -71 -64t-98 -22q-92 0 -144 55t-52 148v305h57v-300q0 -69 39.5 -111.5t109.5 -42.5q61 0 101.5 32t57.5 85v337h57v-500h-57v78zM287 580q-69 0 -106.5 36.5t-41.5 93.5h45q5 -42 31 -65t72 -23q47 0 72.5 23t30.5 65h46q-4 -57 -41.5 -93.5
t-107.5 -36.5z" />
    <glyph glyph-name="uhungarumlaut" unicode="&#x171;" horiz-adv-x="579" 
d="M440 78q-27 -42 -71 -64t-98 -22q-92 0 -144 55t-52 148v305h57v-300q0 -69 39.5 -111.5t109.5 -42.5q61 0 101.5 32t57.5 85v337h57v-500h-57v78zM283 710h66l-116 -161h-45zM448 710h66l-116 -161h-45z" />
    <glyph glyph-name="umacron" unicode="&#x16b;" horiz-adv-x="579" 
d="M440 78q-27 -42 -71 -64t-98 -22q-92 0 -144 55t-52 148v305h57v-300q0 -69 39.5 -111.5t109.5 -42.5q61 0 101.5 32t57.5 85v337h57v-500h-57v78zM144 679h286v-45h-286v45z" />
    <glyph glyph-name="uogonek" unicode="&#x173;" horiz-adv-x="579" 
d="M440 78q-27 -42 -71 -64t-98 -22q-92 0 -144 55t-52 148v305h57v-300q0 -69 39.5 -111.5t109.5 -42.5q61 0 101.5 32t57.5 85v337h57v-500h-57v78zM451 -192q-18 0 -35.5 5.5t-30.5 16t-21 26t-8 36.5q0 19 7.5 36t19.5 31.5t27 25.5t30 18l57 -3q-37 -16 -60.5 -41.5
t-23.5 -54.5q0 -26 16 -38.5t40 -12.5q12 0 22.5 3t16.5 7v-42q-12 -8 -27 -10.5t-30 -2.5z" />
    <glyph glyph-name="uring" unicode="&#x16f;" horiz-adv-x="579" 
d="M440 78q-27 -42 -71 -64t-98 -22q-92 0 -144 55t-52 148v305h57v-300q0 -69 39.5 -111.5t109.5 -42.5q61 0 101.5 32t57.5 85v337h57v-500h-57v78zM287 577q-38 0 -64.5 25.5t-26.5 62.5q0 38 26.5 63t64.5 25t64.5 -25t26.5 -63q0 -37 -26.5 -62.5t-64.5 -25.5zM287 611
q23 0 38.5 15.5t15.5 38.5t-15.5 38.5t-38.5 15.5t-38.5 -15.5t-15.5 -38.5t15.5 -38.5t38.5 -15.5z" />
    <glyph glyph-name="utilde" unicode="&#x169;" horiz-adv-x="579" 
d="M440 78q-27 -42 -71 -64t-98 -22q-92 0 -144 55t-52 148v305h57v-300q0 -69 39.5 -111.5t109.5 -42.5q61 0 101.5 32t57.5 85v337h57v-500h-57v78zM123 588q8 42 34 65t58 23q22 0 41 -9t36 -19.5t32.5 -19t31.5 -8.5q24 0 36.5 14.5t17.5 41.5h45l-2 -15q-8 -40 -33 -64
t-60 -24q-22 0 -40.5 8.5t-35 19t-33 19.5t-33.5 9q-23 0 -35 -14.5t-17 -41.5h-46z" />
    <glyph glyph-name="uni1EE5" unicode="&#x1ee5;" horiz-adv-x="579" 
d="M440 78q-27 -42 -71 -64t-98 -22q-92 0 -144 55t-52 148v305h57v-300q0 -69 39.5 -111.5t109.5 -42.5q61 0 101.5 32t57.5 85v337h57v-500h-57v78zM280 -183q-22 0 -37 15t-15 37t15 37t37 15t37 -15t15 -37t-15 -37t-37 -15z" />
    <glyph glyph-name="wacute" unicode="&#x1e83;" horiz-adv-x="717" 
d="M13 500h60l134 -402l152 410l152 -412l133 404h60l-168 -502h-40l-137 370l-137 -370h-40zM497.97 710h-70.9961l-94.9941 -160h48.9971z" />
    <glyph glyph-name="wcircumflex" unicode="&#x175;" horiz-adv-x="717" 
d="M13 500h60l134 -402l152 410l152 -412l133 404h60l-168 -502h-40l-137 370l-137 -370h-40zM515 596l-27 -37l-129 103l-129 -103l-27 37l156 122z" />
    <glyph glyph-name="wdieresis" unicode="&#x1e85;" horiz-adv-x="717" 
d="M13 500h60l134 -402l152 410l152 -412l133 404h60l-168 -502h-40l-137 370l-137 -370h-40zM469 580q-22 0 -37 15t-15 37t15 37t37 15t37 -15t15 -37t-15 -37t-37 -15zM249 580q-22 0 -37 15t-15 37t15 37t37 15t37 -15t15 -37t-15 -37t-37 -15z" />
    <glyph glyph-name="wgrave" unicode="&#x1e81;" horiz-adv-x="717" 
d="M13 500h60l134 -402l152 410l152 -412l133 404h60l-168 -502h-40l-137 370l-137 -370h-40zM225 710h71l95 -160h-49z" />
    <glyph glyph-name="ycircumflex" unicode="&#x177;" horiz-adv-x="511" 
d="M226 27l-218 473h62l186 -410l188 410h62l-318 -684h-62zM414 596l-27 -37l-129 103l-129 -103l-27 37l156 122z" />
    <glyph glyph-name="ygrave" unicode="&#x1ef3;" horiz-adv-x="511" 
d="M226 27l-218 473h62l186 -410l188 410h62l-318 -684h-62zM124 710h71l95 -160h-49z" />
    <glyph glyph-name="uni0233" unicode="&#x233;" horiz-adv-x="511" 
d="M226 27l-218 473h62l186 -410l188 410h62l-318 -684h-62zM115 679h286v-45h-286v45z" />
    <glyph glyph-name="zacute" unicode="&#x17a;" horiz-adv-x="481" 
d="M350 447h-300v53h404l-334 -447h325v-53h-429zM391.977 710h-70.9961l-94.9941 -160h48.9971z" />
    <glyph glyph-name="zcaron" unicode="&#x17e;" horiz-adv-x="481" 
d="M350 447h-300v53h404l-334 -447h325v-53h-429zM95.9941 680.958l26.998 36.998l128.992 -102.993l128.992 102.993l26.998 -36.998l-155.99 -121.992z" />
    <glyph glyph-name="zdotaccent" unicode="&#x17c;" horiz-adv-x="481" 
d="M350 447h-300v53h404l-334 -447h325v-53h-429zM253 580q-22 0 -37 15t-15 37t15 37t37 15t37 -15t15 -37t-15 -37t-37 -15z" />
    <glyph glyph-name="ellipsis" unicode="&#x2026;" horiz-adv-x="732" 
d="M122 -8q-25 0 -42 18t-17 41q0 25 17 43t42 18t42 -18t17 -43q0 -23 -17 -41t-42 -18zM366 -9q-25 0 -42 18t-17 41q0 25 17 43t42 18t42 -18t17 -43q0 -23 -17 -41t-42 -18zM610 -9q-25 0 -42 18t-17 41q0 25 17 43t42 18t42 -18t17 -43q0 -23 -17 -41t-42 -18z" />
    <glyph glyph-name="endash" unicode="&#x2013;" horiz-adv-x="566" 
d="M71 299h423v-54h-423v54z" />
    <glyph glyph-name="emdash" unicode="&#x2014;" horiz-adv-x="867" 
d="M71 299h725v-54h-725v54z" />
    <glyph glyph-name="guilsinglleft" unicode="&#x2039;" horiz-adv-x="296" 
d="M48 250l150 218l42 -29l-130 -189l130 -189l-42 -29z" />
    <glyph glyph-name="guilsinglright" unicode="&#x203a;" horiz-adv-x="296" 
d="M56 61l130 189l-130 189l42 29l150 -218l-150 -218z" />
    <glyph glyph-name="quoteleft" unicode="&#x2018;" horiz-adv-x="221" 
d="M103 570h42v-103h-96v104l54 137h44z" />
    <glyph glyph-name="quoteright" unicode="&#x2019;" horiz-adv-x="216" 
d="M123 596h-42v103h96v-104l-54 -137h-44z" />
    <glyph glyph-name="quotedblleft" unicode="&#x201c;" horiz-adv-x="411" 
d="M103 570h42v-103h-96v104l54 137h44zM293 570h42v-103h-96v104l54 137h44z" />
    <glyph glyph-name="quotedblright" unicode="&#x201d;" horiz-adv-x="406" 
d="M123 596h-42v103h96v-104l-54 -137h-44zM313 596h-42v103h96v-104l-54 -137h-44z" />
    <glyph glyph-name="quotesinglbase" unicode="&#x201a;" horiz-adv-x="225" 
d="M114 0h-42v103h96v-104l-54 -137h-44z" />
    <glyph glyph-name="quotedblbase" unicode="&#x201e;" horiz-adv-x="415" 
d="M114 0h-42v103h96v-104l-54 -137h-44zM304 0h-42v103h96v-104l-54 -137h-44z" />
    <glyph glyph-name="bullet" unicode="&#x2022;" horiz-adv-x="430" 
d="M215 166q-28 0 -53 10.5t-43.5 29t-29 43.5t-10.5 53t10.5 53t29 43.5t43.5 29t53 10.5t53 -10.5t43.5 -29t29 -43.5t10.5 -53t-10.5 -53t-29 -43.5t-43.5 -29t-53 -10.5z" />
    <glyph glyph-name="minus" unicode="&#x2212;" horiz-adv-x="590" 
d="M76 297h438v-48h-438v48z" />
    <glyph glyph-name="Euro" unicode="&#x20ac;" horiz-adv-x="757" 
d="M54 293h104q-2 15 -3.5 30.5t-1.5 31.5q0 25 3 51h-119l17 51h112q16 58 48.5 106t78 82.5t102 53.5t119.5 19q61 0 110.5 -15t92.5 -44l-21 -51q-38 26 -83 41.5t-99 15.5t-100.5 -16t-83.5 -44t-63.5 -66t-40.5 -82h423l-17 -51h-418q-4 -23 -4 -51q0 -32 6 -62h377
l-17 -50h-347q16 -44 43 -80.5t64 -62.5t82 -40.5t96 -14.5q53 0 100 15t82 40v-57q-29 -20 -76.5 -35.5t-105.5 -15.5q-62 0 -117 18.5t-100 51.5t-78 79t-50 102h-132z" />
    <glyph glyph-name="uniFB01" unicode="&#xfb01;" horiz-adv-x="551" 
d="M124 447h-106v53h104q-21 16 -33.5 39.5t-12.5 51.5q0 53 38.5 86t105.5 33h99v-52h-95q-42 0 -67 -20.5t-25 -57.5q0 -36 25.5 -57.5t63.5 -22.5h99v-53h-139v-447h-57v447zM412 500h58v-500h-58v500zM413 627q-10 7 -16 17.5t-6 23.5q0 20 15 35t36 15q20 0 35 -15
t15 -35q0 -13 -6 -23.5t-16 -17.5h-57z" />
    <glyph glyph-name="uniFB02" unicode="&#xfb02;" horiz-adv-x="551" 
d="M124 447h-106v53h104q-21 16 -33.5 39.5t-12.5 51.5q0 53 38.5 86t105.5 33h99v-52h-95q-42 0 -67 -20.5t-25 -57.5q0 -36 25.5 -57.5t63.5 -22.5h99v-53h-139v-447h-57v447zM412 710h58v-710h-58v710z" />
    <glyph glyph-name="glyph329" horiz-adv-x="1" 
d="M-28 627q-10 7 -16 17.5t-6 23.5q0 20 15 35t36 15q20 0 35 -15t15 -35q0 -13 -6 -23.5t-16 -17.5h-57z" />
    <glyph glyph-name="breve" unicode="&#x2d8;" 
d="M0 580q-69 0 -106.5 36.5t-41.5 93.5h45q5 -42 31 -65t72 -23q47 0 72.5 23t30.5 65h46q-4 -57 -41.5 -93.5t-107.5 -36.5z" />
    <glyph glyph-name="caron" unicode="&#x2c7;" 
d="M-155.99 680.958l26.998 36.998l128.992 -102.993l128.992 102.993l26.998 -36.998l-155.99 -121.992z" />
    <glyph glyph-name="circumflex" unicode="&#x2c6;" 
d="M156 596l-27 -37l-129 103l-129 -103l-27 37l156 122z" />
    <glyph glyph-name="dotaccent" unicode="&#x2d9;" 
d="M0 580q-22 0 -37 15t-15 37t15 37t37 15t37 -15t15 -37t-15 -37t-37 -15z" />
    <glyph glyph-name="hungarumlaut" unicode="&#x2dd;" 
d="M-67 710h66l-116 -161h-45zM98 710h66l-116 -161h-45z" />
    <glyph glyph-name="glyph335" 
d="M-12 -50h66l-106 -165h-46z" />
    <glyph glyph-name="ogonek" unicode="&#x2db;" 
d="M19 -192q-18 0 -35.5 5.5t-30.5 16t-21 26t-8 36.5q0 19 7.5 36t19.5 31.5t27 25.5t30 18l57 -3q-37 -16 -60.5 -41.5t-23.5 -54.5q0 -26 16 -38.5t40 -12.5q12 0 22.5 3t16.5 7v-42q-12 -8 -27 -10.5t-30 -2.5z" />
    <glyph glyph-name="ring" unicode="&#x2da;" 
d="M0 577q-38 0 -64.5 25.5t-26.5 62.5q0 38 26.5 63t64.5 25t64.5 -25t26.5 -63q0 -37 -26.5 -62.5t-64.5 -25.5zM0 611q23 0 38.5 15.5t15.5 38.5t-15.5 38.5t-38.5 15.5t-38.5 -15.5t-15.5 -38.5t15.5 -38.5t38.5 -15.5z" />
    <glyph glyph-name="tilde" unicode="&#x2dc;" 
d="M-164 588q8 42 34 65t58 23q22 0 41 -9t36 -19.5t32.5 -19t31.5 -8.5q24 0 36.5 14.5t17.5 41.5h45l-2 -15q-8 -40 -33 -64t-60 -24q-22 0 -40.5 8.5t-35 19t-33 19.5t-33.5 9q-23 0 -35 -14.5t-17 -41.5h-46z" />
    <glyph glyph-name="glyph339" 
d="M-15 710h58l-43 -167h-42z" />
    <glyph glyph-name="glyph340" 
d="M-110 580q-22 0 -37 15t-15 37t15 37t37 15t37 -15t15 -37t-15 -37t-37 -15zM110 580q-22 0 -37 15t-15 37t15 37t37 15t37 -15t15 -37t-15 -37t-37 -15z" />
    <glyph glyph-name="glyph341" 
d="M-156 634h313v-45h-313v45z" />
    <glyph glyph-name="glyph342" 
d="M-148 296l271 180l25 -39l-271 -180z" />
    <glyph glyph-name="glyph343" 
d="M0 776q-68 0 -106 36.5t-42 93.5h44q5 -42 31.5 -65.5t72.5 -23.5q47 0 73.5 23.5t31.5 65.5h44q-4 -57 -42 -93.5t-107 -36.5z" />
    <glyph glyph-name="glyph344" 
d="M-169 810l169 117l169 -117l-25 -40l-144 103l-144 -103z" />
    <glyph glyph-name="glyph345" 
d="M-106 913h71l92 -145h-51z" />
    <glyph glyph-name="glyph346" 
d="M-88 913h68l-112 -145h-47zM112 913h68l-112 -145h-47z" />
    <glyph glyph-name="glyph347" 
d="M-143 860h286v-45h-286v45z" />
    <glyph glyph-name="glyph348" 
d="M21 -192q-19 0 -36.5 5.5t-31 16t-21.5 26t-8 36.5q0 19 7.5 36t19 31.5t26.5 25.5t30 18l59 -3q-37 -16 -60.5 -41.5t-23.5 -54.5q0 -26 16.5 -38.5t39.5 -12.5q13 0 23 3t16 7v-42q-11 -8 -26.5 -10.5t-29.5 -2.5z" />
    <glyph glyph-name="glyph349" 
d="M-166 386h333v-51h-333v51z" />
    <glyph glyph-name="glyph350" 
d="M-189 260l351 234l28 -43l-351 -233z" />
    <glyph glyph-name="glyph351" 
d="M-344 577h688v-50h-688v50z" />
    </font>
</defs>
</svg>
