<svg xmlns="http://www.w3.org/2000/svg"><defs><font horiz-adv-x="0"><font-face ascent="800" bbox="-264 -215 1139 986" cap-height="710" descent="-200" panose-1="2 11 7 4 0 0 0 0 0 0" slope="-12" underline-position="-140" underline-thickness="100" unicode-range="U+000D-FB02" x-height="500"/><missing-glyph d="M4 19l147 691h496l-4-19-147-691h-496zM325 370l281 321h-429zM25 29l288 328-149 325zM483 28l139 653-289-329zM40 19h429l-147 320z" horiz-adv-x="496"/><glyph d="M4 19l147 691h496l-4-19-147-691h-496zM325 370l281 321h-429zM25 29l288 328-149 325zM483 28l139 653-289-329zM40 19h429l-147 320z" glyph-name=".notdef" horiz-adv-x="496"/><glyph glyph-name="glyph1"/><glyph glyph-name="uni000D" horiz-adv-x="229" unicode="&#xd;"/><glyph glyph-name="space" horiz-adv-x="229" unicode="&#x20;"/><glyph d="M116 441l58 269h138l-58-269-68-195h-84zM102-8q-18 0-35 6.5t-29.5 18-20 26.5-7.5 33q0 29 14 53t38 41h128q11-11 17.5-29t6.5-38q-1-52-32-81.5t-80-29.5z" glyph-name="exclam" horiz-adv-x="293" unicode="&#x21;"/><glyph d="M123 710h116v-288h-116v288zM325 710h116v-288h-116v288z" glyph-name="quotedbl" horiz-adv-x="441" unicode="&#x22;"/><glyph d="M74 0l58 185h-91v105h123l41 131h-91v105h124l57 184h117l-57-184h142l57 184h117l-57-184h90v-105h-123l-41-131h91v-105h-123l-58-185h-117l58 185h-142l-58-185h-117zM423 290l41 131h-142l-41-131h142z" glyph-name="numbersign" horiz-adv-x="700" unicode="&#x23;"/><glyph d="M187-1q-38 8-67 25t-51 39-36.5 47-21.5 49l128 60q18-54 46-77t75-23q44 0 66.5 21t22.5 50q0 13-3.5 24t-11 23-21.5 24.5-35 28.5l-42 31q-57 46-88.5 92t-31.5 109q0 45 16 81t45 61.5 70 39 91 13.5l18 81h83l-21-93q26-8 47-21t37-29 27.5-33 19.5-33l-127-59q-18 35-41 48.5t-52 13.5q-28 0-51-14.5t-23-49.5q0-13 4-25.5t13-25 23.5-26.5 36.5-31l42-30q24-18 45-38t37-43 25.5-50 9.5-60q0-40-13-76t-40-64-69-45.5-100-20.5l-18-81h-83z" glyph-name="dollar" horiz-adv-x="540" unicode="&#x24;"/><glyph d="M413 593q0-29-11-56t-31-47.5-48.5-33-62.5-12.5q-30 0-53.5 10.5t-39 27.5-24 40-8.5 47q0 29 10.5 56t30.5 47.5 48 33 63 12.5q30 0 53.5-10.5t39.5-27.5 24.5-40 8.5-47zM223 576q0-19 12.5-32.5t32.5-13.5q26 0 41 16t15 39q0 20-12 33.5t-33 13.5q-26 0-41-16.5t-15-39.5zM85 407h303l-22-104h-303zM317 140q0-29-11-55.5t-31-47-48.5-33-62.5-12.5q-30 0-53.5 10.5t-39 27.5-24 40-8.5 47q0 29 10.5 55.5t30.5 47 48 33 63 12.5q30 0 53.5-10.5t39.5-27.5 24.5-40 8.5-47zM127 124q0-20 12.5-33t32.5-13q26 0 41 16t15 39q0 20-12 33.5t-33 13.5q-26 0-41-16.5t-15-39.5z" glyph-name="percent" horiz-adv-x="407" unicode="&#x25;"/><glyph d="M410 59q-36-35-79-51t-91-16q-51 0-90 18t-65.5 47-40.5 67-14 79q0 42 12.5 83t39 74.5 66.5 57 95 31.5q25 4 57 3l-73 258h397l-26-120h-198l167-590h-140zM165 215q0-38 22.5-66.5t65.5-28.5q25 0 45.5 9t34.5 24 22 35 8 42q0 38-22.5 66.5t-65.5 28.5q-25 0-45.5-9t-34.5-24-22-35-8-42z" glyph-name="ampersand" horiz-adv-x="610" unicode="&#x26;"/><glyph d="M123 710h116v-288h-116v288z" glyph-name="quotesingle" horiz-adv-x="239" unicode="&#x27;"/><glyph d="M71-159q-9 29-16 65.5t-11.5 75.5-6.5 77-2 70q0 168 58 323t174 308l108-53q-51-71-92-139t-69-136-43-138.5-15-145.5q0-29 1.5-63t5-69 8.5-69 11-62z" glyph-name="parenleft" horiz-adv-x="297" unicode="&#x28;"/><glyph d="M248 759q9-29 15.5-65.5t11-75.5 7-77.5 2.5-69.5q0-168-58-323t-174-308l-108 53q51 71 92 139t69 136 43 138.5 15 145.5q0 29-1.5 63t-5 69-8.5 68.5-11 62.5z" glyph-name="parenright" horiz-adv-x="298" unicode="&#x29;"/><glyph d="M143 356l87 118-141 46 30 90 140-46v146h94v-146l140 46 29-89-139-47 87-118-77-55-86 117-88-117z" glyph-name="asterisk" horiz-adv-x="502" unicode="&#x2a;"/><glyph d="M83 333h166v164h104v-164h166v-105h-166v-165h-104v165h-166v105z" glyph-name="plus" horiz-adv-x="590" unicode="&#x2b;"/><glyph d="M76 0h-63l34 163h163l-35-163-95-151h-80z" glyph-name="comma" horiz-adv-x="279" unicode="&#x2c;"/><glyph d="M79 346h275l-28-132h-275z" glyph-name="hyphen" horiz-adv-x="392" unicode="&#x2d;"/><glyph d="M116-8q-21 0-39.5 8t-32 21.5-21.5 32-8 39.5 8 39 21.5 31.5 32 21.5 39.5 8q42 0 71-29t29-71q0-21-8-39.5t-21.5-32-31.5-21.5-39-8z" glyph-name="period" horiz-adv-x="279" unicode="&#x2e;"/><glyph d="M315 710h124l-333-710h-124z" glyph-name="slash" horiz-adv-x="376" unicode="&#x2f;"/><glyph d="M805 385q0-75-26.5-146t-78-125.5-127.5-88-174-33.5q-77 0-138.5 27.5t-104.5 74-66.5 106.5-23.5 125q0 75 26.5 146t78.5 125.5 128 88 174 33.5q76 0 137.5-27.5t105-74 66.5-106.5 23-125zM205 337q0-43 13-82t38.5-69 64-48 89.5-18q60 0 108 20.5t81.5 55 51 80.5 17.5 97q0 43-13 82t-38.5 69-64 48-89.5 18q-61 0-109-20.5t-81-55-50.5-80.5-17.5-97z" glyph-name="zero" horiz-adv-x="825" unicode="&#x30;"/><glyph d="M145 580l168 138-153-718h-138z" glyph-name="one" horiz-adv-x="294" unicode="&#x31;"/><glyph d="M262 277l-5 1q-36 9-64 27.5t-47 44-28.5 57-9.5 65.5q0 47 18 91t51 78.5 80.5 55.5 106.5 21q50 0 88.5-17.5t65-46.5 40-67 13.5-78q0-34-9.5-63.5t-25.5-56-37-51-44-46.5l-171-164h231l-27-128h-513zM242 484q0-38 22.5-65.5t65.5-27.5q24 0 44 8.5t34 23 21.5 34 7.5 41.5q0 37-22.5 64.5t-64.5 27.5q-50 0-79-31.5t-29-74.5z" glyph-name="two" horiz-adv-x="585" unicode="&#x32;"/><glyph d="M477 249q0-49-15.5-95.5t-48.5-82.5-83-57.5-119-21.5q-77 0-127.5 34.5t-73.5 89.5l117 68q11-29 35-46.5t62-17.5q28 0 50 9.5t38 25 24.5 37 8.5 45.5q0 21-7 39.5t-22 32.5-38 22-55 8h-70l172 243h-215l27 128h420l-193-273q30-13 51.5-33.5t35-45.5 20-53 6.5-56z" glyph-name="three" horiz-adv-x="525" unicode="&#x33;"/><glyph d="M349 168h-365l621 550-91-429h71l-26-121h-71l-36-168h-138zM375 289l24 112-127-112h103z" glyph-name="four" horiz-adv-x="616" unicode="&#x34;"/><glyph d="M490 249q0-50-16-96.5t-49-82-83.5-57-118.5-21.5q-72 0-124 32.5t-81 83.5l111 77q13-29 42-47t65-18q28 0 50.5 9.5t38.5 25 24.5 37 8.5 45.5q0 21-6.5 39.5t-19 32.5-30.5 22-41 8q-33 0-57.5-12.5t-39.5-33.5l-90 40 90 377h372l-27-128h-241l-28-118q21 3 34 3 52 0 92.5-18t68-48.5 41.5-70 14-81.5z" glyph-name="five" horiz-adv-x="533" unicode="&#x35;"/><glyph d="M518 249q0-50-16-96t-49-82-83.5-57.5-118.5-21.5q-52 0-92 18t-67.5 48-42 69.5-14.5 82.5 13 86.5 52 93.5l250 320h161l-192-245q7 0 13.5-1t14.5-3q42-8 74-28t53.5-49 32.5-64 11-71zM167 221q0-42 25.5-71.5t71.5-29.5q28 0 50.5 9.5t38.5 25 24.5 37 8.5 45.5q0 21-6.5 39.5t-19 32.5-30.5 22-41 8q-28 0-50.5-9.5t-38.5-25.5-24.5-37.5-8.5-45.5z" glyph-name="six" horiz-adv-x="554" unicode="&#x36;"/><glyph d="M383 582h-274l27 128h487l-477-710h-155z" glyph-name="seven" horiz-adv-x="529" unicode="&#x37;"/><glyph d="M520 545q0-38-13.5-75.5t-47.5-69.5q32-30 47-68t15-74q0-53-16.5-101t-49-84.5-80-58.5-110.5-22q-50 0-91.5 16.5t-71.5 45-46.5 66.5-16.5 81q0 66 29 126.5t94 98.5q-16 26-21.5 47t-5.5 41q0 37 12.5 73.5t38 65.5 64 47 90.5 18q42 0 75-14.5t56.5-38.5 36-55 12.5-65zM266 522q0-23 15-40t43-17q32 0 49 21.5t17 49.5q0 24-15.5 39.5t-42.5 15.5q-32 0-49-21t-17-48zM171 217q0-42 27-69.5t74-27.5q28 0 49.5 10t36.5 26.5 23 39 8 46.5q0 42-26 69.5t-72 27.5q-27 0-49.5-9.5t-38-26-24-39-8.5-47.5z" glyph-name="eight" horiz-adv-x="565" unicode="&#x38;"/><glyph d="M81 461q0 49 16 95.5t49 82.5 83.5 57.5 118.5 21.5q52 0 92-18t67.5-48 42-69.5 14.5-82.5-13-86.5-52-93.5l-250-320h-161l192 245q-7 0-13.5 1t-14.5 3q-42 7-74 27.5t-53.5 49.5-32.5 64-11 71zM432 489q0 42-25.5 71.5t-71.5 29.5q-28 0-50.5-9.5t-38.5-25-24.5-37-8.5-45.5q0-21 6.5-39.5t19-32.5 30.5-22 41-8q28 0 50.5 9.5t38.5 25.5 24.5 37.5 8.5 45.5z" glyph-name="nine" horiz-adv-x="555" unicode="&#x39;"/><glyph d="M120-8q-21 0-39.5 8t-32 21.5-21.5 32-8 39.5 8 39 21.5 31.5 32 21.5 39.5 8q42 0 71-29t29-71q0-21-8-39.5t-21.5-32-31.5-21.5-39-8zM187 307q-21 0-39.5 8t-32 21.5-21.5 32-8 39.5 8 39 21.5 31.5 32 21.5 39.5 8 39-8 31.5-21.5 21.5-31.5 8-39-8-39.5-21.5-32-31.5-21.5-39-8z" glyph-name="colon" horiz-adv-x="306" unicode="&#x3a;"/><glyph d="M187 307q-21 0-39.5 8t-32 21.5-21.5 32-8 39.5 8 39 21.5 31.5 32 21.5 39.5 8 39-8 31.5-21.5 21.5-31.5 8-39-8-39.5-21.5-32-31.5-21.5-39-8zM81 0h-63l34 163h163l-35-163-95-151h-80z" glyph-name="semicolon" horiz-adv-x="304" unicode="&#x3b;"/><glyph d="M80 437h438v-104h-438v104zM80 228h438v-104h-438v104z" glyph-name="equal" horiz-adv-x="590" unicode="&#x3d;"/><glyph d="M230 391h51q67 0 99 31.5t32 74.5q0 37-22.5 65t-64.5 28q-51 0-78.5-31t-28.5-73h-134q2 46 20 88t51 74 79.5 51 104.5 19q50 0 88.5-17.5t65-47 40.5-67.5 14-78q0-47-17.5-91t-52-78.5-85-55-116.5-20.5h-73zM315 170q11-11 16.5-29t5.5-38q0-26-9.5-46.5t-26-35-38-22-45.5-7.5q-37 0-61 24.5t-24 59.5q0 29 15 53t39 41h128z" glyph-name="question" horiz-adv-x="541" unicode="&#x3f;"/><glyph d="M412-8q-81 0-145.5 27t-110 73.5-69.5 109.5-24 135q0 85 31.5 155.5t84.5 120.5 123.5 77.5 147.5 27.5q73 0 136-22t109-62.5 72-98 26-129.5q0-65-15.5-111.5t-41.5-75.5-59-42.5-67-13.5q-33 0-58 14t-42 35q-28-24-60-35.5t-64-11.5q-40 0-70.5 13.5t-51.5 37-31.5 55-10.5 66.5q0 45 16 85t44.5 70 68.5 47 88 17q30 0 53.5-7.5t41.5-21.5l4 19h90l-48-224q-7-33 3-56t42-23q40 0 64 38.5t24 126.5q0 58-21.5 102t-57.5 73-84 43.5-101 14.5q-60 0-114.5-20.5t-96-59.5-66.5-95.5-25-128.5q0-59 18.5-108t52.5-84 83-54 111-19q45 0 90.5 10t86.5 31l32-77q-47-21-103.5-32.5t-105.5-11.5zM320 345q0-42 21-67t62-25q24 0 45 9t35 26q0 6 1 9l30 140q-14 17-34 24.5t-41 7.5q-25 0-47-9.5t-38-26-25-39-9-49.5z" glyph-name="at" horiz-adv-x="791" unicode="&#x40;"/><glyph d="M451 126h-271l-86-126h-162l502 718 195-718h-146zM420 246l-43 169-115-169h158z" glyph-name="A" horiz-adv-x="668" unicode="&#x41;"/><glyph d="M178 710h218q51 0 91-15t67-40 41-57.5 14-66.5q0-49-22.5-93t-65.5-73q35-20 55.5-53.5t20.5-84.5q0-49-18-90.5t-53-72-87.5-47.5-122.5-17h-289zM354 418q54 0 82.5 26.5t28.5 64.5q0 28-20 48t-59 20h-93l-34-159h95zM331 134q60 0 91 26t31 64q0 29-20.5 50.5t-61.5 21.5h-138l-35-162h133z" glyph-name="B" horiz-adv-x="642" unicode="&#x42;"/><glyph d="M691 110q-52-57-127-87.5t-168-30.5q-78 0-139.5 27.5t-104.5 74-66 107-23 127.5q0 75 26.5 145t78 124.5 128 87.5 175.5 33q97 0 168.5-40t112.5-105l-119-85q-26 39-71.5 64.5t-104.5 25.5q-56 0-102-19t-78.5-51.5-50-75.5-17.5-91q0-42 12-79.5t37-66.5 62-46 87-17q60 0 107 22t79 59z" glyph-name="C" horiz-adv-x="721" unicode="&#x43;"/><glyph d="M178 710h223q73 0 131.5-24.5t99.5-65.5 62.5-94.5 21.5-112.5q0-103-33.5-180.5t-92-129-138.5-77.5-174-26h-251zM289 133q58 0 109 18.5t88.5 52 59.5 81 22 105.5q0 39-12 73.5t-35 59.5-57 39.5-77 14.5h-92l-95-444h89z" glyph-name="D" horiz-adv-x="732" unicode="&#x44;"/><glyph d="M178 710h434l-31-143h-289l-30-140h230l-30-140h-230l-30-144h290l-31-143h-434z" glyph-name="E" horiz-adv-x="562" unicode="&#x45;"/><glyph d="M178 710h417l-31-143h-272l-30-140h211l-30-140h-210l-61-287h-145z" glyph-name="F" horiz-adv-x="530" unicode="&#x46;"/><glyph d="M677 79q-50-39-120.5-63t-161.5-24q-77 0-138.5 27t-104.5 72.5-66 104.5-23 123q0 78 25.5 150t76.5 127.5 127.5 88.5 178.5 33q96 0 169-40t115-105l-119-85q-26 39-73.5 64.5t-104.5 25.5q-59 0-105.5-19.5t-78-52.5-48-77.5-16.5-95.5q0-40 12.5-76.5t37-64 61.5-44 86-16.5q47 0 83 8.5t65 28.5l26 119h-177l90 137h256z" glyph-name="G" horiz-adv-x="764" unicode="&#x47;"/><glyph d="M178 710h145l-61-283h308l60 283h145l-151-710h-145l61 287h-307l-61-287h-145z" glyph-name="H" horiz-adv-x="757" unicode="&#x48;"/><glyph d="M178 710h146l-151-710h-146z" glyph-name="I" horiz-adv-x="306" unicode="&#x49;"/><glyph d="M442 202q-12-56-31-96t-48-65.5-69.5-37-95.5-11.5q-47 0-86.5 18t-66 49-37.5 72.5-1 88.5h145q-9-47 8.5-71.5t51.5-24.5 54.5 18 31.5 68l107 500h145z" glyph-name="J" horiz-adv-x="527" unicode="&#x4a;"/><glyph d="M178 710h145l-75-354 336 354h174l-355-375 213-335h-160l-213 333-71-333h-145z" glyph-name="K" horiz-adv-x="663" unicode="&#x4b;"/><glyph d="M178 710h146l-121-566h285l-31-144h-430z" glyph-name="L" horiz-adv-x="529" unicode="&#x4c;"/><glyph d="M180 718l259-365 443 365-152-718h-145l79 372-250-207-159 226-83-391h-145z" glyph-name="M" horiz-adv-x="863" unicode="&#x4d;"/><glyph d="M260 416l-88-416h-145l153 718 369-425 88 417h145l-153-718z" glyph-name="N" horiz-adv-x="764" unicode="&#x4e;"/><glyph d="M802 385q0-75-26.5-146t-78-125.5-127.5-88-175-33.5q-77 0-138 27.5t-104.5 74-66.5 106.5-23 125q0 75 26.5 146t78 125.5 127 88 174.5 33.5q76 0 138-27.5t105-74 66.5-106.5 23.5-125zM209 338q0-41 12.5-78t37.5-65.5 62-45.5 86-17q57 0 102.5 19.5t78 52.5 50 76.5 17.5 91.5q0 40-12.5 77.5t-37.5 66-62 45.5-86 17q-57 0-102.5-19.5t-78-52.5-50-76.5-17.5-91.5z" glyph-name="O" horiz-adv-x="820" unicode="&#x4f;"/><glyph d="M178 710h188q55 0 99-16.5t75-44 47.5-65 16.5-79.5q0-56-17-104.5t-53.5-84.5-93.5-56.5-136-20.5h-82l-50-239h-145zM329 374q57 0 93.5 31.5t36.5 81.5q0 35-23 61t-74 26h-68l-43-200h78z" glyph-name="P" horiz-adv-x="585" unicode="&#x50;"/><glyph d="M802 385q0-64-19-124.5t-56-111.5l92-92-93-93-94 94q-48-31-106.5-48.5t-130.5-17.5q-77 0-138 27.5t-104.5 74-66.5 106.5-23 125q0 75 26.5 146t78 125.5 127 88 174.5 33.5q76 0 138-27.5t105-74 66.5-106.5 23.5-125zM524 353l100-101q31 56 31 120 0 40-12.5 77.5t-37.5 66-62 45.5-86 17q-57 0-102.5-19.5t-78-52.5-50-76.5-17.5-91.5q0-41 12.5-78t37.5-65.5 62-45.5 86-17q68 0 122 28l-98 99z" glyph-name="Q" horiz-adv-x="834" unicode="&#x51;"/><glyph d="M256 294h-23l-62-294h-144l151 710h220q50 0 89-15.5t66-41.5 41.5-59.5 14.5-69.5q0-48-15-86t-41.5-66.5-64-47-82.5-25.5l165-299h-154zM357 417q47 0 77.5 24.5t30.5 65.5q0 30-20 50.5t-55 20.5h-96l-34-161h97z" glyph-name="R" horiz-adv-x="635" unicode="&#x52;"/><glyph d="M500 207q0-47-16.5-86t-47.5-68-76-45-101-16q-91 0-152.5 44t-91.5 114l127 73q19-48 48-72t75-24q36 0 60.5 18t24.5 48q0 26-16 45t-56 47l-41 30q-59 44-95.5 91t-36.5 110q0 48 17.5 85.5t47.5 63.5 69.5 39.5 83.5 13.5q31 0 62-5.5t59.5-19 54-37.5 47.5-60l-126-73q-21 37-45.5 48.5t-51.5 11.5q-29 0-50-15.5t-21-41.5 19.5-48 57.5-50l41-29q24-18 47.5-38.5t41.5-44 29.5-51 11.5-58.5z" glyph-name="S" horiz-adv-x="542" unicode="&#x53;"/><glyph d="M261 567h-175l31 143h496l-31-143h-174l-120-567h-148z" glyph-name="T" horiz-adv-x="534" unicode="&#x54;"/><glyph d="M654 285q-16-76-42.5-131.5t-66-91.5-93.5-53-126-17q-63 0-114.5 23t-85 64-46.5 99 2 127l86 405h145l-89-419q-8-41-3-71t21.5-49.5 42-29 57.5-9.5q64 0 107 36.5t59 114.5l91 427h146z" glyph-name="U" horiz-adv-x="720" unicode="&#x55;"/><glyph d="M89 710h147l91-395 259 395h168l-485-718z" glyph-name="V" horiz-adv-x="647" unicode="&#x56;"/><glyph d="M95 710h143l42-359 246 367 82-379 200 371h152l-397-718-92 432-285-432z" glyph-name="W" horiz-adv-x="861" unicode="&#x57;"/><glyph d="M274 379l-155 331h150l103-220 195 220h177l-310-351 169-359h-151l-116 248-220-248h-177z" glyph-name="X" horiz-adv-x="654" unicode="&#x58;"/><glyph d="M272 298l-175 412h154l111-271 226 271h180l-351-412-63-298h-145z" glyph-name="Y" horiz-adv-x="669" unicode="&#x59;"/><glyph d="M413 567h-294l31 143h550l-457-567h319l-31-143h-575z" glyph-name="Z" horiz-adv-x="620" unicode="&#x5a;"/><glyph d="M183 755h222l-22-100h-105l-151-710h105l-22-100h-221z" glyph-name="bracketleft" horiz-adv-x="328" unicode="&#x5b;"/><glyph d="M167-155h-222l22 100h105l151 710h-105l22 100h221z" glyph-name="bracketright" horiz-adv-x="328" unicode="&#x5d;"/><glyph d="M-8 0h433l-22-105h-433z" glyph-name="underscore" horiz-adv-x="519" unicode="&#x5f;"/><glyph d="M28 710h149l49-160h-91z" glyph-name="grave" unicode="&#x60;"/><glyph d="M363 33q-25-20-56.5-30.5t-67.5-10.5q-45 0-82.5 18t-65 49-43 71-15.5 84q0 61 21 114.5t58.5 93.5 90 63 115.5 23q38 0 71-10.5t56-32.5l8 35h136l-106-500h-125zM276 118q28 0 55.5 10t47.5 30l38 181q-17 23-43.5 33t-54.5 10q-30 0-57-11t-47.5-31-32-48-11.5-61q0-54 29-83.5t76-29.5z" glyph-name="a" horiz-adv-x="598" unicode="&#x61;"/><glyph d="M161 710h137l-50-235q23 16 50.5 24.5t60.5 8.5q46 0 84.5-18t65.5-49 42-71 15-84q0-61-19.5-114.5t-56-93.5-89-63-119.5-23q-38 0-71 10t-57 31l-7-33h-137zM324 382q-28 0-56-10.5t-49-30.5l-38-181q18-23 44.5-32.5t55.5-9.5q30 0 57 11t47.5 31 32 48 11.5 61q0 54-29 83.5t-76 29.5z" glyph-name="b" horiz-adv-x="600" unicode="&#x62;"/><glyph d="M491 92q-39-46-95-73t-124-27q-57 0-101 19.5t-74.5 52-46 75-15.5 88.5q0 59 21 110.5t58.5 89.5 89.5 59.5 115 21.5q39 0 71.5-10t59-27 46.5-40 32-49l-114-69q-16 32-43.5 49.5t-62.5 17.5q-29 0-54-10.5t-43-29.5-28-45-10-56q0-57 32-88t78-31q35 0 63 15t49 40z" glyph-name="c" horiz-adv-x="533" unicode="&#x63;"/><glyph d="M363 33q-25-20-57-30.5t-68-10.5q-44 0-81.5 18t-65 49-43 71-15.5 84q0 61 21 114.5t58.5 93.5 90 63 115.5 23q38 0 70.5-10.5t55.5-31.5l53 244h137l-151-710h-125zM276 118q28 0 55.5 10t47.5 30l38 181q-17 23-43.5 33t-54.5 10q-30 0-57-11t-47.5-31-32-48-11.5-61q0-54 29-83.5t76-29.5z" glyph-name="d" horiz-adv-x="599" unicode="&#x64;"/><glyph d="M277 120q39 0 67 14.5t48 39.5l100-80q-39-48-95.5-75t-124.5-27q-57 0-101 19.5t-74.5 52-46 75-15.5 88.5q0 58 20.5 109.5t58 89.5 89.5 60 116 22q59 0 104-21t73-58.5 38-89.5 0-115h-367q3-28 13.5-47.5t25.5-32 33.5-18.5 37.5-6zM307 396q-17 0-35.5-6t-36.5-17-33-27-25-37h231q0 22-8 38.5t-22 27-32.5 16-38.5 5.5z" glyph-name="e" horiz-adv-x="568" unicode="&#x65;"/><glyph d="M129 380h-70l25 120h84q-12 16-18.5 35t-6.5 46q0 20 9 43t28.5 42 51 31.5 77.5 12.5h146l-25-120h-104q-33 0-46.5-13.5t-13.5-33.5q0-17 11-30t34-13h100l-25-120h-120l-80-380h-138z" glyph-name="f" horiz-adv-x="375" unicode="&#x66;"/><glyph d="M499 100q10-59-3.5-112t-50-93.5-95-64.5-138.5-24q-56 0-114 14t-103 48l72 117q26-24 63.5-38.5t82.5-14.5q34 0 62.5 8t49 23.5 30 39.5 4.5 57q-32-20-64.5-26.5t-64.5-6.5q-46 0-81.5 17t-60 46.5-37.5 68-13 81.5q0 54 19.5 102.5t55.5 85.5 87.5 58.5 114.5 21.5q37 0 69-9.5t56-29.5l6 31h137zM273 153q29 0 59 11t51 34l30 144q-18 21-44 30.5t-53 9.5q-60 0-100-35t-40-95q0-51 25.5-75t71.5-24z" glyph-name="g" horiz-adv-x="597" unicode="&#x67;"/><glyph d="M161 710h137l-53-250q27 23 60 35.5t76 12.5q46 0 81.5-20t57-52.5 28-74.5-3.5-86l-59-275h-137l56 263q12 51-6 85t-72 34q-29 0-57-13t-52-42l-70-327h-137z" glyph-name="h" horiz-adv-x="593" unicode="&#x68;"/><glyph d="M116 500h138l-106-500h-138zM139 579q-5 8-8.5 20t-3.5 24q0 43 26.5 69t69.5 26q30 0 53-18.5t23-50.5q0-23-8.5-40t-22.5-30h-129z" glyph-name="i" horiz-adv-x="263" unicode="&#x69;"/><glyph d="M-98-54h31q22 0 37 3t25 11.5 16 23.5 11 38l102 478h138l-108-506q-12-59-32-94.5t-48.5-54-68-24-90.5-5.5h-41zM147 579q-5 8-8.5 20t-3.5 24q0 43 26.5 69t69.5 26q30 0 53-18.5t23-50.5q0-23-8.5-40t-22.5-30h-129z" glyph-name="j" horiz-adv-x="271" unicode="&#x6a;"/><glyph d="M161 710h138l-93-439 219 229h165l-243-252 150-248h-146l-150 250-53-250h-138z" glyph-name="k" horiz-adv-x="543" unicode="&#x6b;"/><glyph d="M161 710h138l-151-710h-138z" glyph-name="l" horiz-adv-x="264" unicode="&#x6c;"/><glyph d="M363 508q44 0 77.5-18t55.5-50q35 33 77.5 50.5t90.5 17.5q52 0 89.5-18.5t59.5-51.5 28-77.5-5-96.5l-56-264h-137l55 257q11 57-4 91t-62 34q-23 0-53-16.5t-52-50.5q-1-12-2.5-24.5t-4.5-26.5l-56-264h-137l55 258q12 54-3.5 89t-63.5 35q-22 0-50-14.5t-48-41.5l-69-326h-138l106 500h135l-7-39q19 19 50 33t69 14z" glyph-name="m" horiz-adv-x="887" unicode="&#x6d;"/><glyph d="M116 500h135l-7-41q27 24 60.5 36.5t76.5 12.5q46 0 81.5-20t57-52.5 28-74.5-3.5-86l-59-275h-137l56 264q5 24 3.5 45.5t-10.5 37.5-26.5 25.5-44.5 9.5q-29 0-57-13t-52-41l-69-328h-138z" glyph-name="n" horiz-adv-x="593" unicode="&#x6e;"/><glyph d="M557 274q0-60-21-111.5t-58.5-89.5-89.5-59.5-115-21.5q-57 0-101.5 19.5t-74.5 52-46 75-16 88.5q0 59 21 110.5t59 89.5 90 59.5 115 21.5q57 0 101-19.5t74.5-52 46-74.5 15.5-88zM174 239q0-56 32-87.5t78-31.5q29 0 54 11t43 30 28 45 10 56q0 56-32 87t-79 31q-29 0-53.5-10.5t-42.5-29.5-28-45-10-56z" glyph-name="o" horiz-adv-x="592" unicode="&#x6f;"/><glyph d="M116 500h127l-6-33q50 41 122 41 46 0 84.5-18t66-49 42.5-71 15-84q0-61-19.5-114.5t-56-93.5-89-63-119.5-23q-38 0-71 10t-57 32l-46-218h-138zM324 382q-28 0-55-10.5t-48-30.5l-39-181q18-23 44-32.5t55-9.5q30 0 57 11t47.5 31 32 48 11.5 61q0 54-29 83.5t-76 29.5z" glyph-name="p" horiz-adv-x="601" unicode="&#x70;"/><glyph d="M350 24q-47-32-111-32-45 0-82.5 18t-65 49-43 71-15.5 84q0 61 21 114.5t58.5 93.5 90 63 115.5 23q38 0 70-10.5t56-31.5l8 34h137l-145-684h-137zM276 118q27 0 55 10t48 29l38 182q-18 23-44 33t-54 10q-30 0-57-11t-47.5-31-32-48-11.5-61q0-54 29-83.5t76-29.5z" glyph-name="q" horiz-adv-x="598" unicode="&#x71;"/><glyph d="M116 500h138l-10-47q24 27 58 41t73 14q11 0 24-1.5t24-5.5l-30-143q-14 8-31.5 11.5t-35.5 3.5q-28 0-57-11t-52-32l-69-330h-138z" glyph-name="r" horiz-adv-x="388" unicode="&#x72;"/><glyph d="M378 151q0-75-49-117t-132-42q-76 0-125 32.5t-69 81.5l100 66q14-29 36-49t60-20q22 0 36 9.5t14 26.5-12.5 29-35.5 26l-35 23q-43 28-72 60.5t-29 82.5q0 31 11.5 58t33 47 54 31.5 74.5 11.5q60 0 105.5-25t66.5-66l-98-67q-14 25-33.5 37t-41.5 12q-20 0-31-10t-11-24 9-25 32-25l29-19q53-33 83-66t30-79z" glyph-name="s" horiz-adv-x="431" unicode="&#x73;"/><glyph d="M54 500h104l19 81 151 69-32-150h140l-27-120h-139l-40-188q-8-35 3-51t46-16h77l-27-125h-102q-82 0-118.5 48t-16.5 142l41 190h-79v120z" glyph-name="t" horiz-adv-x="413" unicode="&#x74;"/><glyph d="M348 41q-28-24-62-36.5t-76-12.5q-41 0-75 17t-56.5 48.5-30.5 76.5 4 102l56 264h137l-54-257q-12-57 4.5-91t70.5-34q32 0 60.5 14t49.5 46l68 322h137l-106-500h-134z" glyph-name="u" horiz-adv-x="590" unicode="&#x75;"/><glyph d="M38 500h143l70-248 170 248h162l-376-508z" glyph-name="v" horiz-adv-x="519" unicode="&#x76;"/><glyph d="M54 500h139l25-297 191 305 59-311 155 303h147l-263-500h-105l-44 226-145-226h-106z" glyph-name="w" horiz-adv-x="720" unicode="&#x77;"/><glyph d="M199 265l-128 235h146l75-138 133 138h169l-241-250 136-250h-146l-83 153-147-153h-169z" glyph-name="x" horiz-adv-x="547" unicode="&#x78;"/><glyph d="M138 6l-84 494h141l48-329 184 329h150l-408-684h-145z" glyph-name="y" horiz-adv-x="522" unicode="&#x79;"/><glyph d="M286 381h-213l25 119h447l-324-380h229l-25-120h-464z" glyph-name="z" horiz-adv-x="514" unicode="&#x7a;"/><glyph d="M156-155q-71 0-101.5 44t-10.5 135l36 169q5 24-3 41t-39 17h-9l21 99h9q31 0 46 16.5t20 40.5l45 207q9 42 24.5 69.5t36.5 43 48 22 60 6.5h81l-22-99h-43q-34 0-50-14t-24-48l-41-194q-8-38-27-64t-55-36q30-9 39-35.5t2-59.5l-42-197q-8-32 1.5-48t43.5-16h46l-22-99h-70z" glyph-name="braceleft" horiz-adv-x="343" unicode="&#x7b;"/><glyph d="M116 710h117v-894h-117v894z" glyph-name="bar" horiz-adv-x="343" unicode="&#x7c;"/><glyph d="M209 755q71 0 101.5-44t10.5-135l-36-169q-5-24 3-41t39-17h9l-21-99h-9q-31 0-46-16.5t-20-40.5l-45-207q-9-42-24.5-69.5t-36.5-43-48-22-60-6.5h-81l22 99h43q34 0 50 14t24 48l41 194q8 38 27 64t55 36q-30 9-39 35.5t-2 59.5l42 197q8 32-1.5 48t-43.5 16h-46l22 99h70z" glyph-name="braceright" horiz-adv-x="343" unicode="&#x7d;"/><glyph glyph-name="uni00A0" horiz-adv-x="229" unicode="&#xa0;"/><glyph d="M193 508q37 0 61.5-24.5t24.5-59.5q0-29-15.5-53t-39.5-41h-128q-10 11-15.5 29t-5.5 38q0 26 9.5 46.5t26 35 37.5 22 45 7.5zM173 86l-57-270h-138l57 270 69 194h83z" glyph-name="exclamdown" horiz-adv-x="279" unicode="&#xa1;"/><glyph d="M21 128h81l40 188h-81l16 74h99q-12 18-19.5 45t-7.5 54q0 48 17.5 89.5t49.5 72.5 77.5 49 101.5 18q51 0 92-18t68.5-48.5 39.5-70 5-82.5h-134q4 40-20.5 65.5t-65.5 25.5q-46 0-74-28t-28-74q0-42 24-70t69-28h64l-16-74h-139l-40-188h286l-27-128h-505z" glyph-name="sterling" horiz-adv-x="588" unicode="&#xa3;"/><glyph d="M104 219h173l16 73h-174l16 74h130l-146 344h154l111-273 228 273h170l-293-344h130l-16-74h-173l-16-73h173l-15-74h-173l-31-145h-137l31 145h-174z" glyph-name="yen" horiz-adv-x="711" unicode="&#xa5;"/><glyph d="M319 644q0-32-22-54t-54-22-54 22-22 54q0 31 22 53t54 22 54-22 22-53zM84 644q0-32-22.5-54t-53.5-22q-32 0-54 22t-22 54q0 31 22 53t54 22q31 0 53.5-22t22.5-53z" glyph-name="dieresis" unicode="&#xa8;"/><glyph d="M430-8q-75 0-141 28.5t-115.5 78-78 115.5-28.5 141 28.5 141 78 115.5 115.5 78 141 28.5 141-28.5 115.5-78 78-115.5 28.5-141-28.5-141-78-115.5-115.5-78-141-28.5zM430 69q58 0 109 22t89 60.5 59.5 91 21.5 113.5q0 60-21.5 112t-59.5 90.5-89 60.5-109 22q-59 0-110-22t-88.5-60.5-59-90.5-21.5-112q0-61 21.5-113.5t59-91 88.5-60.5 110-22zM444 183q-35 0-66.5 13.5t-55 37-37 54.5-13.5 67 13.5 67 37 54.5 55 37 66.5 13.5q42 0 77-18.5t59-50.5l-61-53q-12 17-31.5 29.5t-43.5 12.5q-38 0-63-27t-25-65 25-64.5 63-26.5q24 0 43.5 11.5t31.5 30.5l61-54q-24-32-59-50.5t-77-18.5z" glyph-name="copyright" horiz-adv-x="815" unicode="&#xa9;"/><glyph d="M31 251l212 236 80-74-159-172 83-177-104-51zM260 251l212 236 80-74-159-172 83-177-104-51z" glyph-name="guillemotleft" horiz-adv-x="556" unicode="&#xab;"/><glyph d="M79 346h275l-28-132h-275z" glyph-name="uni00AD" horiz-adv-x="392" unicode="&#xad;"/><glyph d="M-30 676h322l-19-89h-321z" glyph-name="macron" unicode="&#xaf;"/><glyph d="M226 470q-25 0-47.5 9.5t-39 26-26 39-9.5 47.5 9.5 47.5 26 39 39 26 47.5 9.5 47.5-9.5 39-26 26-39 9.5-47.5-9.5-47.5-26-39-39-26-47.5-9.5zM226 542q21 0 35.5 15t14.5 35-14.5 35-35.5 15q-20 0-35-15t-15-35 15-35 35-15z" glyph-name="degree" horiz-adv-x="313" unicode="&#xb0;"/><glyph d="M99 710h164l-175-160h-104z" glyph-name="acute" unicode="&#xb4;"/><glyph d="M146 152q-21 0-39.5 8t-32 21.5-21.5 32-8 39.5 8 39 21.5 31.5 32 21.5 39.5 8q42 0 71-29t29-71q0-21-8-39.5t-21.5-32-31.5-21.5-39-8z" glyph-name="periodcentered" horiz-adv-x="289" unicode="&#xb7;"/><glyph d="M-24 0h96l-80-165h-124z" glyph-name="cedilla" unicode="&#xb8;"/><glyph d="M296 249l-212-236-80 74 159 172-83 177 104 51zM525 249l-212-236-80 74 159 172-83 177 104 51z" glyph-name="guillemotright" horiz-adv-x="555" unicode="&#xbb;"/><glyph d="M322 508q37 0 61.5-24.5t24.5-59.5q0-29-15.5-53t-39.5-41h-128q-11 11-16.5 29t-5.5 38q0 26 9.5 46.5t26 35 38 22 45.5 7.5zM202-193q-50 0-89 17.5t-65.5 47-40 67-13.5 78.5q0 47 18 91t53 78.5 86 55 117 20.5h69l-27-127h-51q-33 0-58-8.5t-41-23-24-34-8-41.5q0-37 22.5-65t64.5-28q52 0 79 31t28 74h134q-2-46-20-88t-50.5-74.5-79-51.5-104.5-19z" glyph-name="questiondown" horiz-adv-x="531" unicode="&#xbf;"/><glyph d="M451 126h-271l-86-126h-162l502 718 195-718h-146zM420 246l-43 169-115-169h158zM295 913h146l44-145h-96z" glyph-name="Agrave" horiz-adv-x="668" unicode="&#xc0;"/><glyph d="M451 126h-271l-86-126h-162l502 718 195-718h-146zM420 246l-43 169-115-169h158zM495 913h160l-154-145h-107z" glyph-name="Aacute" horiz-adv-x="668" unicode="&#xc1;"/><glyph d="M451 126h-271l-86-126h-162l502 718 195-718h-146zM420 246l-43 169-115-169h158zM283 843l192 87 155-87-43-82-119 65-148-65z" glyph-name="Acircumflex" horiz-adv-x="668" unicode="&#xc2;"/><glyph d="M451 126h-271l-86-126h-162l502 718 195-718h-146zM420 246l-43 169-115-169h158zM259 779q21 72 57 105t81 33q21 0 38.5-6.5t32.5-14 28.5-14 26.5-6.5q18 0 28 9.5t21 32.5h94q-23-73-57.5-105.5t-80.5-32.5q-21 0-39 6.5t-33 14-28.5 14-26.5 6.5q-18 0-27.5-9.5t-20.5-32.5h-94z" glyph-name="Atilde" horiz-adv-x="668" unicode="&#xc3;"/><glyph d="M451 126h-271l-86-126h-162l502 718 195-718h-146zM420 246l-43 169-115-169h158zM655 849q0-32-22-54t-54-22-54 22-22 54q0 31 22 53t54 22 54-22 22-53zM420 849q0-32-22.5-54t-53.5-22q-32 0-54 22t-22 54q0 31 22 53t54 22q31 0 53.5-22t22.5-53z" glyph-name="Adieresis" horiz-adv-x="668" unicode="&#xc4;"/><glyph d="M451 126h-271l-86-126h-162l502 718 195-718h-146zM420 246l-43 169-115-169h158zM582 872q0-24-9-44.5t-25-36.5-36.5-25-44.5-9-45 9-37 25-25 36.5-9 44.5 9 44.5 25 36 37 24.5 45 9 44.5-9 36.5-24.5 25-36 9-44.5zM419 872q0-20 14-33.5t34-13.5 33.5 13.5 13.5 33.5-13.5 33.5-33.5 13.5-34-13.5-14-33.5z" glyph-name="Aring" horiz-adv-x="668" unicode="&#xc5;"/><glyph d="M465 126h-271l-86-126h-162l392 562-41 148h400l39-143h-248l38-140h191l39-140h-191l39-144h248l39-143h-394zM434 246l-43 169-115-169h158z" glyph-name="AE" horiz-adv-x="932" unicode="&#xc6;"/><glyph d="M692 110q-52-57-127-87.5t-168-30.5q-78 0-139.5 27.5t-104.5 74-66 107-23 127.5q0 75 26.5 145t78 124.5 128 87.5 175.5 33q97 0 168.5-40t112.5-105l-119-85q-26 39-71.5 64.5t-104.5 25.5q-56 0-102-19t-78.5-51.5-50-75.5-17.5-91q0-42 12-79.5t37-66.5 62-46 87-17q60 0 107 22t79 59zM348 0h96l-80-165h-124z" glyph-name="Ccedilla" horiz-adv-x="722" unicode="&#xc7;"/><glyph d="M178 710h434l-31-143h-289l-30-140h230l-30-140h-230l-30-144h290l-31-143h-434zM258 913h146l44-145h-96z" glyph-name="Egrave" horiz-adv-x="562" unicode="&#xc8;"/><glyph d="M178 710h434l-31-143h-289l-30-140h230l-30-140h-230l-30-144h290l-31-143h-434zM459 913h160l-154-145h-107z" glyph-name="Eacute" horiz-adv-x="562" unicode="&#xc9;"/><glyph d="M178 710h434l-31-143h-289l-30-140h230l-30-140h-230l-30-144h290l-31-143h-434zM247 843l192 87 155-87-43-82-119 65-148-65z" glyph-name="Ecircumflex" horiz-adv-x="562" unicode="&#xca;"/><glyph d="M178 710h434l-31-143h-289l-30-140h230l-30-140h-230l-30-144h290l-31-143h-434zM619 849q0-32-22-54t-54-22-54 22-22 54q0 31 22 53t54 22 54-22 22-53zM384 849q0-32-22.5-54t-53.5-22q-32 0-54 22t-22 54q0 31 22 53t54 22q31 0 53.5-22t22.5-53z" glyph-name="Edieresis" horiz-adv-x="562" unicode="&#xcb;"/><glyph d="M178 710h146l-151-710h-146zM112 913h146l44-145h-96z" glyph-name="Igrave" horiz-adv-x="306" unicode="&#xcc;"/><glyph d="M178 710h146l-151-710h-146zM312 913h160l-154-145h-107z" glyph-name="Iacute" horiz-adv-x="306" unicode="&#xcd;"/><glyph d="M178 710h146l-151-710h-146zM101 843l192 87 155-87-43-82-119 65-148-65z" glyph-name="Icircumflex" horiz-adv-x="306" unicode="&#xce;"/><glyph d="M178 710h146l-151-710h-146zM472 849q0-32-22-54t-54-22-54 22-22 54q0 31 22 53t54 22 54-22 22-53zM237 849q0-32-22.5-54t-53.5-22q-32 0-54 22t-22 54q0 31 22 53t54 22q31 0 53.5-22t22.5-53z" glyph-name="Idieresis" horiz-adv-x="306" unicode="&#xcf;"/><glyph d="M202 710h223q73 0 131.5-24.5t99.5-65.5 62.5-94.5 21.5-112.5q0-103-33.5-180.5t-92-129-138.5-77.5-174-26h-251zM313 133q58 0 109 18.5t88.5 52 59.5 81 22 105.5q0 39-12 73.5t-35 59.5-57 39.5-77 14.5h-92l-95-444h89zM40 392h337l-15-74h-337z" glyph-name="Eth" horiz-adv-x="756" unicode="&#xd0;"/><glyph d="M260 416l-88-416h-145l153 718 369-425 88 417h145l-153-718zM266 779q21 72 57 105t81 33q21 0 38.5-6.5t32.5-14 28.5-14 26.5-6.5q18 0 28 9.5t21 32.5h94q-23-73-57.5-105.5t-80.5-32.5q-21 0-39 6.5t-33 14-28.5 14-26.5 6.5q-18 0-27.5-9.5t-20.5-32.5h-94z" glyph-name="Ntilde" horiz-adv-x="764" unicode="&#xd1;"/><glyph d="M802 385q0-75-26.5-146t-78-125.5-127.5-88-175-33.5q-77 0-138 27.5t-104.5 74-66.5 106.5-23 125q0 75 26.5 146t78 125.5 127 88 174.5 33.5q76 0 138-27.5t105-74 66.5-106.5 23.5-125zM209 338q0-41 12.5-78t37.5-65.5 62-45.5 86-17q57 0 102.5 19.5t78 52.5 50 76.5 17.5 91.5q0 40-12.5 77.5t-37.5 66-62 45.5-86 17q-57 0-102.5-19.5t-78-52.5-50-76.5-17.5-91.5zM333 913h146l44-145h-96z" glyph-name="Ograve" horiz-adv-x="820" unicode="&#xd2;"/><glyph d="M802 385q0-75-26.5-146t-78-125.5-127.5-88-175-33.5q-77 0-138 27.5t-104.5 74-66.5 106.5-23 125q0 75 26.5 146t78 125.5 127 88 174.5 33.5q76 0 138-27.5t105-74 66.5-106.5 23.5-125zM209 338q0-41 12.5-78t37.5-65.5 62-45.5 86-17q57 0 102.5 19.5t78 52.5 50 76.5 17.5 91.5q0 40-12.5 77.5t-37.5 66-62 45.5-86 17q-57 0-102.5-19.5t-78-52.5-50-76.5-17.5-91.5zM533 913h160l-154-145h-107z" glyph-name="Oacute" horiz-adv-x="820" unicode="&#xd3;"/><glyph d="M802 385q0-75-26.5-146t-78-125.5-127.5-88-175-33.5q-77 0-138 27.5t-104.5 74-66.5 106.5-23 125q0 75 26.5 146t78 125.5 127 88 174.5 33.5q76 0 138-27.5t105-74 66.5-106.5 23.5-125zM209 338q0-41 12.5-78t37.5-65.5 62-45.5 86-17q57 0 102.5 19.5t78 52.5 50 76.5 17.5 91.5q0 40-12.5 77.5t-37.5 66-62 45.5-86 17q-57 0-102.5-19.5t-78-52.5-50-76.5-17.5-91.5zM321 843l192 87 155-87-43-82-119 65-148-65z" glyph-name="Ocircumflex" horiz-adv-x="820" unicode="&#xd4;"/><glyph d="M802 385q0-75-26.5-146t-78-125.5-127.5-88-175-33.5q-77 0-138 27.5t-104.5 74-66.5 106.5-23 125q0 75 26.5 146t78 125.5 127 88 174.5 33.5q76 0 138-27.5t105-74 66.5-106.5 23.5-125zM209 338q0-41 12.5-78t37.5-65.5 62-45.5 86-17q57 0 102.5 19.5t78 52.5 50 76.5 17.5 91.5q0 40-12.5 77.5t-37.5 66-62 45.5-86 17q-57 0-102.5-19.5t-78-52.5-50-76.5-17.5-91.5zM297 779q21 72 57 105t81 33q21 0 38.5-6.5t32.5-14 28.5-14 26.5-6.5q18 0 28 9.5t21 32.5h94q-23-73-57.5-105.5t-80.5-32.5q-21 0-39 6.5t-33 14-28.5 14-26.5 6.5q-18 0-27.5-9.5t-20.5-32.5h-94z" glyph-name="Otilde" horiz-adv-x="820" unicode="&#xd5;"/><glyph d="M802 385q0-75-26.5-146t-78-125.5-127.5-88-175-33.5q-77 0-138 27.5t-104.5 74-66.5 106.5-23 125q0 75 26.5 146t78 125.5 127 88 174.5 33.5q76 0 138-27.5t105-74 66.5-106.5 23.5-125zM209 338q0-41 12.5-78t37.5-65.5 62-45.5 86-17q57 0 102.5 19.5t78 52.5 50 76.5 17.5 91.5q0 40-12.5 77.5t-37.5 66-62 45.5-86 17q-57 0-102.5-19.5t-78-52.5-50-76.5-17.5-91.5zM693 849q0-32-22-54t-54-22-54 22-22 54q0 31 22 53t54 22 54-22 22-53zM458 849q0-32-22.5-54t-53.5-22q-32 0-54 22t-22 54q0 31 22 53t54 22q31 0 53.5-22t22.5-53z" glyph-name="Odieresis" horiz-adv-x="820" unicode="&#xd6;"/><glyph d="M93 131l132 132-133 133 74 74 133-133 132 132 74-74-132-132 132-133-73-73-133 132-132-132z" glyph-name="multiply" horiz-adv-x="590" unicode="&#xd7;"/><glyph d="M79-59l-53 53 112 115q-33 41-52 91-23 60-23 125 0 75 26.5 146t78 125.5 127 88 174.5 33.5q76 0 138-28 35-15 63-37l113 116 53-53-112-114q34-41 54-92 24-60 24-125 0-75-26.5-146t-78-125.5-127.5-88-175-33.5q-77 0-138 27-35 16-65 38zM321 149q37-17 86-17 57 0 102.5 19.5t78 52.5 50 76.5 17.5 91.5q0 40-13 77-8 25-22 46l-325-333q12-7 26-13zM209 338q0-41 12-78 8-24 21-44l325 332q-12 7-24 13-37 17-86 17-57 0-102.5-19.5t-78-52.5-50-76.5-17.5-91.5z" glyph-name="Oslash" horiz-adv-x="820" unicode="&#xd8;"/><glyph d="M654 285q-16-76-42.5-131.5t-66-91.5-93.5-53-126-17q-63 0-114.5 23t-85 64-46.5 99 2 127l86 405h145l-89-419q-8-41-3-71t21.5-49.5 42-29 57.5-9.5q64 0 107 36.5t59 114.5l91 427h146zM312 913h146l44-145h-96z" glyph-name="Ugrave" horiz-adv-x="720" unicode="&#xd9;"/><glyph d="M654 285q-16-76-42.5-131.5t-66-91.5-93.5-53-126-17q-63 0-114.5 23t-85 64-46.5 99 2 127l86 405h145l-89-419q-8-41-3-71t21.5-49.5 42-29 57.5-9.5q64 0 107 36.5t59 114.5l91 427h146zM513 913h160l-154-145h-107z" glyph-name="Uacute" horiz-adv-x="720" unicode="&#xda;"/><glyph d="M654 285q-16-76-42.5-131.5t-66-91.5-93.5-53-126-17q-63 0-114.5 23t-85 64-46.5 99 2 127l86 405h145l-89-419q-8-41-3-71t21.5-49.5 42-29 57.5-9.5q64 0 107 36.5t59 114.5l91 427h146zM301 843l192 87 155-87-43-82-119 65-148-65z" glyph-name="Ucircumflex" horiz-adv-x="720" unicode="&#xdb;"/><glyph d="M654 285q-16-76-42.5-131.5t-66-91.5-93.5-53-126-17q-63 0-114.5 23t-85 64-46.5 99 2 127l86 405h145l-89-419q-8-41-3-71t21.5-49.5 42-29 57.5-9.5q64 0 107 36.5t59 114.5l91 427h146zM673 849q0-32-22-54t-54-22-54 22-22 54q0 31 22 53t54 22 54-22 22-53zM438 849q0-32-22.5-54t-53.5-22q-32 0-54 22t-22 54q0 31 22 53t54 22q31 0 53.5-22t22.5-53z" glyph-name="Udieresis" horiz-adv-x="720" unicode="&#xdc;"/><glyph d="M272 298l-175 412h154l111-271 226 271h180l-351-412-63-298h-145zM478 913h160l-154-145h-107z" glyph-name="Yacute" horiz-adv-x="669" unicode="&#xdd;"/><glyph d="M178 710h145l-25-119h60q54 0 95.5-16.5t69.5-44 42-65 14-79.5q0-54-19.5-102.5t-58-84.5-94-57.5-127.5-21.5h-83l-25-120h-145zM304 255q28 0 52 8.5t41 23.5 27 35.5 10 44.5q0 35-23 61.5t-75 26.5h-67l-43-200h78z" glyph-name="Thorn" horiz-adv-x="589" unicode="&#xde;"/><glyph d="M203-47q76 0 117.5 32t41.5 92q0 47-32 74t-80 27l23 106 75 96h-119l-81-380h-138l119 558q15 73 60 112.5t125 39.5h89l-26-125h-43q-33 0-50.5-15.5t-24.5-48.5l-4-21h322l-174-230q48-29 73-76.5t25-109.5q0-57-22-106t-64-85-103-56.5-138-20.5z" glyph-name="germandbls" horiz-adv-x="574" unicode="&#xdf;"/><glyph d="M363 33q-25-20-56.5-30.5t-67.5-10.5q-45 0-82.5 18t-65 49-43 71-15.5 84q0 61 21 114.5t58.5 93.5 90 63 115.5 23q38 0 71-10.5t56-32.5l8 35h136l-106-500h-125zM276 118q28 0 55.5 10t47.5 30l38 181q-17 23-43.5 33t-54.5 10q-30 0-57-11t-47.5-31-32-48-11.5-61q0-54 29-83.5t76-29.5zM204 710h149l49-160h-91z" glyph-name="agrave" horiz-adv-x="598" unicode="&#xe0;"/><glyph d="M363 33q-25-20-56.5-30.5t-67.5-10.5q-45 0-82.5 18t-65 49-43 71-15.5 84q0 61 21 114.5t58.5 93.5 90 63 115.5 23q38 0 71-10.5t56-32.5l8 35h136l-106-500h-125zM276 118q28 0 55.5 10t47.5 30l38 181q-17 23-43.5 33t-54.5 10q-30 0-57-11t-47.5-31-32-48-11.5-61q0-54 29-83.5t76-29.5zM430 710h164l-175-160h-104z" glyph-name="aacute" horiz-adv-x="598" unicode="&#xe1;"/><glyph d="M363 33q-25-20-56.5-30.5t-67.5-10.5q-45 0-82.5 18t-65 49-43 71-15.5 84q0 61 21 114.5t58.5 93.5 90 63 115.5 23q38 0 71-10.5t56-32.5l8 35h136l-106-500h-125zM276 118q28 0 55.5 10t47.5 30l38 181q-17 23-43.5 33t-54.5 10q-30 0-57-11t-47.5-31-32-48-11.5-61q0-54 29-83.5t76-29.5zM208 629l196 97 152-102-52-76-111 71-146-71z" glyph-name="acircumflex" horiz-adv-x="598" unicode="&#xe2;"/><glyph d="M363 33q-25-20-56.5-30.5t-67.5-10.5q-45 0-82.5 18t-65 49-43 71-15.5 84q0 61 21 114.5t58.5 93.5 90 63 115.5 23q38 0 71-10.5t56-32.5l8 35h136l-106-500h-125zM276 118q28 0 55.5 10t47.5 30l38 181q-17 23-43.5 33t-54.5 10q-30 0-57-11t-47.5-31-32-48-11.5-61q0-54 29-83.5t76-29.5zM178 557q21 72 57 105t81 33q21 0 38.5-6.5t32.5-14 28.5-14 26.5-6.5q18 0 28 9.5t21 32.5h94q-23-73-57.5-105.5t-80.5-32.5q-21 0-39 6.5t-33 14-28.5 14-26.5 6.5q-18 0-27.5-9.5t-20.5-32.5h-94z" glyph-name="atilde" horiz-adv-x="598" unicode="&#xe3;"/><glyph d="M363 33q-25-20-56.5-30.5t-67.5-10.5q-45 0-82.5 18t-65 49-43 71-15.5 84q0 61 21 114.5t58.5 93.5 90 63 115.5 23q38 0 71-10.5t56-32.5l8 35h136l-106-500h-125zM276 118q28 0 55.5 10t47.5 30l38 181q-17 23-43.5 33t-54.5 10q-30 0-57-11t-47.5-31-32-48-11.5-61q0-54 29-83.5t76-29.5zM579 644q0-32-22-54t-54-22-54 22-22 54q0 31 22 53t54 22 54-22 22-53zM344 644q0-32-22.5-54t-53.5-22q-32 0-54 22t-22 54q0 31 22 53t54 22q31 0 53.5-22t22.5-53z" glyph-name="adieresis" horiz-adv-x="598" unicode="&#xe4;"/><glyph d="M363 33q-25-20-56.5-30.5t-67.5-10.5q-45 0-82.5 18t-65 49-43 71-15.5 84q0 61 21 114.5t58.5 93.5 90 63 115.5 23q38 0 71-10.5t56-32.5l8 35h136l-106-500h-125zM276 118q28 0 55.5 10t47.5 30l38 181q-17 23-43.5 33t-54.5 10q-30 0-57-11t-47.5-31-32-48-11.5-61q0-54 29-83.5t76-29.5zM505 665q0-24-9-44.5t-25-36.5-36.5-25-44.5-9-45 9-37 25-25 36.5-9 44.5 9 44.5 25 36 37 24.5 45 9 44.5-9 36.5-24.5 25-36 9-44.5zM342 665q0-20 14-33.5t34-13.5 33.5 13.5 13.5 33.5-13.5 33.5-33.5 13.5-34-13.5-14-33.5z" glyph-name="aring" horiz-adv-x="598" unicode="&#xe5;"/><glyph d="M806 94q-39-48-95-75t-125-27q-49 0-95 17.5t-78 52.5q-51-38-104.5-54t-115.5-16q-40 0-73.5 9.5t-57.5 28-37.5 45.5-13.5 62q0 80 58 126.5t167 46.5q35 0 64.5-7.5t53.5-21.5l4 22q1 22-7 37t-22.5 24.5-34 13.5-40.5 4q-37 0-73.5-10t-62.5-25l1 127q82 34 164 34 47 0 87.5-16t69.5-54q41 37 91 53.5t103 16.5q59 0 104-21t73-59 38-90 0-114h-368q3-28 13.5-47.5t25.5-32 33.5-18.5 37.5-6q39 0 67 14.5t49 39.5zM621 396q-18 0-37-4.5t-36.5-15-32.5-27-24-40.5h231q0 45-30 66t-71 21zM208 108q36 0 67.5 12t50.5 32l7 34q-34 28-100 28-38 0-65-15.5t-27-44.5q0-26 21-36t46-10z" glyph-name="ae" horiz-adv-x="883" unicode="&#xe6;"/><glyph d="M491 92q-39-46-95-73t-124-27q-57 0-101 19.5t-74.5 52-46 75-15.5 88.5q0 59 21 110.5t58.5 89.5 89.5 59.5 115 21.5q39 0 71.5-10t59-27 46.5-40 32-49l-114-69q-16 32-43.5 49.5t-62.5 17.5q-29 0-54-10.5t-43-29.5-28-45-10-56q0-57 32-88t78-31q35 0 63 15t49 40zM221 0h96l-80-165h-124z" glyph-name="ccedilla" horiz-adv-x="533" unicode="&#xe7;"/><glyph d="M277 120q39 0 67 14.5t48 39.5l100-80q-39-48-95.5-75t-124.5-27q-57 0-101 19.5t-74.5 52-46 75-15.5 88.5q0 58 20.5 109.5t58 89.5 89.5 60 116 22q59 0 104-21t73-58.5 38-89.5 0-115h-367q3-28 13.5-47.5t25.5-32 33.5-18.5 37.5-6zM307 396q-17 0-35.5-6t-36.5-17-33-27-25-37h231q0 22-8 38.5t-22 27-32.5 16-38.5 5.5zM169 710h149l49-160h-91z" glyph-name="egrave" horiz-adv-x="568" unicode="&#xe8;"/><glyph d="M277 120q39 0 67 14.5t48 39.5l100-80q-39-48-95.5-75t-124.5-27q-57 0-101 19.5t-74.5 52-46 75-15.5 88.5q0 58 20.5 109.5t58 89.5 89.5 60 116 22q59 0 104-21t73-58.5 38-89.5 0-115h-367q3-28 13.5-47.5t25.5-32 33.5-18.5 37.5-6zM307 396q-17 0-35.5-6t-36.5-17-33-27-25-37h231q0 22-8 38.5t-22 27-32.5 16-38.5 5.5zM395 710h164l-175-160h-104z" glyph-name="eacute" horiz-adv-x="568" unicode="&#xe9;"/><glyph d="M277 120q39 0 67 14.5t48 39.5l100-80q-39-48-95.5-75t-124.5-27q-57 0-101 19.5t-74.5 52-46 75-15.5 88.5q0 58 20.5 109.5t58 89.5 89.5 60 116 22q59 0 104-21t73-58.5 38-89.5 0-115h-367q3-28 13.5-47.5t25.5-32 33.5-18.5 37.5-6zM307 396q-17 0-35.5-6t-36.5-17-33-27-25-37h231q0 22-8 38.5t-22 27-32.5 16-38.5 5.5zM173 629l196 97 152-102-52-76-111 71-146-71z" glyph-name="ecircumflex" horiz-adv-x="568" unicode="&#xea;"/><glyph d="M277 120q39 0 67 14.5t48 39.5l100-80q-39-48-95.5-75t-124.5-27q-57 0-101 19.5t-74.5 52-46 75-15.5 88.5q0 58 20.5 109.5t58 89.5 89.5 60 116 22q59 0 104-21t73-58.5 38-89.5 0-115h-367q3-28 13.5-47.5t25.5-32 33.5-18.5 37.5-6zM307 396q-17 0-35.5-6t-36.5-17-33-27-25-37h231q0 22-8 38.5t-22 27-32.5 16-38.5 5.5zM544 644q0-32-22-54t-54-22-54 22-22 54q0 31 22 53t54 22 54-22 22-53zM309 644q0-32-22.5-54t-53.5-22q-32 0-54 22t-22 54q0 31 22 53t54 22q31 0 53.5-22t22.5-53z" glyph-name="edieresis" horiz-adv-x="568" unicode="&#xeb;"/><glyph d="M116 500h138l-106-500h-138zM35 710h149l49-160h-91z" glyph-name="igrave" horiz-adv-x="263" unicode="&#xec;"/><glyph d="M116 500h138l-106-500h-138zM261 710h164l-175-160h-104z" glyph-name="iacute" horiz-adv-x="263" unicode="&#xed;"/><glyph d="M116 500h138l-106-500h-138zM39 629l196 97 152-102-52-76-111 71-146-71z" glyph-name="icircumflex" horiz-adv-x="263" unicode="&#xee;"/><glyph d="M116 500h138l-106-500h-138zM120 568q-29 0-52 21.5t-23 54.5q0 31 22 53t53 22q32 0 54-22t22-53q0-32-22.5-54t-53.5-22zM312 568q-30 0-53 21.5t-23 54.5q0 31 22 53t54 22 54-22 22-53q0-32-22.5-54t-53.5-22z" glyph-name="idieresis" horiz-adv-x="263" unicode="&#xef;"/><glyph d="M207 636h76l-32 74h137l32-74h126l-14-65h-84l74-170q14-32 24-62.5t10-64.5q0-59-22-110.5t-60-89.5-90-60-113-22q-57 0-101 19.5t-74.5 52-46 75-15.5 88.5q0 58 21.5 109.5t60 89.5 90.5 60 113 22h7q6 0 13-1l-28 64h-119zM173 239q0-57 32-88t78-31q29 0 54 10.5t43 29.5 28 45 10 57q0 56-32.5 87t-78.5 31q-29 0-53.5-10.5t-42.5-29.5-28-45-10-56z" glyph-name="eth" horiz-adv-x="590" unicode="&#xf0;"/><glyph d="M116 500h135l-7-41q27 24 60.5 36.5t76.5 12.5q46 0 81.5-20t57-52.5 28-74.5-3.5-86l-59-275h-137l56 264q5 24 3.5 45.5t-10.5 37.5-26.5 25.5-44.5 9.5q-29 0-57-13t-52-41l-69-328h-138zM186 557q21 72 57 105t81 33q21 0 38.5-6.5t32.5-14 28.5-14 26.5-6.5q18 0 28 9.5t21 32.5h94q-23-73-57.5-105.5t-80.5-32.5q-21 0-39 6.5t-33 14-28.5 14-26.5 6.5q-18 0-27.5-9.5t-20.5-32.5h-94z" glyph-name="ntilde" horiz-adv-x="593" unicode="&#xf1;"/><glyph d="M557 274q0-60-21-111.5t-58.5-89.5-89.5-59.5-115-21.5q-57 0-101.5 19.5t-74.5 52-46 75-16 88.5q0 59 21 110.5t59 89.5 90 59.5 115 21.5q57 0 101-19.5t74.5-52 46-74.5 15.5-88zM174 239q0-56 32-87.5t78-31.5q29 0 54 11t43 30 28 45 10 56q0 56-32 87t-79 31q-29 0-53.5-10.5t-42.5-29.5-28-45-10-56zM170 710h149l49-160h-91z" glyph-name="ograve" horiz-adv-x="592" unicode="&#xf2;"/><glyph d="M557 274q0-60-21-111.5t-58.5-89.5-89.5-59.5-115-21.5q-57 0-101.5 19.5t-74.5 52-46 75-16 88.5q0 59 21 110.5t59 89.5 90 59.5 115 21.5q57 0 101-19.5t74.5-52 46-74.5 15.5-88zM174 239q0-56 32-87.5t78-31.5q29 0 54 11t43 30 28 45 10 56q0 56-32 87t-79 31q-29 0-53.5-10.5t-42.5-29.5-28-45-10-56zM396 710h164l-175-160h-104z" glyph-name="oacute" horiz-adv-x="592" unicode="&#xf3;"/><glyph d="M557 274q0-60-21-111.5t-58.5-89.5-89.5-59.5-115-21.5q-57 0-101.5 19.5t-74.5 52-46 75-16 88.5q0 59 21 110.5t59 89.5 90 59.5 115 21.5q57 0 101-19.5t74.5-52 46-74.5 15.5-88zM174 239q0-56 32-87.5t78-31.5q29 0 54 11t43 30 28 45 10 56q0 56-32 87t-79 31q-29 0-53.5-10.5t-42.5-29.5-28-45-10-56zM174 629l196 97 152-102-52-76-111 71-146-71z" glyph-name="ocircumflex" horiz-adv-x="592" unicode="&#xf4;"/><glyph d="M557 274q0-60-21-111.5t-58.5-89.5-89.5-59.5-115-21.5q-57 0-101.5 19.5t-74.5 52-46 75-16 88.5q0 59 21 110.5t59 89.5 90 59.5 115 21.5q57 0 101-19.5t74.5-52 46-74.5 15.5-88zM174 239q0-56 32-87.5t78-31.5q29 0 54 11t43 30 28 45 10 56q0 56-32 87t-79 31q-29 0-53.5-10.5t-42.5-29.5-28-45-10-56zM144 557q21 72 57 105t81 33q21 0 38.5-6.5t32.5-14 28.5-14 26.5-6.5q18 0 28 9.5t21 32.5h94q-23-73-57.5-105.5t-80.5-32.5q-21 0-39 6.5t-33 14-28.5 14-26.5 6.5q-18 0-27.5-9.5t-20.5-32.5h-94z" glyph-name="otilde" horiz-adv-x="592" unicode="&#xf5;"/><glyph d="M557 274q0-60-21-111.5t-58.5-89.5-89.5-59.5-115-21.5q-57 0-101.5 19.5t-74.5 52-46 75-16 88.5q0 59 21 110.5t59 89.5 90 59.5 115 21.5q57 0 101-19.5t74.5-52 46-74.5 15.5-88zM174 239q0-56 32-87.5t78-31.5q29 0 54 11t43 30 28 45 10 56q0 56-32 87t-79 31q-29 0-53.5-10.5t-42.5-29.5-28-45-10-56zM545 644q0-32-22-54t-54-22-54 22-22 54q0 31 22 53t54 22 54-22 22-53zM310 644q0-32-22.5-54t-53.5-22q-32 0-54 22t-22 54q0 31 22 53t54 22q31 0 53.5-22t22.5-53z" glyph-name="odieresis" horiz-adv-x="592" unicode="&#xf6;"/><glyph d="M301 364q-16 0-30 6t-24.5 16.5-16.5 25-6 30.5q0 32 22.5 54.5t54.5 22.5 54.5-22.5 22.5-54.5-22.5-55-54.5-23zM83 333h436v-105h-436v105zM301 42q-32 0-54.5 22.5t-22.5 54.5 22.5 54.5 54.5 22.5 54.5-22.5 22.5-54.5-22.5-54.5-54.5-22.5z" glyph-name="divide" horiz-adv-x="590" unicode="&#xf7;"/><glyph d="M576 559l47-53-105-97q15-22 24-47 16-42 16-88 0-60-21-111.5t-58.5-89.5-89.5-59.5-115-21.5q-57 0-102 19-27 12-50 29l-105-98-46 54 104 96q-14 22-23 46-16 43-16 89 0 59 21 110.5t59 89.5 90 59.5 115 21.5q57 0 101-20 26-11 48-28zM285 120q29 0 54 11t43 30 28 45 10 56q0 27-8 48l-187-174q26-16 60-16zM175 239q0-27 7-47l185 173q-25 15-58 15-29 0-53.5-10.5t-42.5-29.5-28-45-10-56z" glyph-name="oslash" horiz-adv-x="594" unicode="&#xf8;"/><glyph d="M348 41q-28-24-62-36.5t-76-12.5q-41 0-75 17t-56.5 48.5-30.5 76.5 4 102l56 264h137l-54-257q-12-57 4.5-91t70.5-34q32 0 60.5 14t49.5 46l68 322h137l-106-500h-134zM193 710h149l49-160h-91z" glyph-name="ugrave" horiz-adv-x="590" unicode="&#xf9;"/><glyph d="M348 41q-28-24-62-36.5t-76-12.5q-41 0-75 17t-56.5 48.5-30.5 76.5 4 102l56 264h137l-54-257q-12-57 4.5-91t70.5-34q32 0 60.5 14t49.5 46l68 322h137l-106-500h-134zM420 710h164l-175-160h-104z" glyph-name="uacute" horiz-adv-x="590" unicode="&#xfa;"/><glyph d="M348 41q-28-24-62-36.5t-76-12.5q-41 0-75 17t-56.5 48.5-30.5 76.5 4 102l56 264h137l-54-257q-12-57 4.5-91t70.5-34q32 0 60.5 14t49.5 46l68 322h137l-106-500h-134zM198 629l196 97 152-102-52-76-111 71-146-71z" glyph-name="ucircumflex" horiz-adv-x="590" unicode="&#xfb;"/><glyph d="M348 41q-28-24-62-36.5t-76-12.5q-41 0-75 17t-56.5 48.5-30.5 76.5 4 102l56 264h137l-54-257q-12-57 4.5-91t70.5-34q32 0 60.5 14t49.5 46l68 322h137l-106-500h-134zM569 644q0-32-22-54t-54-22-54 22-22 54q0 31 22 53t54 22 54-22 22-53zM334 644q0-32-22.5-54t-53.5-22q-32 0-54 22t-22 54q0 31 22 53t54 22q31 0 53.5-22t22.5-53z" glyph-name="udieresis" horiz-adv-x="590" unicode="&#xfc;"/><glyph d="M138 6l-84 494h141l48-329 184 329h150l-408-684h-145zM385 710h164l-175-160h-104z" glyph-name="yacute" horiz-adv-x="522" unicode="&#xfd;"/><glyph d="M161 710h138l-55-238q23 17 52 26.5t63 9.5q46 0 84.5-18t66-49 42.5-71 15-84q0-61-19.5-114.5t-56-93.5-89-63-119.5-23q-38 0-71 10t-57 32l-46-218h-138zM324 382q-28 0-55-10.5t-48-30.5l-39-181q18-23 44-32.5t55-9.5q30 0 57 11t47.5 31 32 48 11.5 61q0 54-29 83.5t-76 29.5z" glyph-name="thorn" horiz-adv-x="601" unicode="&#xfe;"/><glyph d="M138 6l-84 494h141l48-329 184 329h150l-408-684h-145zM534 644q0-32-22-54t-54-22-54 22-22 54q0 31 22 53t54 22 54-22 22-53zM299 644q0-32-22.5-54t-53.5-22q-32 0-54 22t-22 54q0 31 22 53t54 22q31 0 53.5-22t22.5-53z" glyph-name="ydieresis" horiz-adv-x="522" unicode="&#xff;"/><glyph d="M451 126h-271l-86-126h-162l502 718 195-718h-146zM420 246l-43 169-115-169h158zM643 941q-5-81-55-127.5t-138-46.5q-40 0-71 13t-52.5 36-32.5 55-10 70h81q2-53 28.5-74t64.5-21q41 0 69 22t36 73h80z" glyph-name="Abreve" horiz-adv-x="668" unicode="&#x102;"/><glyph d="M451 126h-271l-86-126h-162l502 718 195-718h-146zM420 246l-43 169-115-169h158zM310 895h321l-21-97h-321z" glyph-name="Amacron" horiz-adv-x="668" unicode="&#x100;"/><glyph d="M629 0q-42-20-59.5-37t-17.5-33q0-25 28-25 10 0 18.5 3.5t13.5 7.5l-17-82q-17-14-39-18.5t-45-4.5q-38 0-64.5 22t-26.5 60q0 32 18.5 59t44.5 48l-32 126h-271l-86-126h-162l502 718zM420 246l-43 169-115-169h158z" glyph-name="Aogonek" horiz-adv-x="668" unicode="&#x104;"/><glyph d="M691 110q-52-57-127-87.5t-168-30.5q-78 0-139.5 27.5t-104.5 74-66 107-23 127.5q0 75 26.5 145t78 124.5 128 87.5 175.5 33q97 0 168.5-40t112.5-105l-119-85q-26 39-71.5 64.5t-104.5 25.5q-56 0-102-19t-78.5-51.5-50-75.5-17.5-91q0-42 12-79.5t37-66.5 62-46 87-17q60 0 107 22t79 59zM534 913h160l-154-145h-107z" glyph-name="Cacute" horiz-adv-x="721" unicode="&#x106;"/><glyph d="M691 110q-52-57-127-87.5t-168-30.5q-78 0-139.5 27.5t-104.5 74-66 107-23 127.5q0 75 26.5 145t78 124.5 128 87.5 175.5 33q97 0 168.5-40t112.5-105l-119-85q-26 39-71.5 64.5t-104.5 25.5q-56 0-102-19t-78.5-51.5-50-75.5-17.5-91q0-42 12-79.5t37-66.5 62-46 87-17q60 0 107 22t79 59zM675 845l-195-84-155 87 44 82 119-66 150 66z" glyph-name="Ccaron" horiz-adv-x="721" unicode="&#x10c;"/><glyph d="M691 110q-52-57-127-87.5t-168-30.5q-78 0-139.5 27.5t-104.5 74-66 107-23 127.5q0 75 26.5 145t78 124.5 128 87.5 175.5 33q97 0 168.5-40t112.5-105l-119-85q-26 39-71.5 64.5t-104.5 25.5q-56 0-102-19t-78.5-51.5-50-75.5-17.5-91q0-42 12-79.5t37-66.5 62-46 87-17q60 0 107 22t79 59zM322 843l192 87 155-87-43-82-119 65-148-65z" glyph-name="Ccircumflex" horiz-adv-x="721" unicode="&#x108;"/><glyph d="M691 110q-52-57-127-87.5t-168-30.5q-78 0-139.5 27.5t-104.5 74-66 107-23 127.5q0 75 26.5 145t78 124.5 128 87.5 175.5 33q97 0 168.5-40t112.5-105l-119-85q-26 39-71.5 64.5t-104.5 25.5q-56 0-102-19t-78.5-51.5-50-75.5-17.5-91q0-42 12-79.5t37-66.5 62-46 87-17q60 0 107 22t79 59zM500 773q-15 0-28.5 5.5t-24 16-17 24-6.5 30.5q0 31 22.5 53t53.5 22q32 0 54-22t22-53q0-32-22.5-54t-53.5-22z" glyph-name="Cdotaccent" horiz-adv-x="721" unicode="&#x10a;"/><glyph d="M178 710h223q73 0 131.5-24.5t99.5-65.5 62.5-94.5 21.5-112.5q0-103-33.5-180.5t-92-129-138.5-77.5-174-26h-251zM289 133q58 0 109 18.5t88.5 52 59.5 81 22 105.5q0 39-12 73.5t-35 59.5-57 39.5-77 14.5h-92l-95-444h89zM636 845l-195-84-155 87 44 82 119-66 150 66z" glyph-name="Dcaron" horiz-adv-x="732" unicode="&#x10e;"/><glyph d="M202 710h223q73 0 131.5-24.5t99.5-65.5 62.5-94.5 21.5-112.5q0-103-33.5-180.5t-92-129-138.5-77.5-174-26h-251zM313 133q58 0 109 18.5t88.5 52 59.5 81 22 105.5q0 39-12 73.5t-35 59.5-57 39.5-77 14.5h-92l-95-444h89zM40 392h337l-15-74h-337z" glyph-name="Dcroat" horiz-adv-x="756" unicode="&#x110;"/><glyph d="M178 710h434l-31-143h-289l-30-140h230l-30-140h-230l-30-144h290l-31-143h-434zM607 941q-5-81-55-127.5t-138-46.5q-40 0-71 13t-52.5 36-32.5 55-10 70h81q2-53 28.5-74t64.5-21q41 0 69 22t36 73h80z" glyph-name="Ebreve" horiz-adv-x="562" unicode="&#x114;"/><glyph d="M178 710h434l-31-143h-289l-30-140h230l-30-140h-230l-30-144h290l-31-143h-434zM600 845l-195-84-155 87 44 82 119-66 150 66z" glyph-name="Ecaron" horiz-adv-x="562" unicode="&#x11a;"/><glyph d="M178 710h434l-31-143h-289l-30-140h230l-30-140h-230l-30-144h290l-31-143h-434zM274 895h321l-21-97h-321z" glyph-name="Emacron" horiz-adv-x="562" unicode="&#x112;"/><glyph d="M178 710h434l-31-143h-289l-30-140h230l-30-140h-230l-30-144h290l-31-143h-434zM342-189q-38 0-64.5 22t-26.5 60q0 32 18.5 59t45.5 48h146q-42-20-60-37t-18-33q0-25 28-25 10 0 19 3.5t14 7.5l-18-82q-17-14-39-18.5t-45-4.5z" glyph-name="Eogonek" horiz-adv-x="562" unicode="&#x118;"/><glyph d="M178 710h434l-31-143h-289l-30-140h230l-30-140h-230l-30-144h290l-31-143h-434zM425 773q-15 0-28.5 5.5t-24 16-17 24-6.5 30.5q0 31 22.5 53t53.5 22q32 0 54-22t22-53q0-32-22.5-54t-53.5-22z" glyph-name="Edotaccent" horiz-adv-x="562" unicode="&#x116;"/><glyph d="M677 79q-50-39-120.5-63t-161.5-24q-77 0-138.5 27t-104.5 72.5-66 104.5-23 123q0 78 25.5 150t76.5 127.5 127.5 88.5 178.5 33q96 0 169-40t115-105l-119-85q-26 39-73.5 64.5t-104.5 25.5q-59 0-105.5-19.5t-78-52.5-48-77.5-16.5-95.5q0-40 12.5-76.5t37-64 61.5-44 86-16.5q47 0 83 8.5t65 28.5l26 119h-177l90 137h256zM682 941q-5-81-55-127.5t-138-46.5q-40 0-71 13t-52.5 36-32.5 55-10 70h81q2-53 28.5-74t64.5-21q41 0 69 22t36 73h80z" glyph-name="Gbreve" horiz-adv-x="764" unicode="&#x11e;"/><glyph d="M677 79q-50-39-120.5-63t-161.5-24q-77 0-138.5 27t-104.5 72.5-66 104.5-23 123q0 78 25.5 150t76.5 127.5 127.5 88.5 178.5 33q96 0 169-40t115-105l-119-85q-26 39-73.5 64.5t-104.5 25.5q-59 0-105.5-19.5t-78-52.5-48-77.5-16.5-95.5q0-40 12.5-76.5t37-64 61.5-44 86-16.5q47 0 83 8.5t65 28.5l26 119h-177l90 137h256zM322 843l192 87 155-87-43-82-119 65-148-65z" glyph-name="Gcircumflex" horiz-adv-x="764" unicode="&#x11c;"/><glyph d="M677 79q-50-39-120.5-63t-161.5-24q-77 0-138.5 27t-104.5 72.5-66 104.5-23 123q0 78 25.5 150t76.5 127.5 127.5 88.5 178.5 33q96 0 169-40t115-105l-119-85q-26 39-73.5 64.5t-104.5 25.5q-59 0-105.5-19.5t-78-52.5-48-77.5-16.5-95.5q0-40 12.5-76.5t37-64 61.5-44 86-16.5q47 0 83 8.5t65 28.5l26 119h-177l90 137h256zM309-50h138l-118-165h-83z" glyph-name="uni0122" horiz-adv-x="764" unicode="&#x122;"/><glyph d="M677 79q-50-39-120.5-63t-161.5-24q-77 0-138.5 27t-104.5 72.5-66 104.5-23 123q0 78 25.5 150t76.5 127.5 127.5 88.5 178.5 33q96 0 169-40t115-105l-119-85q-26 39-73.5 64.5t-104.5 25.5q-59 0-105.5-19.5t-78-52.5-48-77.5-16.5-95.5q0-40 12.5-76.5t37-64 61.5-44 86-16.5q47 0 83 8.5t65 28.5l26 119h-177l90 137h256zM500 773q-15 0-28.5 5.5t-24 16-17 24-6.5 30.5q0 31 22.5 53t53.5 22q32 0 54-22t22-53q0-32-22.5-54t-53.5-22z" glyph-name="Gdotaccent" horiz-adv-x="764" unicode="&#x120;"/><glyph d="M184 710h145l-61-283h308l60 283h145l-151-710h-145l61 287h-307l-61-287h-145zM97 606h730l-16-74h-730z" glyph-name="Hbar" horiz-adv-x="771" unicode="&#x126;"/><glyph d="M178 710h145l-61-283h308l60 283h145l-151-710h-145l61 287h-307l-61-287h-145zM329 843l192 87 155-87-43-82-119 65-148-65z" glyph-name="Hcircumflex" horiz-adv-x="757" unicode="&#x124;"/><glyph d="M178 710h146l-151-710h-146zM460 941q-5-81-55-127.5t-138-46.5q-40 0-71 13t-52.5 36-32.5 55-10 70h81q2-53 28.5-74t64.5-21q41 0 69 22t36 73h80z" glyph-name="Ibreve" horiz-adv-x="306" unicode="&#x12c;"/><glyph d="M178 710h146l-151-710h-146zM278 773q-15 0-28.5 5.5t-24 16-17 24-6.5 30.5q0 31 22.5 53t53.5 22q32 0 54-22t22-53q0-32-22.5-54t-53.5-22z" glyph-name="Idotaccent" horiz-adv-x="306" unicode="&#x130;"/><glyph d="M178 710h146l-151-710h-146zM127 895h321l-21-97h-321z" glyph-name="Imacron" horiz-adv-x="306" unicode="&#x12a;"/><glyph d="M178 710h146l-151-710h-146zM54-189q-38 0-64.5 22t-26.5 60q0 32 18.5 59t45.5 48h146q-42-20-60-37t-18-33q0-25 28-25 10 0 19 3.5t14 7.5l-18-82q-17-14-39-18.5t-45-4.5z" glyph-name="Iogonek" horiz-adv-x="306" unicode="&#x12e;"/><glyph d="M178 710h146l-151-710h-146zM76 779q21 72 57 105t81 33q21 0 38.5-6.5t32.5-14 28.5-14 26.5-6.5q18 0 28 9.5t21 32.5h94q-23-73-57.5-105.5t-80.5-32.5q-21 0-39 6.5t-33 14-28.5 14-26.5 6.5q-18 0-27.5-9.5t-20.5-32.5h-94z" glyph-name="Itilde" horiz-adv-x="306" unicode="&#x128;"/><glyph d="M178 710h146l-151-710h-146zM73-202q-15 0-28.5 5.5t-24 16-17 24-6.5 30.5q0 31 22.5 53t53.5 22q32 0 54-22t22-53q0-32-22.5-54t-53.5-22z" glyph-name="uni1ECA" horiz-adv-x="306" unicode="&#x1eca;"/><glyph d="M442 202q-12-56-31-96t-48-65.5-69.5-37-95.5-11.5q-47 0-86.5 18t-66 49-37.5 72.5-1 88.5h145q-9-47 8.5-71.5t51.5-24.5 54.5 18 31.5 68l107 500h145zM329 843l192 87 155-87-43-82-119 65-148-65z" glyph-name="Jcircumflex" horiz-adv-x="527" unicode="&#x134;"/><glyph d="M178 710h145l-75-354 336 354h174l-355-375 213-335h-160l-213 333-71-333h-145zM235-50h138l-118-165h-83z" glyph-name="uni0136" horiz-adv-x="663" unicode="&#x136;"/><glyph d="M178 710h146l-121-566h285l-31-144h-430zM313 913h160l-154-145h-107z" glyph-name="Lacute" horiz-adv-x="529" unicode="&#x139;"/><glyph d="M178 710h146l-121-566h285l-31-144h-430zM539 710l-97-161h-92l54 161h135z" glyph-name="Lcaron" horiz-adv-x="532" unicode="&#x13d;"/><glyph d="M178 710h146l-121-566h285l-31-144h-430zM170-50h138l-118-165h-83z" glyph-name="uni013B" horiz-adv-x="529" unicode="&#x13b;"/><glyph d="M178 710h146l-121-566h285l-31-144h-430zM445 338q-15 0-28.5 5.5t-24 16-17 24-6.5 30.5q0 31 22.5 53t53.5 22q32 0 54-22t22-53q0-32-22.5-54t-53.5-22z" glyph-name="Ldot" horiz-adv-x="537" unicode="&#x13f;"/><glyph d="M249 710h146l-121-566h285l-31-144h-430zM12 287l441 227 34-66-441-228z" glyph-name="Lslash" horiz-adv-x="600" unicode="&#x141;"/><glyph d="M260 416l-88-416h-145l153 718 369-425 88 417h145l-153-718zM502 913h160l-154-145h-107z" glyph-name="Nacute" horiz-adv-x="764" unicode="&#x143;"/><glyph d="M260 416l-88-416h-145l153 718 369-425 88 417h145l-153-718zM643 845l-195-84-155 87 44 82 119-66 150 66z" glyph-name="Ncaron" horiz-adv-x="764" unicode="&#x147;"/><glyph d="M260 416l-88-416h-145l153 718 369-425 88 417h145l-153-718zM318-50h138l-118-165h-83z" glyph-name="uni0145" horiz-adv-x="764" unicode="&#x145;"/><glyph d="M559 21q-73-29-164-29-77 0-138 27.5t-104.5 74-66.5 106.5-23 125q0 75 26.5 146t78 125.5 127 88 174.5 33.5q67 0 122.5-21.5t97.5-58.5l16 72h434l-31-143h-289l-24-113q2-7 2.5-13.5t1.5-13.5h220l-30-140h-199q-9-39-26.5-75.5t-41.5-68.5h297l-31-143h-434zM209 338q0-41 12.5-78t37.5-65.5 62-45.5 86-17q57 0 102.5 19.5t78 52.5 50 76.5 17.5 91.5q0 40-12.5 77.5t-37.5 66-62 45.5-86 17q-57 0-102.5-19.5t-78-52.5-50-76.5-17.5-91.5z" glyph-name="OE" horiz-adv-x="1089" unicode="&#x152;"/><glyph d="M802 385q0-75-26.5-146t-78-125.5-127.5-88-175-33.5q-77 0-138 27.5t-104.5 74-66.5 106.5-23 125q0 75 26.5 146t78 125.5 127 88 174.5 33.5q76 0 138-27.5t105-74 66.5-106.5 23.5-125zM209 338q0-41 12.5-78t37.5-65.5 62-45.5 86-17q57 0 102.5 19.5t78 52.5 50 76.5 17.5 91.5q0 40-12.5 77.5t-37.5 66-62 45.5-86 17q-57 0-102.5-19.5t-78-52.5-50-76.5-17.5-91.5zM681 941q-5-81-55-127.5t-138-46.5q-40 0-71 13t-52.5 36-32.5 55-10 70h81q2-53 28.5-74t64.5-21q41 0 69 22t36 73h80z" glyph-name="Obreve" horiz-adv-x="820" unicode="&#x14e;"/><glyph d="M802 385q0-75-26.5-146t-78-125.5-127.5-88-175-33.5q-77 0-138 27.5t-104.5 74-66.5 106.5-23 125q0 75 26.5 146t78 125.5 127 88 174.5 33.5q76 0 138-27.5t105-74 66.5-106.5 23.5-125zM209 338q0-41 12.5-78t37.5-65.5 62-45.5 86-17q57 0 102.5 19.5t78 52.5 50 76.5 17.5 91.5q0 40-12.5 77.5t-37.5 66-62 45.5-86 17q-57 0-102.5-19.5t-78-52.5-50-76.5-17.5-91.5zM629 913h151l-154-145h-100zM434 913h152l-155-145h-99z" glyph-name="Ohungarumlaut" horiz-adv-x="820" unicode="&#x150;"/><glyph d="M802 385q0-75-26.5-146t-78-125.5-127.5-88-175-33.5q-77 0-138 27.5t-104.5 74-66.5 106.5-23 125q0 75 26.5 146t78 125.5 127 88 174.5 33.5q76 0 138-27.5t105-74 66.5-106.5 23.5-125zM209 338q0-41 12.5-78t37.5-65.5 62-45.5 86-17q57 0 102.5 19.5t78 52.5 50 76.5 17.5 91.5q0 40-12.5 77.5t-37.5 66-62 45.5-86 17q-57 0-102.5-19.5t-78-52.5-50-76.5-17.5-91.5zM348 895h321l-21-97h-321z" glyph-name="Omacron" horiz-adv-x="820" unicode="&#x14c;"/><glyph d="M802 385q0-75-26.5-146t-78-125.5-127.5-88-175-33.5q-77 0-138 27.5t-104.5 74-66.5 106.5-23 125q0 75 26.5 146t78 125.5 127 88 174.5 33.5q76 0 138-27.5t105-74 66.5-106.5 23.5-125zM209 338q0-41 12.5-78t37.5-65.5 62-45.5 86-17q57 0 102.5 19.5t78 52.5 50 76.5 17.5 91.5q0 40-12.5 77.5t-37.5 66-62 45.5-86 17q-57 0-102.5-19.5t-78-52.5-50-76.5-17.5-91.5zM367-202q-15 0-28.5 5.5t-24 16-17 24-6.5 30.5q0 31 22.5 53t53.5 22q32 0 54-22t22-53q0-32-22.5-54t-53.5-22z" glyph-name="uni1ECC" horiz-adv-x="820" unicode="&#x1ecc;"/><glyph d="M256 294h-23l-62-294h-144l151 710h220q50 0 89-15.5t66-41.5 41.5-59.5 14.5-69.5q0-48-15-86t-41.5-66.5-64-47-82.5-25.5l165-299h-154zM357 417q47 0 77.5 24.5t30.5 65.5q0 30-20 50.5t-55 20.5h-96l-34-161h97zM444 913h160l-154-145h-107z" glyph-name="Racute" horiz-adv-x="635" unicode="&#x154;"/><glyph d="M256 294h-23l-62-294h-144l151 710h220q50 0 89-15.5t66-41.5 41.5-59.5 14.5-69.5q0-48-15-86t-41.5-66.5-64-47-82.5-25.5l165-299h-154zM357 417q47 0 77.5 24.5t30.5 65.5q0 30-20 50.5t-55 20.5h-96l-34-161h97zM599 845l-195-84-155 87 44 82 119-66 150 66z" glyph-name="Rcaron" horiz-adv-x="635" unicode="&#x158;"/><glyph d="M256 294h-23l-62-294h-144l151 710h220q50 0 89-15.5t66-41.5 41.5-59.5 14.5-69.5q0-48-15-86t-41.5-66.5-64-47-82.5-25.5l165-299h-154zM357 417q47 0 77.5 24.5t30.5 65.5q0 30-20 50.5t-55 20.5h-96l-34-161h97zM220-50h138l-118-165h-83z" glyph-name="uni0156" horiz-adv-x="635" unicode="&#x156;"/><glyph d="M500 207q0-47-16.5-86t-47.5-68-76-45-101-16q-91 0-152.5 44t-91.5 114l127 73q19-48 48-72t75-24q36 0 60.5 18t24.5 48q0 26-16 45t-56 47l-41 30q-59 44-95.5 91t-36.5 110q0 48 17.5 85.5t47.5 63.5 69.5 39.5 83.5 13.5q31 0 62-5.5t59.5-19 54-37.5 47.5-60l-126-73q-21 37-45.5 48.5t-51.5 11.5q-29 0-50-15.5t-21-41.5 19.5-48 57.5-50l41-29q24-18 47.5-38.5t41.5-44 29.5-51 11.5-58.5zM409 913h160l-154-145h-107z" glyph-name="Sacute" horiz-adv-x="542" unicode="&#x15a;"/><glyph d="M500 207q0-47-16.5-86t-47.5-68-76-45-101-16q-91 0-152.5 44t-91.5 114l127 73q19-48 48-72t75-24q36 0 60.5 18t24.5 48q0 26-16 45t-56 47l-41 30q-59 44-95.5 91t-36.5 110q0 48 17.5 85.5t47.5 63.5 69.5 39.5 83.5 13.5q31 0 62-5.5t59.5-19 54-37.5 47.5-60l-126-73q-21 37-45.5 48.5t-51.5 11.5q-29 0-50-15.5t-21-41.5 19.5-48 57.5-50l41-29q24-18 47.5-38.5t41.5-44 29.5-51 11.5-58.5zM550 845l-195-84-155 87 44 82 119-66 150 66z" glyph-name="Scaron" horiz-adv-x="542" unicode="&#x160;"/><glyph d="M500 207q0-47-16.5-86t-47.5-68-76-45-101-16q-91 0-152.5 44t-91.5 114l127 73q19-48 48-72t75-24q36 0 60.5 18t24.5 48q0 26-16 45t-56 47l-41 30q-59 44-95.5 91t-36.5 110q0 48 17.5 85.5t47.5 63.5 69.5 39.5 83.5 13.5q31 0 62-5.5t59.5-19 54-37.5 47.5-60l-126-73q-21 37-45.5 48.5t-51.5 11.5q-29 0-50-15.5t-21-41.5 19.5-48 57.5-50l41-29q24-18 47.5-38.5t41.5-44 29.5-51 11.5-58.5zM210 0h96l-80-165h-124z" glyph-name="Scedilla" horiz-adv-x="542" unicode="&#x15e;"/><glyph d="M500 207q0-47-16.5-86t-47.5-68-76-45-101-16q-91 0-152.5 44t-91.5 114l127 73q19-48 48-72t75-24q36 0 60.5 18t24.5 48q0 26-16 45t-56 47l-41 30q-59 44-95.5 91t-36.5 110q0 48 17.5 85.5t47.5 63.5 69.5 39.5 83.5 13.5q31 0 62-5.5t59.5-19 54-37.5 47.5-60l-126-73q-21 37-45.5 48.5t-51.5 11.5q-29 0-50-15.5t-21-41.5 19.5-48 57.5-50l41-29q24-18 47.5-38.5t41.5-44 29.5-51 11.5-58.5zM197 843l192 87 155-87-43-82-119 65-148-65z" glyph-name="Scircumflex" horiz-adv-x="542" unicode="&#x15c;"/><glyph d="M500 207q0-47-16.5-86t-47.5-68-76-45-101-16q-91 0-152.5 44t-91.5 114l127 73q19-48 48-72t75-24q36 0 60.5 18t24.5 48q0 26-16 45t-56 47l-41 30q-59 44-95.5 91t-36.5 110q0 48 17.5 85.5t47.5 63.5 69.5 39.5 83.5 13.5q31 0 62-5.5t59.5-19 54-37.5 47.5-60l-126-73q-21 37-45.5 48.5t-51.5 11.5q-29 0-50-15.5t-21-41.5 19.5-48 57.5-50l41-29q24-18 47.5-38.5t41.5-44 29.5-51 11.5-58.5zM174-50h138l-118-165h-83z" glyph-name="uni0218" horiz-adv-x="542" unicode="&#x218;"/><glyph d="M261 567h-175l31 143h496l-31-143h-174l-120-567h-148zM568 845l-195-84-155 87 44 82 119-66 150 66z" glyph-name="Tcaron" horiz-adv-x="534" unicode="&#x164;"/><glyph d="M261 567h-175l31 143h496l-31-143h-174l-120-567h-148zM126-50h138l-118-165h-83z" glyph-name="uni0162" horiz-adv-x="534" unicode="&#x162;"/><glyph d="M261 567h-175l31 143h496l-31-143h-174l-120-567h-148zM126-50h138l-118-165h-83z" glyph-name="uni021A" horiz-adv-x="534" unicode="&#x21a;"/><glyph d="M654 285q-16-76-42.5-131.5t-66-91.5-93.5-53-126-17q-63 0-114.5 23t-85 64-46.5 99 2 127l86 405h145l-89-419q-8-41-3-71t21.5-49.5 42-29 57.5-9.5q64 0 107 36.5t59 114.5l91 427h146zM661 941q-5-81-55-127.5t-138-46.5q-40 0-71 13t-52.5 36-32.5 55-10 70h81q2-53 28.5-74t64.5-21q41 0 69 22t36 73h80z" glyph-name="Ubreve" horiz-adv-x="720" unicode="&#x16c;"/><glyph d="M654 285q-16-76-42.5-131.5t-66-91.5-93.5-53-126-17q-63 0-114.5 23t-85 64-46.5 99 2 127l86 405h145l-89-419q-8-41-3-71t21.5-49.5 42-29 57.5-9.5q64 0 107 36.5t59 114.5l91 427h146zM609 913h151l-154-145h-100zM414 913h152l-155-145h-99z" glyph-name="Uhungarumlaut" horiz-adv-x="720" unicode="&#x170;"/><glyph d="M654 285q-16-76-42.5-131.5t-66-91.5-93.5-53-126-17q-63 0-114.5 23t-85 64-46.5 99 2 127l86 405h145l-89-419q-8-41-3-71t21.5-49.5 42-29 57.5-9.5q64 0 107 36.5t59 114.5l91 427h146zM328 895h321l-21-97h-321z" glyph-name="Umacron" horiz-adv-x="720" unicode="&#x16a;"/><glyph d="M654 285q-16-76-42.5-131.5t-66-91.5-93.5-53-126-17q-63 0-114.5 23t-85 64-46.5 99 2 127l86 405h145l-89-419q-8-41-3-71t21.5-49.5 42-29 57.5-9.5q64 0 107 36.5t59 114.5l91 427h146zM290-189q-38 0-64.5 22t-26.5 60q0 32 18.5 59t45.5 48h146q-42-20-60-37t-18-33q0-25 28-25 10 0 19 3.5t14 7.5l-18-82q-17-14-39-18.5t-45-4.5z" glyph-name="Uogonek" horiz-adv-x="720" unicode="&#x172;"/><glyph d="M654 285q-16-76-42.5-131.5t-66-91.5-93.5-53-126-17q-63 0-114.5 23t-85 64-46.5 99 2 127l86 405h145l-89-419q-8-41-3-71t21.5-49.5 42-29 57.5-9.5q64 0 107 36.5t59 114.5l91 427h146zM600 872q0-24-9-44.5t-25-36.5-36.5-25-44.5-9-45 9-37 25-25 36.5-9 44.5 9 44.5 25 36 37 24.5 45 9 44.5-9 36.5-24.5 25-36 9-44.5zM437 872q0-20 14-33.5t34-13.5 33.5 13.5 13.5 33.5-13.5 33.5-33.5 13.5-34-13.5-14-33.5z" glyph-name="Uring" horiz-adv-x="720" unicode="&#x16e;"/><glyph d="M654 285q-16-76-42.5-131.5t-66-91.5-93.5-53-126-17q-63 0-114.5 23t-85 64-46.5 99 2 127l86 405h145l-89-419q-8-41-3-71t21.5-49.5 42-29 57.5-9.5q64 0 107 36.5t59 114.5l91 427h146zM277 779q21 72 57 105t81 33q21 0 38.5-6.5t32.5-14 28.5-14 26.5-6.5q18 0 28 9.5t21 32.5h94q-23-73-57.5-105.5t-80.5-32.5q-21 0-39 6.5t-33 14-28.5 14-26.5 6.5q-18 0-27.5-9.5t-20.5-32.5h-94z" glyph-name="Utilde" horiz-adv-x="720" unicode="&#x168;"/><glyph d="M654 285q-16-76-42.5-131.5t-66-91.5-93.5-53-126-17q-63 0-114.5 23t-85 64-46.5 99 2 127l86 405h145l-89-419q-8-41-3-71t21.5-49.5 42-29 57.5-9.5q64 0 107 36.5t59 114.5l91 427h146zM299-202q-15 0-28.5 5.5t-24 16-17 24-6.5 30.5q0 31 22.5 53t53.5 22q32 0 54-22t22-53q0-32-22.5-54t-53.5-22z" glyph-name="uni1EE4" horiz-adv-x="720" unicode="&#x1ee4;"/><glyph d="M95 710h143l42-359 246 367 82-379 200 371h152l-397-718-92 432-285-432zM587 913h160l-154-145h-107z" glyph-name="Wacute" horiz-adv-x="861" unicode="&#x1e82;"/><glyph d="M95 710h143l42-359 246 367 82-379 200 371h152l-397-718-92 432-285-432zM376 843l192 87 155-87-43-82-119 65-148-65z" glyph-name="Wcircumflex" horiz-adv-x="861" unicode="&#x174;"/><glyph d="M95 710h143l42-359 246 367 82-379 200 371h152l-397-718-92 432-285-432zM747 849q0-32-22-54t-54-22-54 22-22 54q0 31 22 53t54 22 54-22 22-53zM512 849q0-32-22.5-54t-53.5-22q-32 0-54 22t-22 54q0 31 22 53t54 22q31 0 53.5-22t22.5-53z" glyph-name="Wdieresis" horiz-adv-x="861" unicode="&#x1e84;"/><glyph d="M95 710h143l42-359 246 367 82-379 200 371h152l-397-718-92 432-285-432zM387 913h146l44-145h-96z" glyph-name="Wgrave" horiz-adv-x="861" unicode="&#x1e80;"/><glyph d="M272 298l-175 412h154l111-271 226 271h180l-351-412-63-298h-145zM266 843l192 87 155-87-43-82-119 65-148-65z" glyph-name="Ycircumflex" horiz-adv-x="669" unicode="&#x176;"/><glyph d="M272 298l-175 412h154l111-271 226 271h180l-351-412-63-298h-145zM638 849q0-32-22-54t-54-22-54 22-22 54q0 31 22 53t54 22 54-22 22-53zM403 849q0-32-22.5-54t-53.5-22q-32 0-54 22t-22 54q0 31 22 53t54 22q31 0 53.5-22t22.5-53z" glyph-name="Ydieresis" horiz-adv-x="669" unicode="&#x178;"/><glyph d="M272 298l-175 412h154l111-271 226 271h180l-351-412-63-298h-145zM278 913h146l44-145h-96z" glyph-name="Ygrave" horiz-adv-x="669" unicode="&#x1ef2;"/><glyph d="M272 298l-175 412h154l111-271 226 271h180l-351-412-63-298h-145zM293 895h321l-21-97h-321z" glyph-name="uni0232" horiz-adv-x="669" unicode="&#x232;"/><glyph d="M413 567h-294l31 143h550l-457-567h319l-31-143h-575zM466 913h160l-154-145h-107z" glyph-name="Zacute" horiz-adv-x="620" unicode="&#x179;"/><glyph d="M413 567h-294l31 143h550l-457-567h319l-31-143h-575zM607 845l-195-84-155 87 44 82 119-66 150 66z" glyph-name="Zcaron" horiz-adv-x="620" unicode="&#x17d;"/><glyph d="M413 567h-294l31 143h550l-457-567h319l-31-143h-575zM432 773q-15 0-28.5 5.5t-24 16-17 24-6.5 30.5q0 31 22.5 53t53.5 22q32 0 54-22t22-53q0-32-22.5-54t-53.5-22z" glyph-name="Zdotaccent" horiz-adv-x="620" unicode="&#x17b;"/><glyph d="M177 710h489l-172-268q53-20 85.5-68t32.5-117q0-58-20.5-105.5t-58.5-81-91.5-52-120.5-18.5h-70l29 138h51q62 0 98 31.5t36 83.5q0 44-30.5 70t-78.5 26h-31l23 105 80 124h-133l-122-578h-146z" glyph-name="uni1E9E" horiz-adv-x="653" unicode="&#x1e9e;"/><glyph d="M363 33q-25-20-56.5-30.5t-67.5-10.5q-45 0-82.5 18t-65 49-43 71-15.5 84q0 61 21 114.5t58.5 93.5 90 63 115.5 23q38 0 71-10.5t56-32.5l8 35h136l-106-500h-125zM276 118q28 0 55.5 10t47.5 30l38 181q-17 23-43.5 33t-54.5 10q-30 0-57-11t-47.5-31-32-48-11.5-61q0-54 29-83.5t76-29.5zM562 710q-7-70-56-114t-137-44q-40 0-71 12.5t-52 34-32.5 50-11.5 61.5h81q2-41 28.5-60t62.5-19q42 0 71 20.5t36 58.5h81z" glyph-name="abreve" horiz-adv-x="598" unicode="&#x103;"/><glyph d="M363 33q-25-20-56.5-30.5t-67.5-10.5q-45 0-82.5 18t-65 49-43 71-15.5 84q0 61 21 114.5t58.5 93.5 90 63 115.5 23q38 0 71-10.5t56-32.5l8 35h136l-106-500h-125zM276 118q28 0 55.5 10t47.5 30l38 181q-17 23-43.5 33t-54.5 10q-30 0-57-11t-47.5-31-32-48-11.5-61q0-54 29-83.5t76-29.5zM230 676h322l-19-89h-321z" glyph-name="amacron" horiz-adv-x="598" unicode="&#x101;"/><glyph d="M364-189q-38 0-61.5 22.5t-23.5 59.5q0 35 22 61t57 46l5 33q-25-20-56.5-30.5t-67.5-10.5q-45 0-82.5 18t-65 49-43 71-15.5 84q0 61 21 114.5t58.5 93.5 90 63 115.5 23q38 0 71-10.5t56-32.5l8 35h136l-106-500q-42-20-60-38.5t-18-31.5q0-25 28-25 10 0 19 3.5t14 7.5l-18-82q-17-14-39-18.5t-45-4.5zM276 118q28 0 55.5 10t47.5 30l38 181q-17 23-43.5 33t-54.5 10q-30 0-57-11t-47.5-31-32-48-11.5-61q0-54 29-83.5t76-29.5z" glyph-name="aogonek" horiz-adv-x="598" unicode="&#x105;"/><glyph d="M491 92q-39-46-95-73t-124-27q-57 0-101 19.5t-74.5 52-46 75-15.5 88.5q0 59 21 110.5t58.5 89.5 89.5 59.5 115 21.5q39 0 71.5-10t59-27 46.5-40 32-49l-114-69q-16 32-43.5 49.5t-62.5 17.5q-29 0-54-10.5t-43-29.5-28-45-10-56q0-57 32-88t78-31q35 0 63 15t49 40zM395 710h164l-175-160h-104z" glyph-name="cacute" horiz-adv-x="533" unicode="&#x107;"/><glyph d="M491 92q-39-46-95-73t-124-27q-57 0-101 19.5t-74.5 52-46 75-15.5 88.5q0 59 21 110.5t58.5 89.5 89.5 59.5 115 21.5q39 0 71.5-10t59-27 46.5-40 32-49l-114-69q-16 32-43.5 49.5t-62.5 17.5q-29 0-54-10.5t-43-29.5-28-45-10-56q0-57 32-88t78-31q35 0 63 15t49 40zM524 644l-197-93-151 102 51 76 110-72 147 72z" glyph-name="ccaron" horiz-adv-x="533" unicode="&#x10d;"/><glyph d="M491 92q-39-46-95-73t-124-27q-57 0-101 19.5t-74.5 52-46 75-15.5 88.5q0 59 21 110.5t58.5 89.5 89.5 59.5 115 21.5q39 0 71.5-10t59-27 46.5-40 32-49l-114-69q-16 32-43.5 49.5t-62.5 17.5q-29 0-54-10.5t-43-29.5-28-45-10-56q0-57 32-88t78-31q35 0 63 15t49 40zM173 629l196 97 152-102-52-76-111 71-146-71z" glyph-name="ccircumflex" horiz-adv-x="533" unicode="&#x109;"/><glyph d="M491 92q-39-46-95-73t-124-27q-57 0-101 19.5t-74.5 52-46 75-15.5 88.5q0 59 21 110.5t58.5 89.5 89.5 59.5 115 21.5q39 0 71.5-10t59-27 46.5-40 32-49l-114-69q-16 32-43.5 49.5t-62.5 17.5q-29 0-54-10.5t-43-29.5-28-45-10-56q0-57 32-88t78-31q35 0 63 15t49 40zM350 568q-15 0-28.5 5.5t-24 16-17 24-6.5 30.5q0 31 22.5 53t53.5 22q32 0 54-22t22-53q0-32-22.5-54t-53.5-22z" glyph-name="cdotaccent" horiz-adv-x="533" unicode="&#x10b;"/><glyph d="M363 33q-25-20-57-30.5t-68-10.5q-44 0-81.5 18t-65 49-43 71-15.5 84q0 61 21 114.5t58.5 93.5 90 63 115.5 23q38 0 70.5-10.5t55.5-31.5l53 244h137l-151-710h-125zM276 118q28 0 55.5 10t47.5 30l38 181q-17 23-43.5 33t-54.5 10q-30 0-57-11t-47.5-31-32-48-11.5-61q0-54 29-83.5t76-29.5zM829 710l-97-161h-92l54 161h135z" glyph-name="dcaron" horiz-adv-x="623" unicode="&#x10f;"/><glyph d="M363 33q-25-20-57-30.5t-68-10.5q-44 0-81.5 18t-65 49-43 71-15.5 84q0 61 21 114.5t58.5 93.5 90 63 115.5 23q38 0 70.5-10.5t55.5-31.5l53 244h137l-151-710h-125zM276 118q28 0 55.5 10t47.5 30l38 181q-17 23-43.5 33t-54.5 10q-30 0-57-11t-47.5-31-32-48-11.5-61q0-54 29-83.5t76-29.5zM331 578l14 65h344l-14-65h-344z" glyph-name="dcroat" horiz-adv-x="599" unicode="&#x111;"/><glyph d="M277 120q39 0 67 14.5t48 39.5l100-80q-39-48-95.5-75t-124.5-27q-57 0-101 19.5t-74.5 52-46 75-15.5 88.5q0 58 20.5 109.5t58 89.5 89.5 60 116 22q59 0 104-21t73-58.5 38-89.5 0-115h-367q3-28 13.5-47.5t25.5-32 33.5-18.5 37.5-6zM307 396q-17 0-35.5-6t-36.5-17-33-27-25-37h231q0 22-8 38.5t-22 27-32.5 16-38.5 5.5zM527 710q-7-70-56-114t-137-44q-40 0-71 12.5t-52 34-32.5 50-11.5 61.5h81q2-41 28.5-60t62.5-19q42 0 71 20.5t36 58.5h81z" glyph-name="ebreve" horiz-adv-x="568" unicode="&#x115;"/><glyph d="M277 120q39 0 67 14.5t48 39.5l100-80q-39-48-95.5-75t-124.5-27q-57 0-101 19.5t-74.5 52-46 75-15.5 88.5q0 58 20.5 109.5t58 89.5 89.5 60 116 22q59 0 104-21t73-58.5 38-89.5 0-115h-367q3-28 13.5-47.5t25.5-32 33.5-18.5 37.5-6zM307 396q-17 0-35.5-6t-36.5-17-33-27-25-37h231q0 22-8 38.5t-22 27-32.5 16-38.5 5.5zM524 644l-197-93-151 102 51 76 110-72 147 72z" glyph-name="ecaron" horiz-adv-x="568" unicode="&#x11b;"/><glyph d="M277 120q39 0 67 14.5t48 39.5l100-80q-39-48-95.5-75t-124.5-27q-57 0-101 19.5t-74.5 52-46 75-15.5 88.5q0 58 20.5 109.5t58 89.5 89.5 60 116 22q59 0 104-21t73-58.5 38-89.5 0-115h-367q3-28 13.5-47.5t25.5-32 33.5-18.5 37.5-6zM307 396q-17 0-35.5-6t-36.5-17-33-27-25-37h231q0 22-8 38.5t-22 27-32.5 16-38.5 5.5zM195 676h322l-19-89h-321z" glyph-name="emacron" horiz-adv-x="568" unicode="&#x113;"/><glyph d="M440-166q-17-14-38-18.5t-44-4.5q-37 0-62.5 23t-25.5 61q0 23 12 49.5t38 52.5q-18-3-28.5-4t-19.5-1q-57 0-101 19.5t-74.5 52-46 75-15.5 88.5q0 58 20.5 109.5t58 89.5 89.5 60 116 22q59 0 104-21t73-58.5 38-89.5 0-115h-367q4-28 14.5-47.5t25.5-32 33-18.5 37-6q39 0 67 14.5t48 39.5l100-80q-45-55-71-96t-26-66q0-15 8.5-21t21.5-6q10 0 18.5 3.5t13.5 7.5zM408 309q0 22-8 38.5t-22 27-32.5 16-38.5 5.5q-17 0-35.5-6t-36-17-32.5-27-25-37h230z" glyph-name="eogonek" horiz-adv-x="568" unicode="&#x119;"/><glyph d="M277 120q39 0 67 14.5t48 39.5l100-80q-39-48-95.5-75t-124.5-27q-57 0-101 19.5t-74.5 52-46 75-15.5 88.5q0 58 20.5 109.5t58 89.5 89.5 60 116 22q59 0 104-21t73-58.5 38-89.5 0-115h-367q3-28 13.5-47.5t25.5-32 33.5-18.5 37.5-6zM307 396q-17 0-35.5-6t-36.5-17-33-27-25-37h231q0 22-8 38.5t-22 27-32.5 16-38.5 5.5zM350 568q-15 0-28.5 5.5t-24 16-17 24-6.5 30.5q0 31 22.5 53t53.5 22q32 0 54-22t22-53q0-32-22.5-54t-53.5-22z" glyph-name="edotaccent" horiz-adv-x="568" unicode="&#x117;"/><glyph d="M499 100q10-59-3.5-112t-50-93.5-95-64.5-138.5-24q-56 0-114 14t-103 48l72 117q26-24 63.5-38.5t82.5-14.5q34 0 62.5 8t49 23.5 30 39.5 4.5 57q-32-20-64.5-26.5t-64.5-6.5q-46 0-81.5 17t-60 46.5-37.5 68-13 81.5q0 54 19.5 102.5t55.5 85.5 87.5 58.5 114.5 21.5q37 0 69-9.5t56-29.5l6 31h137zM273 153q29 0 59 11t51 34l30 144q-18 21-44 30.5t-53 9.5q-60 0-100-35t-40-95q0-51 25.5-75t71.5-24zM523 710q-7-70-56-114t-137-44q-40 0-71 12.5t-52 34-32.5 50-11.5 61.5h81q2-41 28.5-60t62.5-19q42 0 71 20.5t36 58.5h81z" glyph-name="gbreve" horiz-adv-x="597" unicode="&#x11f;"/><glyph d="M499 100q10-59-3.5-112t-50-93.5-95-64.5-138.5-24q-56 0-114 14t-103 48l72 117q26-24 63.5-38.5t82.5-14.5q34 0 62.5 8t49 23.5 30 39.5 4.5 57q-32-20-64.5-26.5t-64.5-6.5q-46 0-81.5 17t-60 46.5-37.5 68-13 81.5q0 54 19.5 102.5t55.5 85.5 87.5 58.5 114.5 21.5q37 0 69-9.5t56-29.5l6 31h137zM273 153q29 0 59 11t51 34l30 144q-18 21-44 30.5t-53 9.5q-60 0-100-35t-40-95q0-51 25.5-75t71.5-24zM169 629l196 97 152-102-52-76-111 71-146-71z" glyph-name="gcircumflex" horiz-adv-x="597" unicode="&#x11d;"/><glyph d="M499 100q10-59-3.5-112t-50-93.5-95-64.5-138.5-24q-56 0-114 14t-103 48l72 117q26-24 63.5-38.5t82.5-14.5q34 0 62.5 8t49 23.5 30 39.5 4.5 57q-32-20-64.5-26.5t-64.5-6.5q-46 0-81.5 17t-60 46.5-37.5 68-13 81.5q0 54 19.5 102.5t55.5 85.5 87.5 58.5 114.5 21.5q37 0 69-9.5t56-29.5l6 31h137zM273 153q29 0 59 11t51 34l30 144q-18 21-44 30.5t-53 9.5q-60 0-100-35t-40-95q0-51 25.5-75t71.5-24zM395.976 549.967h-137.991l117.992 164.989h82.9951z" glyph-name="uni0123" horiz-adv-x="597" unicode="&#x123;"/><glyph d="M499 100q10-59-3.5-112t-50-93.5-95-64.5-138.5-24q-56 0-114 14t-103 48l72 117q26-24 63.5-38.5t82.5-14.5q34 0 62.5 8t49 23.5 30 39.5 4.5 57q-32-20-64.5-26.5t-64.5-6.5q-46 0-81.5 17t-60 46.5-37.5 68-13 81.5q0 54 19.5 102.5t55.5 85.5 87.5 58.5 114.5 21.5q37 0 69-9.5t56-29.5l6 31h137zM273 153q29 0 59 11t51 34l30 144q-18 21-44 30.5t-53 9.5q-60 0-100-35t-40-95q0-51 25.5-75t71.5-24zM346 568q-15 0-28.5 5.5t-24 16-17 24-6.5 30.5q0 31 22.5 53t53.5 22q32 0 54-22t22-53q0-32-22.5-54t-53.5-22z" glyph-name="gdotaccent" horiz-adv-x="597" unicode="&#x121;"/><glyph d="M161 710h137l-53-250q27 23 60 35.5t76 12.5q46 0 81.5-20t57-52.5 28-74.5-3.5-86l-59-275h-137l56 263q12 51-6 85t-72 34q-29 0-57-13t-52-42l-70-327h-137zM64 578l14 65h344l-14-65h-344z" glyph-name="hbar" horiz-adv-x="593" unicode="&#x127;"/><glyph d="M161 710h137l-53-250q27 23 60 35.5t76 12.5q46 0 81.5-20t57-52.5 28-74.5-3.5-86l-59-275h-137l56 263q12 51-6 85t-72 34q-29 0-57-13t-52-42l-70-327h-137zM276 843l192 87 155-87-43-82-119 65-148-65z" glyph-name="hcircumflex" horiz-adv-x="593" unicode="&#x125;"/><glyph d="M116 500h138l-106-500h-138z" glyph-name="dotlessi" horiz-adv-x="263" unicode="&#x131;"/><glyph d="M116 500h138l-106-500h-138zM393 710q-7-70-56-114t-137-44q-40 0-71 12.5t-52 34-32.5 50-11.5 61.5h81q2-41 28.5-60t62.5-19q42 0 71 20.5t36 58.5h81z" glyph-name="ibreve" horiz-adv-x="263" unicode="&#x12d;"/><glyph d="M116 500h138l-106-500h-138zM61 676h322l-19-89h-321z" glyph-name="imacron" horiz-adv-x="263" unicode="&#x12b;"/><glyph d="M116 500h138l-106-500h-138zM139 579q-5 8-8.5 20t-3.5 24q0 43 26.5 69t69.5 26q30 0 53-18.5t23-50.5q0-23-8.5-40t-22.5-30h-129zM30-189q-38 0-61.5 22.5t-23.5 59.5q0 32 19.5 60t46.5 47h138q-42-20-60-38.5t-18-31.5q0-25 28-25 10 0 19 3.5t14 7.5l-18-82q-17-14-39-18.5t-45-4.5z" glyph-name="iogonek" horiz-adv-x="263" unicode="&#x12f;"/><glyph d="M116 500h138l-106-500h-138zM9 557q21 72 57 105t81 33q21 0 38.5-6.5t32.5-14 28.5-14 26.5-6.5q18 0 28 9.5t21 32.5h94q-23-73-57.5-105.5t-80.5-32.5q-21 0-39 6.5t-33 14-28.5 14-26.5 6.5q-18 0-27.5-9.5t-20.5-32.5h-94z" glyph-name="itilde" horiz-adv-x="263" unicode="&#x129;"/><glyph d="M116 500h138l-106-500h-138zM139 579q-5 8-8.5 20t-3.5 24q0 43 26.5 69t69.5 26q30 0 53-18.5t23-50.5q0-23-8.5-40t-22.5-30h-129zM53-202q-15 0-28.5 5.5t-24 16-17 24-6.5 30.5q0 31 22.5 53t53.5 22q32 0 54-22t22-53q0-32-22.5-54t-53.5-22z" glyph-name="uni1ECB" horiz-adv-x="263" unicode="&#x1ecb;"/><glyph d="M-98-54h31q22 0 37 3t25 11.5 16 23.5 11 38l102 478h138l-108-506q-12-59-32-94.5t-48.5-54-68-24-90.5-5.5h-41z" glyph-name="uni0237" horiz-adv-x="271" unicode="&#x237;"/><glyph d="M-98-54h31q22 0 37 3t25 11.5 16 23.5 11 38l102 478h138l-108-506q-12-59-32-94.5t-48.5-54-68-24-90.5-5.5h-41zM46 629l196 97 152-102-52-76-111 71-146-71z" glyph-name="jcircumflex" horiz-adv-x="271" unicode="&#x135;"/><glyph d="M161 710h138l-93-439 219 229h165l-243-252 150-248h-146l-150 250-53-250h-138zM178-50h138l-118-165h-83z" glyph-name="uni0137" horiz-adv-x="543" unicode="&#x137;"/><glyph d="M161 710h138l-151-710h-138zM306 920h164l-175-160h-104z" glyph-name="lacute" horiz-adv-x="264" unicode="&#x13a;"/><glyph d="M161 710h138l-151-710h-138zM495 710l-97-161h-92l54 161h135z" glyph-name="lcaron" horiz-adv-x="288" unicode="&#x13e;"/><glyph d="M161 710h138l-151-710h-138zM-6-50h138l-118-165h-83z" glyph-name="uni013C" horiz-adv-x="264" unicode="&#x13c;"/><glyph d="M161 710h138l-151-710h-138zM360 297q-15 0-28.5 5.5t-24 16-17 24-6.5 30.5q0 31 22.5 53t53.5 22q32 0 54-22t22-53q0-32-22.5-54t-53.5-22z" glyph-name="ldot" horiz-adv-x="402" unicode="&#x140;"/><glyph d="M232 710h138l-151-710h-138zM27 306l375 192 32-60-375-193z" glyph-name="lslash" horiz-adv-x="392" unicode="&#x142;"/><glyph d="M116 500h135l-7-41q27 24 60.5 36.5t76.5 12.5q46 0 81.5-20t57-52.5 28-74.5-3.5-86l-59-275h-137l56 264q5 24 3.5 45.5t-10.5 37.5-26.5 25.5-44.5 9.5q-29 0-57-13t-52-41l-69-328h-138zM438 710h164l-175-160h-104z" glyph-name="nacute" horiz-adv-x="593" unicode="&#x144;"/><glyph d="M116 500h135l-7-41q27 24 60.5 36.5t76.5 12.5q46 0 81.5-20t57-52.5 28-74.5-3.5-86l-59-275h-137l56 264q5 24 3.5 45.5t-10.5 37.5-26.5 25.5-44.5 9.5q-29 0-57-13t-52-41l-69-328h-138zM567 644l-197-93-151 102 51 76 110-72 147 72z" glyph-name="ncaron" horiz-adv-x="593" unicode="&#x148;"/><glyph d="M116 500h135l-7-41q27 24 60.5 36.5t76.5 12.5q46 0 81.5-20t57-52.5 28-74.5-3.5-86l-59-275h-137l56 264q5 24 3.5 45.5t-10.5 37.5-26.5 25.5-44.5 9.5q-29 0-57-13t-52-41l-69-328h-138zM178-50h138l-118-165h-83z" glyph-name="uni0146" horiz-adv-x="593" unicode="&#x146;"/><glyph d="M876 94q-39-48-95-75t-125-27q-55 0-102 19t-84 63q-42-44-91.5-63t-106.5-19-101 19.5-74.5 52-46 75-15.5 88.5q0 59 21 110.5t58.5 89.5 90 59.5 115.5 21.5q55 0 99.5-20t76.5-63q45 45 97.5 64t109.5 19q59 0 104-21t73-58.5 38-89.5 0-115h-367q5-54 38.5-79t71.5-25q39 0 67 14.5t48 39.5zM691 396q-17 0-36-4.5t-36.5-14.5-32.5-27-24-41h230q0 22-8 38.5t-22 27-32.5 16-38.5 5.5zM174 239q0-56 32-87.5t78-31.5q29 0 54 11t43 30 28 45 10 56q0 56-32.5 87t-78.5 31q-29 0-53.5-10.5t-42.5-29.5-28-45-10-56z" glyph-name="oe" horiz-adv-x="952" unicode="&#x153;"/><glyph d="M557 274q0-60-21-111.5t-58.5-89.5-89.5-59.5-115-21.5q-57 0-101.5 19.5t-74.5 52-46 75-16 88.5q0 59 21 110.5t59 89.5 90 59.5 115 21.5q57 0 101-19.5t74.5-52 46-74.5 15.5-88zM174 239q0-56 32-87.5t78-31.5q29 0 54 11t43 30 28 45 10 56q0 56-32 87t-79 31q-29 0-53.5-10.5t-42.5-29.5-28-45-10-56zM528 710q-7-70-56-114t-137-44q-40 0-71 12.5t-52 34-32.5 50-11.5 61.5h81q2-41 28.5-60t62.5-19q42 0 71 20.5t36 58.5h81z" glyph-name="obreve" horiz-adv-x="592" unicode="&#x14f;"/><glyph d="M557 274q0-60-21-111.5t-58.5-89.5-89.5-59.5-115-21.5q-57 0-101.5 19.5t-74.5 52-46 75-16 88.5q0 59 21 110.5t59 89.5 90 59.5 115 21.5q57 0 101-19.5t74.5-52 46-74.5 15.5-88zM174 239q0-56 32-87.5t78-31.5q29 0 54 11t43 30 28 45 10 56q0 56-32 87t-79 31q-29 0-53.5-10.5t-42.5-29.5-28-45-10-56zM501 710h145l-173-160h-91zM315 710h146l-174-160h-91z" glyph-name="ohungarumlaut" horiz-adv-x="592" unicode="&#x151;"/><glyph d="M557 274q0-60-21-111.5t-58.5-89.5-89.5-59.5-115-21.5q-57 0-101.5 19.5t-74.5 52-46 75-16 88.5q0 59 21 110.5t59 89.5 90 59.5 115 21.5q57 0 101-19.5t74.5-52 46-74.5 15.5-88zM174 239q0-56 32-87.5t78-31.5q29 0 54 11t43 30 28 45 10 56q0 56-32 87t-79 31q-29 0-53.5-10.5t-42.5-29.5-28-45-10-56zM196 676h322l-19-89h-321z" glyph-name="omacron" horiz-adv-x="592" unicode="&#x14d;"/><glyph d="M557 274q0-60-21-111.5t-58.5-89.5-89.5-59.5-115-21.5q-57 0-101.5 19.5t-74.5 52-46 75-16 88.5q0 59 21 110.5t59 89.5 90 59.5 115 21.5q57 0 101-19.5t74.5-52 46-74.5 15.5-88zM174 239q0-56 32-87.5t78-31.5q29 0 54 11t43 30 28 45 10 56q0 56-32 87t-79 31q-29 0-53.5-10.5t-42.5-29.5-28-45-10-56zM246-202q-15 0-28.5 5.5t-24 16-17 24-6.5 30.5q0 31 22.5 53t53.5 22q32 0 54-22t22-53q0-32-22.5-54t-53.5-22z" glyph-name="uni1ECD" horiz-adv-x="592" unicode="&#x1ecd;"/><glyph d="M116 500h138l-10-47q24 27 58 41t73 14q11 0 24-1.5t24-5.5l-30-143q-14 8-31.5 11.5t-35.5 3.5q-28 0-57-11t-52-32l-69-330h-138zM354 710h164l-175-160h-104z" glyph-name="racute" horiz-adv-x="388" unicode="&#x155;"/><glyph d="M116 500h138l-10-47q24 27 58 41t73 14q11 0 24-1.5t24-5.5l-30-143q-14 8-31.5 11.5t-35.5 3.5q-28 0-57-11t-52-32l-69-330h-138zM484 644l-197-93-151 102 51 76 110-72 147 72z" glyph-name="rcaron" horiz-adv-x="388" unicode="&#x159;"/><glyph d="M116 500h138l-10-47q24 27 58 41t73 14q11 0 24-1.5t24-5.5l-30-143q-14 8-31.5 11.5t-35.5 3.5q-28 0-57-11t-52-32l-69-330h-138zM-2-50h138l-118-165h-83z" glyph-name="uni0157" horiz-adv-x="388" unicode="&#x157;"/><glyph d="M378 151q0-75-49-117t-132-42q-76 0-125 32.5t-69 81.5l100 66q14-29 36-49t60-20q22 0 36 9.5t14 26.5-12.5 29-35.5 26l-35 23q-43 28-72 60.5t-29 82.5q0 31 11.5 58t33 47 54 31.5 74.5 11.5q60 0 105.5-25t66.5-66l-98-67q-14 25-33.5 37t-41.5 12q-20 0-31-10t-11-24 9-25 32-25l29-19q53-33 83-66t30-79zM313 710h164l-175-160h-104z" glyph-name="sacute" horiz-adv-x="431" unicode="&#x15b;"/><glyph d="M378 151q0-75-49-117t-132-42q-76 0-125 32.5t-69 81.5l100 66q14-29 36-49t60-20q22 0 36 9.5t14 26.5-12.5 29-35.5 26l-35 23q-43 28-72 60.5t-29 82.5q0 31 11.5 58t33 47 54 31.5 74.5 11.5q60 0 105.5-25t66.5-66l-98-67q-14 25-33.5 37t-41.5 12q-20 0-31-10t-11-24 9-25 32-25l29-19q53-33 83-66t30-79zM443 644l-197-93-151 102 51 76 110-72 147 72z" glyph-name="scaron" horiz-adv-x="431" unicode="&#x161;"/><glyph d="M378 151q0-75-49-117t-132-42q-76 0-125 32.5t-69 81.5l100 66q14-29 36-49t60-20q22 0 36 9.5t14 26.5-12.5 29-35.5 26l-35 23q-43 28-72 60.5t-29 82.5q0 31 11.5 58t33 47 54 31.5 74.5 11.5q60 0 105.5-25t66.5-66l-98-67q-14 25-33.5 37t-41.5 12q-20 0-31-10t-11-24 9-25 32-25l29-19q53-33 83-66t30-79zM146 0h96l-80-165h-124z" glyph-name="scedilla" horiz-adv-x="431" unicode="&#x15f;"/><glyph d="M378 151q0-75-49-117t-132-42q-76 0-125 32.5t-69 81.5l100 66q14-29 36-49t60-20q22 0 36 9.5t14 26.5-12.5 29-35.5 26l-35 23q-43 28-72 60.5t-29 82.5q0 31 11.5 58t33 47 54 31.5 74.5 11.5q60 0 105.5-25t66.5-66l-98-67q-14 25-33.5 37t-41.5 12q-20 0-31-10t-11-24 9-25 32-25l29-19q53-33 83-66t30-79zM92 629l196 97 152-102-52-76-111 71-146-71z" glyph-name="scircumflex" horiz-adv-x="431" unicode="&#x15d;"/><glyph d="M378 151q0-75-49-117t-132-42q-76 0-125 32.5t-69 81.5l100 66q14-29 36-49t60-20q22 0 36 9.5t14 26.5-12.5 29-35.5 26l-35 23q-43 28-72 60.5t-29 82.5q0 31 11.5 58t33 47 54 31.5 74.5 11.5q60 0 105.5-25t66.5-66l-98-67q-14 25-33.5 37t-41.5 12q-20 0-31-10t-11-24 9-25 32-25l29-19q53-33 83-66t30-79zM112-50h138l-118-165h-83z" glyph-name="uni0219" horiz-adv-x="431" unicode="&#x219;"/><glyph d="M54 500h104l19 81 151 69-32-150h140l-27-120h-139l-40-188q-8-35 3-51t46-16h77l-27-125h-102q-82 0-118.5 48t-16.5 142l41 190h-79v120zM545 710l-97-161h-92l54 161h135z" glyph-name="tcaron" horiz-adv-x="413" unicode="&#x165;"/><glyph d="M54 500h104l19 81 151 69-32-150h140l-27-120h-139l-40-188q-8-35 3-51t46-16h77l-27-125h-102q-82 0-118.5 48t-16.5 142l41 190h-79v120zM123-50h138l-118-165h-83z" glyph-name="uni0163" horiz-adv-x="413" unicode="&#x163;"/><glyph d="M54 500h104l19 81 151 69-32-150h140l-27-120h-139l-40-188q-8-35 3-51t46-16h77l-27-125h-102q-82 0-118.5 48t-16.5 142l41 190h-79v120zM123-50h138l-118-165h-83z" glyph-name="uni021B" horiz-adv-x="413" unicode="&#x21b;"/><glyph d="M348 41q-28-24-62-36.5t-76-12.5q-41 0-75 17t-56.5 48.5-30.5 76.5 4 102l56 264h137l-54-257q-12-57 4.5-91t70.5-34q32 0 60.5 14t49.5 46l68 322h137l-106-500h-134zM552 710q-7-70-56-114t-137-44q-40 0-71 12.5t-52 34-32.5 50-11.5 61.5h81q2-41 28.5-60t62.5-19q42 0 71 20.5t36 58.5h81z" glyph-name="ubreve" horiz-adv-x="590" unicode="&#x16d;"/><glyph d="M348 41q-28-24-62-36.5t-76-12.5q-41 0-75 17t-56.5 48.5-30.5 76.5 4 102l56 264h137l-54-257q-12-57 4.5-91t70.5-34q32 0 60.5 14t49.5 46l68 322h137l-106-500h-134zM525 710h145l-173-160h-91zM339 710h146l-174-160h-91z" glyph-name="uhungarumlaut" horiz-adv-x="590" unicode="&#x171;"/><glyph d="M348 41q-28-24-62-36.5t-76-12.5q-41 0-75 17t-56.5 48.5-30.5 76.5 4 102l56 264h137l-54-257q-12-57 4.5-91t70.5-34q32 0 60.5 14t49.5 46l68 322h137l-106-500h-134zM220 676h322l-19-89h-321z" glyph-name="umacron" horiz-adv-x="590" unicode="&#x16b;"/><glyph d="M357-189q-38 0-62 22.5t-24 59.5q0 32 20 60.5t50 46.5l7 41q-28-24-62-36.5t-76-12.5q-41 0-75 17t-56.5 48.5-30.5 76.5 4 102l56 264h137l-54-257q-12-57 4.5-91t70.5-34q32 0 60.5 14t49.5 46l68 322h137l-106-500q-42-20-59.5-38.5t-17.5-31.5q0-25 28-25 10 0 18.5 3.5t13.5 7.5l-17-82q-17-14-39-18.5t-45-4.5z" glyph-name="uogonek" horiz-adv-x="590" unicode="&#x173;"/><glyph d="M348 41q-28-24-62-36.5t-76-12.5q-41 0-75 17t-56.5 48.5-30.5 76.5 4 102l56 264h137l-54-257q-12-57 4.5-91t70.5-34q32 0 60.5 14t49.5 46l68 322h137l-106-500h-134zM495 665q0-24-9-44.5t-25-36.5-36.5-25-44.5-9-45 9-37 25-25 36.5-9 44.5 9 44.5 25 36 37 24.5 45 9 44.5-9 36.5-24.5 25-36 9-44.5zM332 665q0-20 14-33.5t34-13.5 33.5 13.5 13.5 33.5-13.5 33.5-33.5 13.5-34-13.5-14-33.5z" glyph-name="uring" horiz-adv-x="590" unicode="&#x16f;"/><glyph d="M348 41q-28-24-62-36.5t-76-12.5q-41 0-75 17t-56.5 48.5-30.5 76.5 4 102l56 264h137l-54-257q-12-57 4.5-91t70.5-34q32 0 60.5 14t49.5 46l68 322h137l-106-500h-134zM168 557q21 72 57 105t81 33q21 0 38.5-6.5t32.5-14 28.5-14 26.5-6.5q18 0 28 9.5t21 32.5h94q-23-73-57.5-105.5t-80.5-32.5q-21 0-39 6.5t-33 14-28.5 14-26.5 6.5q-18 0-27.5-9.5t-20.5-32.5h-94z" glyph-name="utilde" horiz-adv-x="590" unicode="&#x169;"/><glyph d="M348 41q-28-24-62-36.5t-76-12.5q-41 0-75 17t-56.5 48.5-30.5 76.5 4 102l56 264h137l-54-257q-12-57 4.5-91t70.5-34q32 0 60.5 14t49.5 46l68 322h137l-106-500h-134zM198-202q-15 0-28.5 5.5t-24 16-17 24-6.5 30.5q0 31 22.5 53t53.5 22q32 0 54-22t22-53q0-32-22.5-54t-53.5-22z" glyph-name="uni1EE5" horiz-adv-x="590" unicode="&#x1ee5;"/><glyph d="M54 500h139l25-297 191 305 59-311 155 303h147l-263-500h-105l-44 226-145-226h-106zM483 710h164l-175-160h-104z" glyph-name="wacute" horiz-adv-x="720" unicode="&#x1e83;"/><glyph d="M54 500h139l25-297 191 305 59-311 155 303h147l-263-500h-105l-44 226-145-226h-106zM262 629l196 97 152-102-52-76-111 71-146-71z" glyph-name="wcircumflex" horiz-adv-x="720" unicode="&#x175;"/><glyph d="M54 500h139l25-297 191 305 59-311 155 303h147l-263-500h-105l-44 226-145-226h-106zM633 644q0-32-22-54t-54-22-54 22-22 54q0 31 22 53t54 22 54-22 22-53zM398 644q0-32-22.5-54t-53.5-22q-32 0-54 22t-22 54q0 31 22 53t54 22q31 0 53.5-22t22.5-53z" glyph-name="wdieresis" horiz-adv-x="720" unicode="&#x1e85;"/><glyph d="M54 500h139l25-297 191 305 59-311 155 303h147l-263-500h-105l-44 226-145-226h-106zM257 710h149l49-160h-91z" glyph-name="wgrave" horiz-adv-x="720" unicode="&#x1e81;"/><glyph d="M138 6l-84 494h141l48-329 184 329h150l-408-684h-145zM163 629l196 97 152-102-52-76-111 71-146-71z" glyph-name="ycircumflex" horiz-adv-x="522" unicode="&#x177;"/><glyph d="M138 6l-84 494h141l48-329 184 329h150l-408-684h-145zM159 710h149l49-160h-91z" glyph-name="ygrave" horiz-adv-x="522" unicode="&#x1ef3;"/><glyph d="M138 6l-84 494h141l48-329 184 329h150l-408-684h-145zM185 676h322l-19-89h-321z" glyph-name="uni0233" horiz-adv-x="522" unicode="&#x233;"/><glyph d="M286 381h-213l25 119h447l-324-380h229l-25-120h-464zM383 710h164l-175-160h-104z" glyph-name="zacute" horiz-adv-x="514" unicode="&#x17a;"/><glyph d="M286 381h-213l25 119h447l-324-380h229l-25-120h-464zM513 644l-197-93-151 102 51 76 110-72 147 72z" glyph-name="zcaron" horiz-adv-x="514" unicode="&#x17e;"/><glyph d="M286 381h-213l25 119h447l-324-380h229l-25-120h-464zM339 568q-15 0-28.5 5.5t-24 16-17 24-6.5 30.5q0 31 22.5 53t53.5 22q32 0 54-22t22-53q0-32-22.5-54t-53.5-22z" glyph-name="zdotaccent" horiz-adv-x="514" unicode="&#x17c;"/><glyph d="M116-8q-21 0-39.5 8t-32 21.5-21.5 32-8 39.5 8 39 21.5 31.5 32 21.5 39.5 8q42 0 71-29t29-71q0-21-8-39.5t-21.5-32-31.5-21.5-39-8zM391-8q-21 0-39.5 8t-32 21.5-21.5 32-8 39.5 8 39 21.5 31.5 32 21.5 39.5 8q42 0 71-29t29-71q0-21-8-39.5t-21.5-32-31.5-21.5-39-8zM666-8q-21 0-39.5 8t-32 21.5-21.5 32-8 39.5 8 39 21.5 31.5 32 21.5 39.5 8q42 0 71-29t29-71q0-21-8-39.5t-21.5-32-31.5-21.5-39-8z" glyph-name="ellipsis" horiz-adv-x="829" unicode="&#x2026;"/><glyph d="M80 345h473l-29-130h-473z" glyph-name="endash" horiz-adv-x="592" unicode="&#x2013;"/><glyph d="M80 345h767l-29-130h-767z" glyph-name="emdash" horiz-adv-x="886" unicode="&#x2014;"/><glyph d="M31 251l212 236 80-74-159-172 83-177-104-51z" glyph-name="guilsinglleft" horiz-adv-x="327" unicode="&#x2039;"/><glyph d="M296 249l-212-236-80 74 159 172-83 177 104 51z" glyph-name="guilsinglright" horiz-adv-x="326" unicode="&#x203a;"/><glyph d="M216 559h63l-34-163h-163l35 163 95 151h80z" glyph-name="quoteleft" horiz-adv-x="266" unicode="&#x2018;"/><glyph d="M174 547h-63l34 163h163l-35-163-95-151h-80z" glyph-name="quoteright" horiz-adv-x="255" unicode="&#x2019;"/><glyph d="M216 559h63l-34-163h-163l35 163 95 151h80zM435 559h63l-34-163h-163l35 163 95 151h80z" glyph-name="quotedblleft" horiz-adv-x="485" unicode="&#x201c;"/><glyph d="M174 547h-63l34 163h163l-35-163-95-151h-80zM393 547h-63l34 163h163l-35-163-95-151h-80z" glyph-name="quotedblright" horiz-adv-x="474" unicode="&#x201d;"/><glyph d="M76 0h-63l34 163h163l-35-163-95-151h-80z" glyph-name="quotesinglbase" horiz-adv-x="279" unicode="&#x201a;"/><glyph d="M76 0h-63l34 163h163l-35-163-95-151h-80zM295 0h-63l34 163h163l-35-163-95-151h-80z" glyph-name="quotedblbase" horiz-adv-x="498" unicode="&#x201e;"/><glyph d="M210 166q-28 0-53 10.5t-43.5 29-29 43.5-10.5 53 10.5 53 29 43.5 43.5 29 53 10.5 53-10.5 43.5-29 29-43.5 10.5-53-10.5-53-29-43.5-43.5-29-53-10.5z" glyph-name="bullet" horiz-adv-x="401" unicode="&#x2022;"/><glyph d="M83 333h436v-105h-436v105z" glyph-name="minus" horiz-adv-x="590" unicode="&#x2212;"/><glyph d="M72 315h109v20q0 11 1 22.5t3 23.5h-124l42 74h100q18 49 50 96t79.5 84 111.5 60 145 23q71 0 127-22.5t97-61.5l-70-123q-29 35-74 56t-102 21q-75 0-136-34.5t-93-98.5h371l-42-74h-352q-3-21-3-44v-12q0-5 1-10h315l-41-74h-258q13-33 34-56t46.5-37 53-20.5 54.5-6.5q36 0 70 8t69 23l-32-138q-26-11-56-16.5t-62-5.5q-57 0-108.5 16.5t-92.5 48.5-71 78.5-43 105.5h-162z" glyph-name="Euro" horiz-adv-x="762" unicode="&#x20ac;"/><glyph d="M129 380h-70l25 120h84q-12 16-18.5 35t-6.5 46q0 20 9 43t28.5 42 51 31.5 77.5 12.5h146l-25-120h-104q-33 0-46.5-13.5t-13.5-33.5q0-17 11-30t34-13h100l-25-120h-120l-80-380h-138zM489 500h138l-106-500h-138zM512 579q-5 8-8.5 20t-3.5 24q0 43 26.5 69t69.5 26q30 0 53-18.5t23-50.5q0-23-8.5-40t-22.5-30h-129z" glyph-name="uniFB01" horiz-adv-x="636" unicode="&#xfb01;"/><glyph d="M129 380h-70l25 120h84q-12 16-18.5 35t-6.5 46q0 20 9 43t28.5 42 51 31.5 77.5 12.5h146l-25-120h-104q-33 0-46.5-13.5t-13.5-33.5q0-17 11-30t34-13h100l-25-120h-120l-80-380h-138zM534 710h138l-151-710h-138z" glyph-name="uniFB02" horiz-adv-x="637" unicode="&#xfb02;"/><glyph d="M127 579q-5 8-8.5 20t-3.5 24q0 43 26.5 69t69.5 26q30 0 53-18.5t23-50.5q0-23-8.5-40t-22.5-30h-129z" glyph-name="glyph329" horiz-adv-x="241"/><glyph d="M302 710q-7-70-56-114t-137-44q-40 0-71 12.5t-52 34-32.5 50-11.5 61.5h81q2-41 28.5-60t62.5-19q42 0 71 20.5t36 58.5h81z" glyph-name="breve" unicode="&#x2d8;"/><glyph d="M299 644l-197-93-151 102 51 76 110-72 147 72z" glyph-name="caron" unicode="&#x2c7;"/><glyph d="M-52 629l196 97 152-102-52-76-111 71-146-71z" glyph-name="circumflex" unicode="&#x2c6;"/><glyph d="M125 568q-15 0-28.5 5.5t-24 16-17 24-6.5 30.5q0 31 22.5 53t53.5 22q32 0 54-22t22-53q0-32-22.5-54t-53.5-22z" glyph-name="dotaccent" unicode="&#x2d9;"/><glyph d="M264 710h145l-173-160h-91zM78 710h146l-174-160h-91z" glyph-name="hungarumlaut" unicode="&#x2dd;"/><glyph d="M-77-50h138l-118-165h-83z" glyph-name="glyph335"/><glyph d="M-48-189q-38 0-61.5 22.5t-23.5 59.5q0 32 19.5 60t46.5 47h138q-42-20-60-38.5t-18-31.5q0-25 28-25 10 0 19 3.5t14 7.5l-18-82q-17-14-39-18.5t-45-4.5z" glyph-name="ogonek" unicode="&#x2db;"/><glyph d="M245 665q0-24-9-44.5t-25-36.5-36.5-25-44.5-9-45 9-37 25-25 36.5-9 44.5 9 44.5 25 36 37 24.5 45 9 44.5-9 36.5-24.5 25-36 9-44.5zM82 665q0-20 14-33.5t34-13.5 33.5 13.5 13.5 33.5-13.5 33.5-33.5 13.5-34-13.5-14-33.5z" glyph-name="ring" unicode="&#x2da;"/><glyph d="M-82 557q21 72 57 105t81 33q21 0 38.5-6.5t32.5-14 28.5-14 26.5-6.5q18 0 28 9.5t21 32.5h94q-23-73-57.5-105.5t-80.5-32.5q-21 0-39 6.5t-33 14-28.5 14-26.5 6.5q-18 0-27.5-9.5t-20.5-32.5h-94z" glyph-name="tilde" unicode="&#x2dc;"/><glyph d="M217 710l-97-161h-92l54 161h135z" glyph-name="glyph339"/><glyph d="M29 568q-29 0-52 21.5t-23 54.5q0 31 22 53t53 22q32 0 54-22t22-53q0-32-22.5-54t-53.5-22zM221 568q-30 0-53 21.5t-23 54.5q0 31 22 53t54 22 54-22 22-53q0-32-22.5-54t-53.5-22z" glyph-name="glyph340"/><glyph d="M-61 579l14 65h344l-14-65h-344z" glyph-name="glyph341"/><glyph d="M-136 305l375 192 32-60-375-193z" glyph-name="glyph342"/><glyph d="M138 913h160l-154-145h-107z" glyph-name="glyph343"/><glyph d="M350 941q-5-81-55-127.5t-138-46.5q-40 0-71 13t-52.5 36-32.5 55-10 70h81q2-53 28.5-74t64.5-21q41 0 69 22t36 73h80z" glyph-name="glyph344"/><glyph d="M343 845l-195-84-155 87 44 82 119-66 150 66z" glyph-name="glyph345"/><glyph d="M-11 843l192 87 155-87-43-82-119 65-148-65z" glyph-name="glyph346"/><glyph d="M72 913h146l44-145h-96z" glyph-name="glyph347"/><glyph d="M240 913h151l-154-145h-100zM45 913h152l-155-145h-99z" glyph-name="glyph348"/><glyph d="M18 895h321l-21-97h-321z" glyph-name="glyph349"/><glyph d="M-48-189q-38 0-64.5 22t-26.5 60q0 32 18.5 59t45.5 48h146q-42-20-60-37t-18-33q0-25 28-25 10 0 19 3.5t14 7.5l-18-82q-17-14-39-18.5t-45-4.5z" glyph-name="glyph350"/><glyph d="M-97 392h337l-15-74h-337z" glyph-name="glyph351"/><glyph d="M-171 290l441 227 34-66-441-228z" glyph-name="glyph352"/><glyph d="M-248 604h730l-16-74h-730z" glyph-name="glyph353"/></font>
</defs>
</svg>
