<svg xmlns="http://www.w3.org/2000/svg"><defs><font horiz-adv-x="0"><font-face ascent="800" bbox="-365 -215 988 986" cap-height="710" descent="-200" panose-1="2 11 7 4 0 0 0 0 0 0" underline-position="-140" underline-thickness="100" unicode-range="U+000D-FB02" x-height="500"/><missing-glyph d="M0 710h500v-710h-500v710zM250 371l216 320h-432zM19 28l221 327-221 327v-654zM481 28v654l-220-327zM466 19l-216 320-216-320h432z" horiz-adv-x="500"/><glyph d="M0 710h500v-710h-500v710zM250 371l216 320h-432zM19 28l221 327-221 327v-654zM481 28v654l-220-327zM466 19l-216 320-216-320h432z" glyph-name=".notdef" horiz-adv-x="500"/><glyph glyph-name="glyph1"/><glyph glyph-name="uni000D" horiz-adv-x="225" unicode="&#xd;"/><glyph glyph-name="space" horiz-adv-x="225" unicode="&#x20;"/><glyph d="M77 434v276h138v-276l-27-187h-84zM145-8q-21 0-39 8t-31.5 21.5-21.5 32-8 39.5q0 24 10.5 44.5t27.5 34.5h124q18-14 28.5-34.5t10.5-44.5q0-21-8-39.5t-21.5-32-32-21.5-39.5-8z" glyph-name="exclam" horiz-adv-x="292" unicode="&#x21;"/><glyph d="M59 710h116v-287h-116v287zM261 710h116v-287h-116v287z" glyph-name="quotedbl" horiz-adv-x="436" unicode="&#x22;"/><glyph d="M65 0l57 185h-90v105h123l41 131h-91v105h124l57 184h117l-57-184h142l57 184h118l-57-184h89v-105h-122l-41-131h91v-105h-124l-58-185h-117l57 185h-141l-58-185h-117zM414 290l41 131h-142l-40-131h141z" glyph-name="numbersign" horiz-adv-x="726" unicode="&#x23;"/><glyph d="M231-6q-70 8-120 41.5t-81 89.5l100 82q23-36 58-61.5t82-25.5q42 0 62.5 20.5t20.5 49.5-21.5 48.5-69.5 41.5l-46 21q-80 37-118 91.5t-38 126.5q0 39 13 72.5t36 59 54 42 68 22.5v83h83v-83q44-7 77.5-27.5t66.5-58.5l-88-91q-26 29-47 40.5t-48 11.5q-38 0-57.5-19t-19.5-47q0-31 24-51t75-43l43-20q74-33 112.5-84.5t38.5-125.5q0-83-46-138t-131-67v-83h-83v82z" glyph-name="dollar" horiz-adv-x="526" unicode="&#x24;"/><glyph d="M202 443q-29 0-53.5 10.5t-43 29-29 43-10.5 53.5q0 28 10.5 53t29 43.5 43 29 53.5 10.5q28 0 53-10.5t44-29 29.5-43.5 10.5-53q0-29-10.5-53.5t-29.5-43-44-29-53-10.5zM202 529q21 0 35 14.5t14 35.5q0 20-14 34.5t-35 14.5-35.5-14.5-14.5-34.5q0-21 14.5-35.5t35.5-14.5zM51 407h304v-105h-304v105zM202-5q-29 0-53.5 10.5t-43 29-29 43-10.5 53.5q0 28 10.5 53t29 43.5 43 29 53.5 10.5q28 0 53-10.5t44-29 29.5-43.5 10.5-53q0-29-10.5-53.5t-29.5-43-44-29-53-10.5zM202 81q21 0 35 14.5t14 35.5q0 20-14 35t-35 15-35.5-15-14.5-35q0-21 14.5-35.5t35.5-14.5z" glyph-name="percent" horiz-adv-x="405" unicode="&#x25;"/><glyph d="M259-8q-47 0-88.5 17.5t-72.5 48.5-48.5 72.5-17.5 88.5q0 44 14.5 80.5t38 64.5 54.5 46.5 64 26.5q9 2 20.5 4t30.5 4l-132 265h395v-120h-184l293-590h-152l-41 84q-34-53-77.5-72.5t-96.5-19.5zM259 121q20 0 37.5 7.5t30 21 20 31.5 7.5 38-7.5 38-20 31.5-30 21-37.5 7.5-37-7.5-29.5-21-20-31.5-7.5-38 7.5-38 20-31.5 29.5-21 37-7.5z" glyph-name="ampersand" horiz-adv-x="618" unicode="&#x26;"/><glyph d="M59 710h116v-287h-116v287z" glyph-name="quotesingle" horiz-adv-x="234" unicode="&#x27;"/><glyph d="M254.984-115q-44.9971 103-69.9961 206-24.998 103-24.998 209t24.998 209q24.999 103 69.9961 206l-101.994 45q-54.9961-105-81.9941-216-26.999-111-26.999-244t26.499-243.5q26.498-110.5 82.4941-215.5z" glyph-name="parenleft" horiz-adv-x="284" unicode="&#x28;"/><glyph d="M29-115q45 103 70 206t25 209-25 209-70 206l102 45q55-105 82-216t27-244-26.5-243.5-82.5-215.5z" glyph-name="parenright" horiz-adv-x="284" unicode="&#x29;"/><glyph d="M84 358l85 117-138 45 30 91 138-45v144h95v-144l138 46 29-91-137-46 86-117-77-55-86 116-86-116z" glyph-name="asterisk" horiz-adv-x="492" unicode="&#x2a;"/><glyph d="M77 333h166v164h105v-164h165v-105h-165v-165h-105v165h-166v105z" glyph-name="plus" horiz-adv-x="590" unicode="&#x2b;"/><glyph d="M122 0h-63v163h162v-163l-62-151h-81z" glyph-name="comma" horiz-adv-x="280" unicode="&#x2c;"/><glyph d="M58 346h275v-132h-275v132z" glyph-name="hyphen" horiz-adv-x="391" unicode="&#x2d;"/><glyph d="M140-8q-21 0-39 8t-31.5 21.5-21.5 32-8 39.5 8 39.5 22 32 32 21 38 7.5 38.5-7.5 32.5-21 22-32 8-39.5-8-39.5-21.5-32-32-21.5-39.5-8z" glyph-name="period" horiz-adv-x="281" unicode="&#x2e;"/><glyph d="M354 710h124l-334-710h-124z" glyph-name="slash" horiz-adv-x="497" unicode="&#x2f;"/><glyph d="M406-8q-75 0-141.5 28.5t-116 77.5-78.5 115.5-29 141.5 29 141.5 78.5 115.5 116 77.5 141.5 28.5 142-28.5 116.5-77.5 78.5-115.5 29-141.5-29-141.5-78.5-115.5-116.5-77.5-142-28.5zM406 120q50 0 92 18.5t72 50 47 74.5 17 92-17 92-47 74.5-72 50-92 18.5-91.5-18.5-71.5-50-47-74.5-17-92 17-92 47-74.5 71.5-50 91.5-18.5z" glyph-name="zero" horiz-adv-x="813" unicode="&#x30;"/><glyph d="M74 580l138 138v-718h-138v580z" glyph-name="one" horiz-adv-x="292" unicode="&#x31;"/><glyph d="M249 274q-37 4-69.5 23.5t-57 49.5-39 67.5-14.5 77.5q0 48 18 89t49.5 71.5 73.5 48 89 17.5q48 0 90-17.5t73.5-48 50-71.5 18.5-89q0-47-18-87.5t-51-78.5l-163-198h231v-128h-512zM299 394q43 0 68.5 28.5t25.5 69.5q0 42-25.5 70t-68.5 28q-42 0-67.5-28t-25.5-70q0-41 25.5-69.5t67.5-28.5z" glyph-name="two" horiz-adv-x="583" unicode="&#x32;"/><glyph d="M238-8q-66 0-122.5 27t-91.5 75l98 89q17-27 43.5-45t64.5-18q54 0 86 31.5t32 85.5-32 86-87 32h-70l113 227h-216v128h419l-124-251q70-32 103-91.5t33-130.5q0-55-18-100t-50.5-77.5-78.5-50-102-17.5z" glyph-name="three" horiz-adv-x="532" unicode="&#x33;"/><glyph d="M383 168h-381l519 550v-429h79v-121h-79v-168h-138v168zM383 289v131l-124-131h124z" glyph-name="four" horiz-adv-x="639" unicode="&#x34;"/><glyph d="M259-8q-68 0-124.5 27t-90.5 75l101 91q15-24 41.5-44.5t64.5-20.5q25 0 45 8.5t34 23.5 21.5 34.5 7.5 41.5-7.5 42-21.5 35-34.5 23.5-45.5 8.5q-36 0-60-17t-35-41l-89 37v394h380v-128h-243v-125q35 7 55 7 54 0 98.5-17t76-48.5 48.5-75 17-95.5q0-53-17-96.5t-48.5-74.5-75.5-48-98-17z" glyph-name="five" horiz-adv-x="537" unicode="&#x35;"/><glyph d="M283-8q-53 0-98 18t-78 50-51.5 75-18.5 93q0 38 13.5 71.5t30.5 64.5l193 346h154l-138-247q48 0 91.5-17.5t76.5-49 52-74.5 19-94q0-50-19-93t-52-75-78-50-97-18zM283 120q25 0 45 8.5t34 23.5 21.5 34.5 7.5 41.5-7.5 41.5-21.5 34.5-34 23.5-45 8.5-45-8.5-34-23.5-21.5-34.5-7.5-41.5 7.5-41.5 21.5-34.5 34-23.5 45-8.5z" glyph-name="six" horiz-adv-x="560" unicode="&#x36;"/><glyph d="M316 582h-279v128h486l-326-710h-148z" glyph-name="seven" horiz-adv-x="523" unicode="&#x37;"/><glyph d="M285-8q-52 0-97 18t-78 49.5-51.5 74.5-18.5 93q0 60 26 106.5t70 76.5q-20 23-31.5 52t-11.5 64q0 40 15 75t41 61 61 41 75 15 75-15 61-41 41-61 15-75q0-35-12-64t-32-52q45-30 70.5-76.5t25.5-106.5q0-50-18.5-93t-51.5-74.5-77.5-49.5-96.5-18zM285 590q-29 0-45.5-19t-16.5-45q0-27 16.5-46t45.5-19q28 0 45 19t17 46q0 26-17 45t-45 19zM285 120q24 0 44 8.5t33.5 23 21 34 7.5 41.5-7.5 41.5-21 34-33.5 23-44 8.5-44-8.5-33.5-23-21-34-7.5-41.5 7.5-41.5 21-34 33.5-23 44-8.5z" glyph-name="eight" horiz-adv-x="569" unicode="&#x38;"/><glyph d="M271 247q-49 0-92.5 17.5t-76.5 49-52 74.5-19 94q0 50 19 93t52 75 78 50 98 18q52 0 97-18t78-50 52-75 19-93q0-38-14-71.5t-31-65.5l-192-345h-154zM278 374q25 0 45 8.5t34 23.5 21.5 34.5 7.5 41.5-7.5 41.5-21.5 34.5-34 23.5-45 8.5-45-8.5-34-23.5-21.5-34.5-7.5-41.5 7.5-41.5 21.5-34.5 34-23.5 45-8.5z" glyph-name="nine" horiz-adv-x="561" unicode="&#x39;"/><glyph d="M152 307q-21 0-39 8t-31.5 21.5-21.5 32-8 39.5 8 39.5 22 32 32 21 38 7.5 38.5-7.5 32.5-21 22-32 8-39.5-8-39.5-21.5-32-32-21.5-39.5-8zM152-8q-21 0-39 8t-31.5 21.5-21.5 32-8 39.5 8 39.5 22 32 32 21 38 7.5 38.5-7.5 32.5-21 22-32 8-39.5-8-39.5-21.5-32-32-21.5-39.5-8z" glyph-name="colon" horiz-adv-x="305" unicode="&#x3a;"/><glyph d="M151 307q-21 0-39 8t-31.5 21.5-21.5 32-8 39.5 8 39.5 22 32 32 21 38 7.5 38.5-7.5 32.5-21 22-32 8-39.5-8-39.5-21.5-32-32-21.5-39.5-8zM133 0h-63v163h162v-163l-62-151h-81z" glyph-name="semicolon" horiz-adv-x="303" unicode="&#x3b;"/><glyph d="M76 437h438v-104h-438v104zM76 228h438v-104h-438v104z" glyph-name="equal" horiz-adv-x="590" unicode="&#x3d;"/><glyph d="M180 391h65q45 0 75.5 25t30.5 74q0 24-8 43t-21 31.5-29.5 19-34.5 6.5q-36 0-63.5-25.5t-27.5-74.5h-138q0 48 17.5 89.5t48 72 72.5 48.5 91 18 91-18 73-48.5 49-72 18-89.5-18-89-50.5-72-77-48.5-98.5-17.5h-65v128zM243-8q-21 0-39.5 8t-32 21.5-21.5 32-8 39.5q0 24 10.5 44.5t28.5 34.5h124q17-14 27.5-34.5t10.5-44.5q0-21-8-39.5t-21.5-32-31.5-21.5-39-8z" glyph-name="question" horiz-adv-x="532" unicode="&#x3f;"/><glyph d="M386-8q-81 0-145.5 27t-110 73.5-69.5 109.5-24 135q0 85 31.5 155.5t85 120.5 123.5 77.5 147 27.5q73 0 136-22t109-62.5 72-98 26-129.5q0-65-15.5-111.5t-41.5-75.5-59-42.5-67-13.5q-33 0-58 14t-42 34q-27-23-59-34.5t-64-11.5q-40 0-71 13.5t-52 37-31.5 55-10.5 66.5q0 45 16 85t44.5 70 68.5 47 88 17q30 0 53.5-7.5t41.5-21.5l4 19h90l-48-224q-7-33 3-56t42-23q40 0 64 38.5t24 126.5q0 58-21.5 102t-57.5 73-84 43.5-101 14.5q-60 0-114.5-20.5t-96-59.5-66.5-95.5-25-128.5q0-59 18.5-108t52.5-84 83-54 111-19q45 0 91 10t87 31l31-77q-47-21-103.5-32.5t-105.5-11.5zM295 345q0-42 20.5-67t61.5-25q49 0 80 34 0 7 1 10l31 140q-14 17-34.5 24.5t-41.5 7.5q-51 0-84.5-35t-33.5-89z" glyph-name="at" horiz-adv-x="791" unicode="&#x40;"/><glyph d="M335 718l349-718h-153l-59 126h-274l-59-126h-153zM415 246l-80 170-80-170h160z" glyph-name="A" horiz-adv-x="670" unicode="&#x41;"/><glyph d="M80 710h261q45 0 83.5-16.5t66.5-44 44-65 16-79.5-14.5-73.5-40.5-54.5q47-23 76-65.5t29-102.5q0-45-17-83.5t-47-66-70.5-43.5-87.5-16h-299v710zM326 419q38 0 61 23t23 56q0 32-23 55.5t-61 23.5h-101v-158h101zM370 133q41 0 64.5 23.5t23.5 57.5q0 35-23.5 58.5t-64.5 23.5h-145v-163h145z" glyph-name="B" horiz-adv-x="636" unicode="&#x42;"/><glyph d="M402-8q-75 0-141.5 28.5t-115.5 77.5-77.5 115.5-28.5 141.5 28.5 141.5 77.5 115.5 115.5 77.5 141.5 28.5q93 0 169.5-41.5t124.5-108.5l-109-90q-29 45-77 72.5t-108 27.5q-47 0-86.5-17.5t-68.5-48-45.5-71-16.5-86.5 16.5-86.5 45.5-71 68.5-48 86.5-17.5q60 0 108 27.5t77 72.5l109-90q-48-67-124.5-108.5t-169.5-41.5z" glyph-name="C" horiz-adv-x="717" unicode="&#x43;"/><glyph d="M80 710h241q76 0 143-27.5t116-75.5 77.5-113 28.5-139-28.5-139-77.5-113-116-75.5-143-27.5h-241v710zM321 133q49 0 89 17.5t68.5 47.5 44.5 70.5 16 86.5-16 86.5-44.5 70.5-68.5 47.5-89 17.5h-96v-444h96z" glyph-name="D" horiz-adv-x="725" unicode="&#x44;"/><glyph d="M80 710h434v-143h-289v-140h229v-140h-229v-144h289v-143h-434v710z" glyph-name="E" horiz-adv-x="563" unicode="&#x45;"/><glyph d="M80 710h415v-143h-270v-140h209v-140h-209v-287h-145v710z" glyph-name="F" horiz-adv-x="526" unicode="&#x46;"/><glyph d="M402-8q-75 0-141.5 28.5t-115.5 77.5-77.5 115.5-28.5 141.5 28.5 141.5 77.5 115.5 115.5 77.5 141.5 28.5q90 0 161.5-34.5t121.5-95.5l-109-90q-33 41-74 60.5t-100 19.5q-47 0-86.5-17.5t-68.5-48-45.5-71-16.5-86.5 16.5-86.5 45.5-71 68.5-48 86.5-17.5q93 0 146 38v118h-181l62 137h261v-321q-49-55-123-83.5t-165-28.5z" glyph-name="G" horiz-adv-x="744" unicode="&#x47;"/><glyph d="M80 710h145v-283h308v283h145v-710h-145v287h-308v-287h-145v710z" glyph-name="H" horiz-adv-x="758" unicode="&#x48;"/><glyph d="M80 710h145v-710h-145v710z" glyph-name="I" horiz-adv-x="305" unicode="&#x49;"/><glyph d="M234-8q-45 0-84.5 13t-69 39.5-46.5 67.5-17 97h145q0-43 20-62t52-19q33 0 52.5 19t19.5 62v501h145v-510q0-55-17.5-94t-47-64.5-69-37.5-83.5-12z" glyph-name="J" horiz-adv-x="526" unicode="&#x4a;"/><glyph d="M80 710h145v-356l265 356h168l-266-359 297-351h-181l-283 334v-334h-145v710z" glyph-name="K" horiz-adv-x="674" unicode="&#x4b;"/><glyph d="M80 710h145v-566h284v-144h-429v710z" glyph-name="L" horiz-adv-x="530" unicode="&#x4c;"/><glyph d="M80 718l353-361 352 361v-718h-145v380l-208-214-207 214v-380h-145v718z" glyph-name="M" horiz-adv-x="865" unicode="&#x4d;"/><glyph d="M225 400v-400h-145v718l461-408v400h145v-718z" glyph-name="N" horiz-adv-x="766" unicode="&#x4e;"/><glyph d="M402-8q-75 0-141.5 28.5t-115.5 77.5-77.5 115.5-28.5 141.5 28.5 141.5 77.5 115.5 115.5 77.5 141.5 28.5 141.5-28.5 115.5-77.5 77.5-115.5 28.5-141.5-28.5-141.5-77.5-115.5-115.5-77.5-141.5-28.5zM402 132q46 0 86 17.5t69 48 45.5 71 16.5 86.5-16.5 86.5-45.5 71-69 48-86 17.5q-47 0-86.5-17.5t-68.5-48-45.5-71-16.5-86.5 16.5-86.5 45.5-71 68.5-48 86.5-17.5z" glyph-name="O" horiz-adv-x="804" unicode="&#x4f;"/><glyph d="M80 710h227q53 0 97.5-18t77-50 51-75 18.5-93-18.5-93-51-75-77-50-97.5-18h-82v-238h-145v710zM305 373q48 0 76 29.5t28 71.5-28 71-76 29h-80v-201h80z" glyph-name="P" horiz-adv-x="578" unicode="&#x50;"/><glyph d="M402-8q-75 0-141.5 28.5t-115.5 77.5-77.5 115.5-28.5 141.5 28.5 141.5 77.5 115.5 115.5 77.5 141.5 28.5 141.5-28.5 115.5-77.5 77.5-115.5 28.5-141.5q0-50-12.5-95.5t-35.5-85.5l99-81-84-101-100 82q-47-38-105.5-60t-124.5-22zM402 132q33 0 63 9t55 26l-104 87 84 101 103-86q8 20 12 41.5t4 44.5q0 46-16.5 86.5t-45.5 71-69 48-86 17.5q-47 0-86.5-17.5t-68.5-48-45.5-71-16.5-86.5 16.5-86.5 45.5-71 68.5-48 86.5-17.5z" glyph-name="Q" horiz-adv-x="817" unicode="&#x51;"/><glyph d="M80 710h256q45 0 84.5-16t68-44.5 45-66.5 16.5-82q0-33-10-64t-29-57-45-45.5-59-30.5l234-304h-174l-223 293h-19v-293h-145v710zM320 416q41 0 65 22.5t24 57.5-24 58-65 23h-95v-161h95z" glyph-name="R" horiz-adv-x="638" unicode="&#x52;"/><glyph d="M277-8q-85 0-149.5 34.5t-100.5 98.5l110 90q23-36 60-61.5t77-25.5q42 0 62.5 16.5t20.5 45.5-21.5 49-69.5 41l-45 21q-81 35-122.5 90.5t-41.5 127.5q0 45 18 81.5t47.5 63 68 40.5 80.5 14q60 0 108-19t91-70l-98-104q-27 33-49.5 45t-51.5 12q-26 0-47-15t-21-44q0-30 23.5-50t74.5-43l44-20q74-32 116-84t42-126q0-47-16.5-85.5t-46.5-65.5-71.5-42-91.5-15z" glyph-name="S" horiz-adv-x="538" unicode="&#x53;"/><glyph d="M197 567h-177v143h500v-143h-178v-567h-145v567z" glyph-name="T" horiz-adv-x="540" unicode="&#x54;"/><glyph d="M361-8q-63 0-116.5 20.5t-91.5 59-59.5 92.5-21.5 120v426h145v-428q0-71 39.5-110.5t104.5-39.5 104.5 39.5 39.5 110.5v428h145v-427q0-66-21.5-120t-59.5-92-91.5-58.5-116.5-20.5z" glyph-name="U" horiz-adv-x="722" unicode="&#x55;"/><glyph d="M-7 710h161l172-388 172 388h161l-333-718z" glyph-name="V" horiz-adv-x="652" unicode="&#x56;"/><glyph d="M-1 710h148l120-364 166 372 165-371 121 363h148l-246-718-188 429-188-429z" glyph-name="W" horiz-adv-x="866" unicode="&#x57;"/><glyph d="M233 357l-216 353h168l149-245 150 245h168l-216-353 230-357h-168l-163 255-164-255h-168z" glyph-name="X" horiz-adv-x="669" unicode="&#x58;"/><glyph d="M263 299l-263 411h170l165-266 166 266h169l-262-411v-299h-145v299z" glyph-name="Y" horiz-adv-x="671" unicode="&#x59;"/><glyph d="M351 567h-301v143h549l-342-567h326v-143h-575z" glyph-name="Z" horiz-adv-x="617" unicode="&#x5a;"/><glyph d="M296.981-155v100h-104.993v710h104.993v100h-221.986v-910h221.986z" glyph-name="bracketleft" horiz-adv-x="328" unicode="&#x5b;"/><glyph d="M31-155v100h105v710h-105v100h222v-910h-222z" glyph-name="bracketright" horiz-adv-x="328" unicode="&#x5d;"/><glyph d="M45 0h433v-105h-433v105z" glyph-name="underscore" horiz-adv-x="523" unicode="&#x5f;"/><glyph d="M-120 710h159l84-160h-101z" glyph-name="grave" unicode="&#x60;"/><glyph d="M401 34q-50-42-121-42-56 0-101 21t-77 56-49.5 82-17.5 99 17.5 99 49.5 82 77 56 101 21q71 0 121-42v34h137v-500h-137v34zM300 118q34 0 59 13t42 36v165q-17 23-42 36.5t-59 13.5q-29 0-52-10.5t-39.5-28.5-25.5-42-9-51 9-51 25.5-42 39.5-28.5 52-10.5z" glyph-name="a" horiz-adv-x="601" unicode="&#x61;"/><glyph d="M63 710h137v-244q23 20 54.5 31t65.5 11q55 0 100.5-21t77.5-56 49.5-82 17.5-99-17.5-99-49.5-82-77.5-56-100.5-21q-34 0-65.5 11t-54.5 31v-34h-137v710zM300 382q-33 0-58-13.5t-42-36.5v-165q17-23 42-36t58-13q29 0 52.5 10.5t40 28.5 25.5 42 9 51-9 51-25.5 42-40 28.5-52.5 10.5z" glyph-name="b" horiz-adv-x="600" unicode="&#x62;"/><glyph d="M293-8q-54 0-101.5 20.5t-82.5 55.5-55 82-20 100 20 100 55 82 82.5 55.5 101.5 20.5q68 0 123.5-30t89.5-80l-106-79q-17 27-44.5 44t-62.5 17q-26 0-48.5-10t-38.5-27-25-41-9-52 9-52 25-41 38.5-27 48.5-10q35 0 62.5 17t44.5 44l106-79q-34-50-89.5-80t-123.5-30z" glyph-name="c" horiz-adv-x="527" unicode="&#x63;"/><glyph d="M401 0v34q-50-42-121-42-56 0-101 21t-77 56-49.5 82-17.5 99 17.5 99 49.5 82 77 56 101 21q71 0 121-42v244h137v-710h-137zM300 382q-29 0-52-10.5t-39.5-28.5-25.5-42-9-51 9-51 25.5-42 39.5-28.5 52-10.5q34 0 59 13t42 36v165q-17 23-42 36.5t-59 13.5z" glyph-name="d" horiz-adv-x="601" unicode="&#x64;"/><glyph d="M290-8q-51 0-97 19t-81 53-56 81.5-21 104.5q0 55 19 102.5t52.5 82 80.5 54 104 19.5q56 0 103-20t80-57 48.5-89.5 8.5-117.5h-363q3-27 15-47t29-33 37-19.5 40-6.5q42 0 70.5 17.5t45.5 44.5l106-76q-35-51-91.5-81.5t-129.5-30.5zM283 396q-15 0-32.5-4t-33.5-14-28.5-27-18.5-42h225q-7 45-38.5 66t-73.5 21z" glyph-name="e" horiz-adv-x="567" unicode="&#x65;"/><glyph d="M103 380h-70v120h78q-35 33-35 84 0 27 9.5 50t27.5 40 43.5 26.5 57.5 9.5h147v-120h-100q-27 0-40.5-12.5t-13.5-32.5 13.5-32.5 31.5-12.5h109v-120h-121v-380h-137v380z" glyph-name="f" horiz-adv-x="378" unicode="&#x66;"/><glyph d="M290-194q-56 0-113.5 11.5t-108.5 45.5l63 120q30-23 68.5-37.5t83.5-14.5q25 0 47.5 4.5t39.5 15 27.5 28 10.5 42.5q0 9-2.5 22t-10.5 25q-23-20-54.5-31.5t-66.5-11.5q-56 0-100.5 20t-75 53.5-46.5 77-16 90.5 16 91 46.5 77.5 75 53.5 100.5 20q35 0 65.5-11.5t54.5-31.5v35h137v-402q11-26 16-50.5t5-47.5q0-53-22.5-90t-59.5-60-84-33.5-96-10.5zM290 151q34 0 60.5 13.5t43.5 36.5v131q-17 23-43.5 36.5t-60.5 13.5q-27 0-48.5-9.5t-36.5-25.5-23-37-8-44 8-43.5 23-36.5 36.5-25.5 48.5-9.5z" glyph-name="g" horiz-adv-x="598" unicode="&#x67;"/><glyph d="M63 710h137v-247q24 23 56 34t67 11q51 0 90.5-16.5t66.5-45.5 41.5-70.5 14.5-90.5v-285h-137v262q0 52-24 86t-75 34q-29 0-56-14.5t-44-41.5v-326h-137v710z" glyph-name="h" horiz-adv-x="593" unicode="&#x68;"/><glyph d="M63 500h137v-500h-137v500zM68 579q-20 22-20 55 0 35 24.5 59.5t59.5 24.5 59.5-24.5 24.5-59.5q0-33-20-55h-128z" glyph-name="i" horiz-adv-x="263" unicode="&#x69;"/><glyph d="M-33-55h26q37 0 57.5 14t20.5 50v491h137v-508q0-88-56.5-132t-149.5-44h-35v129zM76 579q-20 22-20 55 0 35 24.5 59.5t59.5 24.5 59.5-24.5 24.5-59.5q0-33-20-55h-128z" glyph-name="j" horiz-adv-x="271" unicode="&#x6a;"/><glyph d="M63 710h137v-438l175 228h161l-183-237 209-263h-165l-197 249v-249h-137v710z" glyph-name="k" horiz-adv-x="551" unicode="&#x6b;"/><glyph d="M63 710h137v-710h-137v710z" glyph-name="l" horiz-adv-x="263" unicode="&#x6c;"/><glyph d="M378 262q0 25-4.5 47t-15 38-27 25.5-40.5 9.5q-28 0-52-14t-39-38v-330h-137v500h137v-35q23 21 55 32t65 11q46 0 82-17.5t62-47.5q24 26 64.5 45.5t96.5 19.5q53 0 92-17.5t64-47.5 37-71 12-87v-285h-137v262q0 25-4.5 47t-15 38-27 25.5-40.5 9.5q-29 0-53.5-14.5t-40.5-40.5q3-20 3-42v-285h-137v262z" glyph-name="m" horiz-adv-x="887" unicode="&#x6d;"/><glyph d="M63 500h137v-37q24 23 56 34t67 11q51 0 90.5-16.5t66.5-45.5 41.5-70.5 14.5-90.5v-285h-137v262q0 52-24 86t-75 34q-29 0-56-14.5t-44-41.5v-326h-137v500z" glyph-name="n" horiz-adv-x="593" unicode="&#x6e;"/><glyph d="M294-8q-55 0-102.5 20.5t-82.5 55.5-55 82-20 100 20 100 55 82 82.5 55.5 102.5 20.5q54 0 101.5-20.5t83-55.5 55.5-82 20-100-20-100-55.5-82-83-55.5-101.5-20.5zM294 120q26 0 48.5 10t38.5 27 25 41 9 52-9 52-25 41-38.5 27-48.5 10q-54 0-88-36.5t-34-93.5 34-93.5 88-36.5z" glyph-name="o" horiz-adv-x="588" unicode="&#x6f;"/><glyph d="M200 500v-34q23 20 54.5 31t65.5 11q55 0 100.5-21t77.5-56 49.5-82 17.5-99-17.5-99-49.5-82-77.5-56-100.5-21q-34 0-65.5 11t-54.5 31v-218h-137v684h137zM300 118q29 0 52.5 10.5t40 28.5 25.5 42 9 51-9 51-25.5 42-40 28.5-52.5 10.5q-33 0-58-13t-42-36v-165q17-23 42-36.5t58-13.5z" glyph-name="p" horiz-adv-x="600" unicode="&#x70;"/><glyph d="M538-184h-137v218q-50-42-121-42-56 0-101 21t-77 56-49.5 82-17.5 99 17.5 99 49.5 82 77 56 101 21q71 0 121-42v34h137v-684zM300 118q34 0 59 13.5t42 36.5v165q-17 23-42 36t-59 13q-29 0-52-10.5t-39.5-28.5-25.5-42-9-51 9-51 25.5-42 39.5-28.5 52-10.5z" glyph-name="q" horiz-adv-x="601" unicode="&#x71;"/><glyph d="M63 500h137v-47q43 54 119 54 11 0 24-1t26-6v-142q-16 8-34.5 11.5t-36.5 3.5q-27 0-54-11t-44-32v-330h-137v500z" glyph-name="r" horiz-adv-x="388" unicode="&#x72;"/><glyph d="M220-8q-63 0-113 24.5t-82 80.5l104 71q17-29 39-46t57-17q21 0 35.5 7.5t14.5 24.5-14.5 27-52.5 24l-29 12q-66 25-97.5 65.5t-31.5 92.5q0 33 13 60.5t35.5 47.5 53 31 66.5 11q48 0 88.5-19.5t67.5-61.5l-82-75q-14 21-31.5 33.5t-42.5 12.5q-18 0-30.5-7.5t-12.5-22.5q0-17 14-27t53-25l25-9q70-26 101.5-64.5t31.5-94.5q0-37-13.5-66t-37.5-49-57-30.5-72-10.5z" glyph-name="s" horiz-adv-x="434" unicode="&#x73;"/><glyph d="M258 0q-71 0-111.5 40t-40.5 112v228h-68l-30 120h98v82l137 68v-150h156l-30-120h-126v-191q0-33 14-48.5t47-15.5h79v-125h-125z" glyph-name="t" horiz-adv-x="416" unicode="&#x74;"/><glyph d="M393 41q-25-25-58.5-37t-68.5-12q-49 0-87.5 16t-65.5 45.5-41.5 70.5-14.5 91v285h137v-262q0-52 24-86t72-34q33 0 60.5 15.5t42.5 44.5v322h137v-500h-137v41z" glyph-name="u" horiz-adv-x="593" unicode="&#x75;"/><glyph d="M-13 500h157l128-243 128 243h157l-285-508z" glyph-name="v" horiz-adv-x="544" unicode="&#x76;"/><glyph d="M4 500h143l89-299 127 307 127-307 88 299h144l-158-500h-106l-95 226-95-226h-106z" glyph-name="w" horiz-adv-x="726" unicode="&#x77;"/><glyph d="M187 252l-174 248h158l104-152 103 152h159l-174-248 183-252h-159l-112 160-113-160h-158z" glyph-name="x" horiz-adv-x="550" unicode="&#x78;"/><glyph d="M191 9l-189 491h146l115-326 116 326h145l-264-684h-145z" glyph-name="y" horiz-adv-x="524" unicode="&#x79;"/><glyph d="M258 381h-214v119h444l-244-380h230v-120h-461z" glyph-name="z" horiz-adv-x="511" unicode="&#x7a;"/><glyph d="M311.98-155v100h-44.9971q-31.998 0-44.4971 14t-12.499 46v194q0 45-15.999 69t-43.9971 32q27.998 8 43.9971 32t15.999 69v194q0 32 12.499 46t44.4971 14h44.9971v100h-79.9941q-65.9961 0-102.494-38t-36.498-104v-206q0-25-11.499-41t-42.4971-16h-9v-100h9q30.998 0 42.4971-16t11.499-41v-206q0-66 38.998-104 38.9971-38 104.993-38h74.9951z" glyph-name="braceleft" horiz-adv-x="344" unicode="&#x7b;"/><glyph d="M75 710h116v-894h-116v894z" glyph-name="bar" horiz-adv-x="266" unicode="&#x7c;"/><glyph d="M32-155v100h45q32 0 44.5 14t12.5 46v194q0 45 16 69t44 32q-28 8-44 32t-16 69v194q0 32-12.5 46t-44.5 14h-45v100h80q66 0 102.5-38t36.5-104v-206q0-25 11.5-41t42.5-16h9v-100h-9q-31 0-42.5-16t-11.5-41v-206q0-66-39-104t-105-38h-75z" glyph-name="braceright" horiz-adv-x="344" unicode="&#x7d;"/><glyph glyph-name="uni00A0" horiz-adv-x="225" unicode="&#xa0;"/><glyph d="M139 508q21 0 39.5-8t32-21.5 21.5-32 8-39.5q0-24-10.5-44.5t-28.5-34.5h-124q-17 14-27.5 34.5t-10.5 44.5q0 21 8 39.5t21.5 32 31.5 21.5 39 8zM182 253l27-187v-250h-138v250l27 187h84z" glyph-name="exclamdown" horiz-adv-x="279" unicode="&#xa1;"/><glyph d="M47 128h79v188h-79v74h82q-15 20-26 48.5t-11 64.5q0 43 17.5 82t48 68.5 72 47 90.5 17.5q46 0 87-17t72-47 49-70 20-86h-138q0 40-26 66t-64 26q-39 0-64.5-26t-25.5-72q0-42 26.5-72t73.5-30h70v-74h-136v-188h289v-128h-506v128z" glyph-name="sterling" horiz-adv-x="593" unicode="&#xa3;"/><glyph d="M115 366h127l-220 344h170l165-266 166 266h169l-220-344h127v-74h-169v-73h169v-74h-169v-145h-145v145h-170v74h170v73h-170v74z" glyph-name="yen" horiz-adv-x="714" unicode="&#xa5;"/><glyph d="M118 568q-32 0-54 22t-22 54 23 53.5 53 21.5 53-21.5 23-53.5-22.5-54-53.5-22zM-117 568q-32 0-54 22t-22 54 22.5 53.5 53.5 21.5q30 0 52.5-21.5t22.5-53.5-22-54-53-22z" glyph-name="dieresis" unicode="&#xa8;"/><glyph d="M401-8q-75 0-141 28.5t-115.5 78-78 115.5-28.5 141 28.5 141 78 115.5 115.5 78 141 28.5 141-28.5 115.5-78 78-115.5 28.5-141-28.5-141-78-115.5-115.5-78-141-28.5zM401 69q58 0 109 22t89 60.5 59.5 91 21.5 113.5q0 60-21.5 112t-59.5 90.5-89 60.5-109 22q-59 0-110-22t-88.5-60.5-59-90.5-21.5-112q0-61 21.5-113.5t59-91 88.5-60.5 110-22zM415 183q-36 0-67 13.5t-54.5 37-37 54.5-13.5 67 13.5 67 37 54.5 54.5 37 67 13.5q41 0 76-18.5t60-50.5l-61-53q-12 17-31.5 29.5t-43.5 12.5q-38 0-63-27t-25-65 25-64.5 63-26.5q24 0 43.5 11.5t31.5 30.5l61-54q-24-32-59.5-50.5t-76.5-18.5z" glyph-name="copyright" horiz-adv-x="802" unicode="&#xa9;"/><glyph d="M258 250l161 237 92-63-119-174 119-174-92-63zM30 250l161 237 92-63-119-174 119-174-92-63z" glyph-name="guillemotleft" horiz-adv-x="551" unicode="&#xab;"/><glyph d="M58 346h275v-132h-275v132z" glyph-name="uni00AD" horiz-adv-x="391" unicode="&#xad;"/><glyph d="M-161 676h322v-89h-322v89z" glyph-name="macron" unicode="&#xaf;"/><glyph d="M157 470q-25 0-47.5 9.5t-39 26-26 39-9.5 47.5 9.5 47.5 26 39 39 26 47.5 9.5 47.5-9.5 39-26 26-39 9.5-47.5-9.5-47.5-26-39-39-26-47.5-9.5zM157 542q21 0 35.5 15t14.5 35-14.5 35-35.5 15q-20 0-35-15t-15-35 15-35 35-15z" glyph-name="degree" horiz-adv-x="314" unicode="&#xb0;"/><glyph d="M120.992 710h-158.99l-83.9941-160h100.993z" glyph-name="acute" unicode="&#xb4;"/><glyph d="M145 151q-21 0-39 8t-31.5 21.5-21.5 32-8 39.5 8 39.5 22 32 32 21 38 7.5 38.5-7.5 32.5-21 22-32 8-39.5-8-39.5-21.5-32-32-21.5-39.5-8z" glyph-name="periodcentered" horiz-adv-x="290" unicode="&#xb7;"/><glyph d="M-15 0h93l-48-165h-121z" glyph-name="cedilla" unicode="&#xb8;"/><glyph d="M268 76l119 174-119 174 92 63 161-237-161-237zM40 76l119 174-119 174 92 63 161-237-161-237z" glyph-name="guillemotright" horiz-adv-x="551" unicode="&#xbb;"/><glyph d="M223 328q-17 14-27.5 34.5t-10.5 44.5q0 21 8 39.5t21.5 32 32 21.5 39.5 8 39-8 31.5-21.5 21.5-32 8-39.5q0-49-39-79h-124zM271-194q-49 0-91.5 18t-73.5 48.5-48.5 72-17.5 89.5 18 89 50 72 76.5 48.5 98.5 17.5h66v-128h-66q-45 0-75.5-25t-30.5-74 29-74.5 65-25.5 63 25.5 27 74.5h138q0-48-17.5-89.5t-48-72-72-48.5-90.5-18z" glyph-name="questiondown" horiz-adv-x="525" unicode="&#xbf;"/><glyph d="M335 718l349-718h-153l-59 126h-274l-59-126h-153zM415 246l-80 170-80-170h160zM160 913h154l71-145h-102z" glyph-name="Agrave" horiz-adv-x="670" unicode="&#xc0;"/><glyph d="M335 718l349-718h-153l-59 126h-274l-59-126h-153zM415 246l-80 170-80-170h160zM518.969 913h-153.991l-70.9951-145h101.993z" glyph-name="Aacute" horiz-adv-x="670" unicode="&#xc1;"/><glyph d="M335 718l349-718h-153l-59 126h-274l-59-126h-153zM415 246l-80 170-80-170h160zM159 849l176 81 176-81-40-88-136 63-136-63z" glyph-name="Acircumflex" horiz-adv-x="670" unicode="&#xc2;"/><glyph d="M335 718l349-718h-153l-59 126h-274l-59-126h-153zM415 246l-80 170-80-170h160zM150 805q4 27 15.5 47.5t27 35 34 22 37.5 7.5q22 0 40-6.5t33.5-14 28.5-14 24-6.5q18 0 28.5 9.5t15.5 32.5h90l-4-26q-4-26-15-47t-26.5-35.5-34.5-22-38-7.5q-21 0-39 6.5t-33.5 14-28.5 14-25 6.5q-18 0-28-9.5t-16-32.5h-89z" glyph-name="Atilde" horiz-adv-x="670" unicode="&#xc3;"/><glyph d="M335 718l349-718h-153l-59 126h-274l-59-126h-153zM415 246l-80 170-80-170h160zM453 773q-32 0-54 22t-22 54 23 53.5 53 21.5 53-21.5 23-53.5-22.5-54-53.5-22zM218 773q-32 0-54 22t-22 54 22.5 53.5 53.5 21.5q30 0 52.5-21.5t22.5-53.5-22-54-53-22z" glyph-name="Adieresis" horiz-adv-x="670" unicode="&#xc4;"/><glyph d="M335 718l349-718h-153l-59 126h-274l-59-126h-153zM415 246l-80 170-80-170h160zM335 757q-24 0-45 9t-36.5 25-24.5 36.5-9 44.5 9 44.5 25 36 36.5 24.5 44.5 9 44.5-9 36.5-24.5 25-36 9-44.5-9-44.5-24.5-36.5-36.5-25-45-9zM335 825q20 0 33.5 13.5t13.5 33.5-13.5 33.5-33.5 13.5-33.5-13.5-13.5-33.5 13.5-33.5 33.5-13.5z" glyph-name="Aring" horiz-adv-x="670" unicode="&#xc5;"/><glyph d="M1 0l273 561-72 149h400l70-143h-248l68-140h191l68-140h-191l70-144h248l69-143h-401l-61 126h-271l-60-126h-153zM427 246l-79 164-77-164h156z" glyph-name="AE" horiz-adv-x="938" unicode="&#xc6;"/><glyph d="M402-8q-75 0-141.5 28.5t-115.5 77.5-77.5 115.5-28.5 141.5 28.5 141.5 77.5 115.5 115.5 77.5 141.5 28.5q93 0 169.5-41.5t124.5-108.5l-109-90q-29 45-77 72.5t-108 27.5q-47 0-86.5-17.5t-68.5-48-45.5-71-16.5-86.5 16.5-86.5 45.5-71 68.5-48 86.5-17.5q60 0 108 27.5t77 72.5l109-90q-48-67-124.5-108.5t-169.5-41.5zM364 0h93l-48-165h-121z" glyph-name="Ccedilla" horiz-adv-x="717" unicode="&#xc7;"/><glyph d="M80 710h434v-143h-289v-140h229v-140h-229v-144h289v-143h-434v710zM124 913h154l71-145h-102z" glyph-name="Egrave" horiz-adv-x="563" unicode="&#xc8;"/><glyph d="M80 710h434v-143h-289v-140h229v-140h-229v-144h289v-143h-434v710zM481.971 913h-153.99l-70.9961-145h101.994z" glyph-name="Eacute" horiz-adv-x="563" unicode="&#xc9;"/><glyph d="M80 710h434v-143h-289v-140h229v-140h-229v-144h289v-143h-434v710zM122 849l176 81 176-81-40-88-136 63-136-63z" glyph-name="Ecircumflex" horiz-adv-x="563" unicode="&#xca;"/><glyph d="M80 710h434v-143h-289v-140h229v-140h-229v-144h289v-143h-434v710zM416 773q-32 0-54 22t-22 54 23 53.5 53 21.5 53-21.5 23-53.5-22.5-54-53.5-22zM181 773q-32 0-54 22t-22 54 22.5 53.5 53.5 21.5q30 0 52.5-21.5t22.5-53.5-22-54-53-22z" glyph-name="Edieresis" horiz-adv-x="563" unicode="&#xcb;"/><glyph d="M80 710h145v-710h-145v710zM-21 913h154l71-145h-102z" glyph-name="Igrave" horiz-adv-x="305" unicode="&#xcc;"/><glyph d="M80 710h145v-710h-145v710zM336.979 913h-153.99l-70.9961-145h101.994z" glyph-name="Iacute" horiz-adv-x="305" unicode="&#xcd;"/><glyph d="M80 710h145v-710h-145v710zM-23 849l176 81 176-81-40-88-136 63-136-63z" glyph-name="Icircumflex" horiz-adv-x="305" unicode="&#xce;"/><glyph d="M80 710h145v-710h-145v710zM271 773q-32 0-54 22t-22 54 23 53.5 53 21.5 53-21.5 23-53.5-22.5-54-53.5-22zM36 773q-32 0-54 22t-22 54 22.5 53.5 53.5 21.5q30 0 52.5-21.5t22.5-53.5-22-54-53-22z" glyph-name="Idieresis" horiz-adv-x="305" unicode="&#xcf;"/><glyph d="M109 710h241q76 0 143-27.5t116-75.5 77.5-113 28.5-139-28.5-139-77.5-113-116-75.5-143-27.5h-241v710zM350 133q49 0 89 17.5t68.5 47.5 44.5 70.5 16 86.5-16 86.5-44.5 70.5-68.5 47.5-89 17.5h-96v-444h96zM13 392h337v-74h-337v74z" glyph-name="Eth" horiz-adv-x="754" unicode="&#xd0;"/><glyph d="M225 400v-400h-145v718l461-408v400h145v-718zM171 805q4 27 15.5 47.5t27 35 34 22 37.5 7.5q22 0 40-6.5t33.5-14 28.5-14 24-6.5q18 0 28.5 9.5t15.5 32.5h90l-4-26q-4-26-15-47t-26.5-35.5-34.5-22-38-7.5q-21 0-39 6.5t-33.5 14-28.5 14-25 6.5q-18 0-28-9.5t-16-32.5h-89z" glyph-name="Ntilde" horiz-adv-x="766" unicode="&#xd1;"/><glyph d="M402-8q-75 0-141.5 28.5t-115.5 77.5-77.5 115.5-28.5 141.5 28.5 141.5 77.5 115.5 115.5 77.5 141.5 28.5 141.5-28.5 115.5-77.5 77.5-115.5 28.5-141.5-28.5-141.5-77.5-115.5-115.5-77.5-141.5-28.5zM402 132q46 0 86 17.5t69 48 45.5 71 16.5 86.5-16.5 86.5-45.5 71-69 48-86 17.5q-47 0-86.5-17.5t-68.5-48-45.5-71-16.5-86.5 16.5-86.5 45.5-71 68.5-48 86.5-17.5zM227 913h154l71-145h-102z" glyph-name="Ograve" horiz-adv-x="804" unicode="&#xd2;"/><glyph d="M402-8q-75 0-141.5 28.5t-115.5 77.5-77.5 115.5-28.5 141.5 28.5 141.5 77.5 115.5 115.5 77.5 141.5 28.5 141.5-28.5 115.5-77.5 77.5-115.5 28.5-141.5-28.5-141.5-77.5-115.5-115.5-77.5-141.5-28.5zM402 132q46 0 86 17.5t69 48 45.5 71 16.5 86.5-16.5 86.5-45.5 71-69 48-86 17.5q-47 0-86.5-17.5t-68.5-48-45.5-71-16.5-86.5 16.5-86.5 45.5-71 68.5-48 86.5-17.5zM585.964 913h-153.99l-70.9961-145h101.994z" glyph-name="Oacute" horiz-adv-x="804" unicode="&#xd3;"/><glyph d="M402-8q-75 0-141.5 28.5t-115.5 77.5-77.5 115.5-28.5 141.5 28.5 141.5 77.5 115.5 115.5 77.5 141.5 28.5 141.5-28.5 115.5-77.5 77.5-115.5 28.5-141.5-28.5-141.5-77.5-115.5-115.5-77.5-141.5-28.5zM402 132q46 0 86 17.5t69 48 45.5 71 16.5 86.5-16.5 86.5-45.5 71-69 48-86 17.5q-47 0-86.5-17.5t-68.5-48-45.5-71-16.5-86.5 16.5-86.5 45.5-71 68.5-48 86.5-17.5zM226 849l176 81 176-81-40-88-136 63-136-63z" glyph-name="Ocircumflex" horiz-adv-x="804" unicode="&#xd4;"/><glyph d="M402-8q-75 0-141.5 28.5t-115.5 77.5-77.5 115.5-28.5 141.5 28.5 141.5 77.5 115.5 115.5 77.5 141.5 28.5 141.5-28.5 115.5-77.5 77.5-115.5 28.5-141.5-28.5-141.5-77.5-115.5-115.5-77.5-141.5-28.5zM402 132q46 0 86 17.5t69 48 45.5 71 16.5 86.5-16.5 86.5-45.5 71-69 48-86 17.5q-47 0-86.5-17.5t-68.5-48-45.5-71-16.5-86.5 16.5-86.5 45.5-71 68.5-48 86.5-17.5zM217 805q4 27 15.5 47.5t27 35 34 22 37.5 7.5q22 0 40-6.5t33.5-14 28.5-14 24-6.5q18 0 28.5 9.5t15.5 32.5h90l-4-26q-4-26-15-47t-26.5-35.5-34.5-22-38-7.5q-21 0-39 6.5t-33.5 14-28.5 14-25 6.5q-18 0-28-9.5t-16-32.5h-89z" glyph-name="Otilde" horiz-adv-x="804" unicode="&#xd5;"/><glyph d="M402-8q-75 0-141.5 28.5t-115.5 77.5-77.5 115.5-28.5 141.5 28.5 141.5 77.5 115.5 115.5 77.5 141.5 28.5 141.5-28.5 115.5-77.5 77.5-115.5 28.5-141.5-28.5-141.5-77.5-115.5-115.5-77.5-141.5-28.5zM402 132q46 0 86 17.5t69 48 45.5 71 16.5 86.5-16.5 86.5-45.5 71-69 48-86 17.5q-47 0-86.5-17.5t-68.5-48-45.5-71-16.5-86.5 16.5-86.5 45.5-71 68.5-48 86.5-17.5zM520 773q-32 0-54 22t-22 54 23 53.5 53 21.5 53-21.5 23-53.5-22.5-54-53.5-22zM285 773q-32 0-54 22t-22 54 22.5 53.5 53.5 21.5q30 0 52.5-21.5t22.5-53.5-22-54-53-22z" glyph-name="Odieresis" horiz-adv-x="804" unicode="&#xd6;"/><glyph d="M89 131l132 132-133 133 74 74 133-133 132 132 74-74-132-132 132-133-73-73-133 132-132-132z" glyph-name="multiply" horiz-adv-x="590" unicode="&#xd7;"/><glyph d="M47-11l94 113q-46 47-74 111-28 67-28 142t28.5 141.5 77.5 115.5 115.5 77.5 141.5 28.5 141-29q32-13 60-32l94 113 58-47-95-113q48-48 76-114 29-66 29-141t-28.5-141.5-77.5-115.5-115.5-77.5-141.5-28.5-142 28q-34 15-64 35l-93-112zM402 132q46 0 86 17.5t69 48 45.5 71 16.5 86.5-17 86q-13 32-34 58l-281-335q14-8 28-15 40-17 87-17zM488 560q-40 18-86 18-47 0-86.5-17.5t-68.5-48-45.5-71-16.5-86.5 16-87q13-30 32-55l279 335q-12 7-24 12z" glyph-name="Oslash" horiz-adv-x="804" unicode="&#xd8;"/><glyph d="M361-8q-63 0-116.5 20.5t-91.5 59-59.5 92.5-21.5 120v426h145v-428q0-71 39.5-110.5t104.5-39.5 104.5 39.5 39.5 110.5v428h145v-427q0-66-21.5-120t-59.5-92-91.5-58.5-116.5-20.5zM186 913h154l71-145h-102z" glyph-name="Ugrave" horiz-adv-x="722" unicode="&#xd9;"/><glyph d="M361-8q-63 0-116.5 20.5t-91.5 59-59.5 92.5-21.5 120v426h145v-428q0-71 39.5-110.5t104.5-39.5 104.5 39.5 39.5 110.5v428h145v-427q0-66-21.5-120t-59.5-92-91.5-58.5-116.5-20.5zM543.967 913h-153.99l-70.9961-145h101.994z" glyph-name="Uacute" horiz-adv-x="722" unicode="&#xda;"/><glyph d="M361-8q-63 0-116.5 20.5t-91.5 59-59.5 92.5-21.5 120v426h145v-428q0-71 39.5-110.5t104.5-39.5 104.5 39.5 39.5 110.5v428h145v-427q0-66-21.5-120t-59.5-92-91.5-58.5-116.5-20.5zM185 849l176 81 176-81-40-88-136 63-136-63z" glyph-name="Ucircumflex" horiz-adv-x="722" unicode="&#xdb;"/><glyph d="M361-8q-63 0-116.5 20.5t-91.5 59-59.5 92.5-21.5 120v426h145v-428q0-71 39.5-110.5t104.5-39.5 104.5 39.5 39.5 110.5v428h145v-427q0-66-21.5-120t-59.5-92-91.5-58.5-116.5-20.5zM479 773q-32 0-54 22t-22 54 23 53.5 53 21.5 53-21.5 23-53.5-22.5-54-53.5-22zM244 773q-32 0-54 22t-22 54 22.5 53.5 53.5 21.5q30 0 52.5-21.5t22.5-53.5-22-54-53-22z" glyph-name="Udieresis" horiz-adv-x="722" unicode="&#xdc;"/><glyph d="M263 299l-263 411h170l165-266 166 266h169l-262-411v-299h-145v299zM518.969 913h-153.991l-70.9951-145h101.993z" glyph-name="Yacute" horiz-adv-x="671" unicode="&#xdd;"/><glyph d="M80 710h145v-119h80q53 0 98-18t77.5-50 51-75 18.5-93-18.5-93-51-74.5-77.5-50-98-18.5h-80v-119h-145v710zM225 455v-201h78q24 0 43.5 8t33.5 22 21.5 32 7.5 39q0 42-29 71t-77 29h-78z" glyph-name="Thorn" horiz-adv-x="584" unicode="&#xde;"/><glyph d="M397 65q0 49-36 81t-96 32v106l55 96h-119v-380h-138v558q0 72 41 112t112 40h89v-125h-42q-33 0-47.5-15.5t-14.5-48.5v-21h319l-121-221q33-15 58-38.5t42.5-52 26-60.5 8.5-63q0-52-20-97.5t-56-79-85.5-53-107.5-19.5v137q30 0 54 8.5t41.5 23.5 27 35.5 9.5 44.5z" glyph-name="germandbls" horiz-adv-x="570" unicode="&#xdf;"/><glyph d="M401 34q-50-42-121-42-56 0-101 21t-77 56-49.5 82-17.5 99 17.5 99 49.5 82 77 56 101 21q71 0 121-42v34h137v-500h-137v34zM300 118q34 0 59 13t42 36v165q-17 23-42 36.5t-59 13.5q-29 0-52-10.5t-39.5-28.5-25.5-42-9-51 9-51 25.5-42 39.5-28.5 52-10.5zM124 710h159l84-160h-101z" glyph-name="agrave" horiz-adv-x="601" unicode="&#xe0;"/><glyph d="M401 34q-50-42-121-42-56 0-101 21t-77 56-49.5 82-17.5 99 17.5 99 49.5 82 77 56 101 21q71 0 121-42v34h137v-500h-137v34zM300 118q34 0 59 13t42 36v165q-17 23-42 36.5t-59 13.5q-29 0-52-10.5t-39.5-28.5-25.5-42-9-51 9-51 25.5-42 39.5-28.5 52-10.5zM502.97 710h-158.991l-83.9941-160h100.993z" glyph-name="aacute" horiz-adv-x="601" unicode="&#xe1;"/><glyph d="M401 34q-50-42-121-42-56 0-101 21t-77 56-49.5 82-17.5 99 17.5 99 49.5 82 77 56 101 21q71 0 121-42v34h137v-500h-137v34zM300 118q34 0 59 13t42 36v165q-17 23-42 36.5t-59 13.5q-29 0-52-10.5t-39.5-28.5-25.5-42-9-51 9-51 25.5-42 39.5-28.5 52-10.5zM476 631l-45-84-123 67-123-67-45 84 168 95z" glyph-name="acircumflex" horiz-adv-x="601" unicode="&#xe2;"/><glyph d="M401 34q-50-42-121-42-56 0-101 21t-77 56-49.5 82-17.5 99 17.5 99 49.5 82 77 56 101 21q71 0 121-42v34h137v-500h-137v34zM300 118q34 0 59 13t42 36v165q-17 23-42 36.5t-59 13.5q-29 0-52-10.5t-39.5-28.5-25.5-42-9-51 9-51 25.5-42 39.5-28.5 52-10.5zM123 583q4 27 15.5 47.5t27 35 34 22 37.5 7.5q22 0 40-6.5t33.5-14 28.5-14 24-6.5q18 0 28.5 9.5t15.5 32.5h90l-4-26q-4-26-15-47t-26.5-35.5-34.5-22-38-7.5q-21 0-39 6.5t-33.5 14-28.5 14-25 6.5q-18 0-28-9.5t-16-32.5h-89z" glyph-name="atilde" horiz-adv-x="601" unicode="&#xe3;"/><glyph d="M401 34q-50-42-121-42-56 0-101 21t-77 56-49.5 82-17.5 99 17.5 99 49.5 82 77 56 101 21q71 0 121-42v34h137v-500h-137v34zM300 118q34 0 59 13t42 36v165q-17 23-42 36.5t-59 13.5q-29 0-52-10.5t-39.5-28.5-25.5-42-9-51 9-51 25.5-42 39.5-28.5 52-10.5zM426 568q-32 0-54 22t-22 54 23 53.5 53 21.5 53-21.5 23-53.5-22.5-54-53.5-22zM191 568q-32 0-54 22t-22 54 22.5 53.5 53.5 21.5q30 0 52.5-21.5t22.5-53.5-22-54-53-22z" glyph-name="adieresis" horiz-adv-x="601" unicode="&#xe4;"/><glyph d="M401 34q-50-42-121-42-56 0-101 21t-77 56-49.5 82-17.5 99 17.5 99 49.5 82 77 56 101 21q71 0 121-42v34h137v-500h-137v34zM300 118q34 0 59 13t42 36v165q-17 23-42 36.5t-59 13.5q-29 0-52-10.5t-39.5-28.5-25.5-42-9-51 9-51 25.5-42 39.5-28.5 52-10.5zM308 550q-24 0-45 9t-36.5 25-24.5 36.5-9 44.5 9 44.5 25 36 36.5 24.5 44.5 9 44.5-9 36.5-24.5 25-36 9-44.5-9-44.5-24.5-36.5-36.5-25-45-9zM308 618q20 0 33.5 13.5t13.5 33.5-13.5 33.5-33.5 13.5-33.5-13.5-13.5-33.5 13.5-33.5 33.5-13.5z" glyph-name="aring" horiz-adv-x="601" unicode="&#xe5;"/><glyph d="M827 104q-35-51-92-81.5t-129-30.5q-46 0-92.5 16.5t-88.5 57.5q-45-42-93-58t-100-16q-43 0-79.5 10t-63.5 30.5-42 51.5-15 72q0 37 15 65.5t41 48 62 30 77 10.5q70 0 124-28v10q0 24-10 41t-26.5 28-38.5 16-46 5q-37 0-71.5-10t-56.5-25l-26 126q35 16 75.5 25.5t83.5 9.5q51 0 100-16t87-58q40 39 87 56.5t98 17.5q55 0 102-19.5t79.5-56 48.5-89.5 9-119h-365q5-30 18-50t30.5-32.5 37.5-18 38-5.5q42 0 70.5 17.5t45.5 44.5zM599 396q-14 0-30.5-3.5t-33-13-30.5-26.5-21-44h227q-7 45-38.5 66t-73.5 21zM242 108q37 0 66 12t43 32v34q-42 28-106 28-32 0-56-12.5t-24-41.5q0-15 7-25t18-16 24.5-8.5 27.5-2.5z" glyph-name="ae" horiz-adv-x="882" unicode="&#xe6;"/><glyph d="M293-8q-54 0-101.5 20.5t-82.5 55.5-55 82-20 100 20 100 55 82 82.5 55.5 101.5 20.5q68 0 123.5-30t89.5-80l-106-79q-17 27-44.5 44t-62.5 17q-26 0-48.5-10t-38.5-27-25-41-9-52 9-52 25-41 38.5-27 48.5-10q35 0 62.5 17t44.5 44l106-79q-34-50-89.5-80t-123.5-30zM249 0h93l-48-165h-121z" glyph-name="ccedilla" horiz-adv-x="527" unicode="&#xe7;"/><glyph d="M290-8q-51 0-97 19t-81 53-56 81.5-21 104.5q0 55 19 102.5t52.5 82 80.5 54 104 19.5q56 0 103-20t80-57 48.5-89.5 8.5-117.5h-363q3-27 15-47t29-33 37-19.5 40-6.5q42 0 70.5 17.5t45.5 44.5l106-76q-35-51-91.5-81.5t-129.5-30.5zM283 396q-15 0-32.5-4t-33.5-14-28.5-27-18.5-42h225q-7 45-38.5 66t-73.5 21zM109 710h159l84-160h-101z" glyph-name="egrave" horiz-adv-x="567" unicode="&#xe8;"/><glyph d="M290-8q-51 0-97 19t-81 53-56 81.5-21 104.5q0 55 19 102.5t52.5 82 80.5 54 104 19.5q56 0 103-20t80-57 48.5-89.5 8.5-117.5h-363q3-27 15-47t29-33 37-19.5 40-6.5q42 0 70.5 17.5t45.5 44.5l106-76q-35-51-91.5-81.5t-129.5-30.5zM283 396q-15 0-32.5-4t-33.5-14-28.5-27-18.5-42h225q-7 45-38.5 66t-73.5 21zM487.971 710h-158.991l-83.9941-160h100.993z" glyph-name="eacute" horiz-adv-x="567" unicode="&#xe9;"/><glyph d="M290-8q-51 0-97 19t-81 53-56 81.5-21 104.5q0 55 19 102.5t52.5 82 80.5 54 104 19.5q56 0 103-20t80-57 48.5-89.5 8.5-117.5h-363q3-27 15-47t29-33 37-19.5 40-6.5q42 0 70.5 17.5t45.5 44.5l106-76q-35-51-91.5-81.5t-129.5-30.5zM283 396q-15 0-32.5-4t-33.5-14-28.5-27-18.5-42h225q-7 45-38.5 66t-73.5 21zM461 631l-45-84-123 67-123-67-45 84 168 95z" glyph-name="ecircumflex" horiz-adv-x="567" unicode="&#xea;"/><glyph d="M290-8q-51 0-97 19t-81 53-56 81.5-21 104.5q0 55 19 102.5t52.5 82 80.5 54 104 19.5q56 0 103-20t80-57 48.5-89.5 8.5-117.5h-363q3-27 15-47t29-33 37-19.5 40-6.5q42 0 70.5 17.5t45.5 44.5l106-76q-35-51-91.5-81.5t-129.5-30.5zM283 396q-15 0-32.5-4t-33.5-14-28.5-27-18.5-42h225q-7 45-38.5 66t-73.5 21zM411 568q-32 0-54 22t-22 54 23 53.5 53 21.5 53-21.5 23-53.5-22.5-54-53.5-22zM176 568q-32 0-54 22t-22 54 22.5 53.5 53.5 21.5q30 0 52.5-21.5t22.5-53.5-22-54-53-22z" glyph-name="edieresis" horiz-adv-x="567" unicode="&#xeb;"/><glyph d="M63 500h137v-500h-137v500zM-52 710h159l84-160h-101z" glyph-name="igrave" horiz-adv-x="263" unicode="&#xec;"/><glyph d="M63 500h137v-500h-137v500zM326.98 710h-158.99l-83.9951-160h100.993z" glyph-name="iacute" horiz-adv-x="263" unicode="&#xed;"/><glyph d="M63 500h137v-500h-137v500zM300 631l-45-84-123 67-123-67-45 84 168 95z" glyph-name="icircumflex" horiz-adv-x="263" unicode="&#xee;"/><glyph d="M63 500h137v-500h-137v500zM36 568q-30 0-52.5 21.5t-22.5 54.5q0 31 22 53t53 22q32 0 54-22t22-53q0-32-22.5-54t-53.5-22zM228 568q-30 0-53 21.5t-23 54.5q0 31 22 53t54 22q31 0 53-22t22-53q0-32-22.5-54t-52.5-22z" glyph-name="idieresis" horiz-adv-x="263" unicode="&#xef;"/><glyph d="M123 641h73l-45 69h153l45-69h114v-65h-71l114-175q23-35 36-72.5t13-78.5q0-53-20-100t-55.5-82-83-55.5-101.5-20.5q-55 0-102.5 20.5t-82.5 55.5-55 82-20 100q0 47 16.5 90t45.5 77 68 56.5 85 29.5q16 3 34 3l-46 70h-115v65zM295 120q54 0 87.5 36.5t33.5 93.5-33.5 93.5-87.5 36.5-88-36.5-34-93.5 34-93.5 88-36.5z" glyph-name="eth" horiz-adv-x="590" unicode="&#xf0;"/><glyph d="M63 500h137v-37q24 23 56 34t67 11q51 0 90.5-16.5t66.5-45.5 41.5-70.5 14.5-90.5v-285h-137v262q0 52-24 86t-75 34q-29 0-56-14.5t-44-41.5v-326h-137v500zM122 583q4 27 15.5 47.5t27 35 34 22 37.5 7.5q22 0 40-6.5t33.5-14 28.5-14 24-6.5q18 0 28.5 9.5t15.5 32.5h90l-4-26q-4-26-15-47t-26.5-35.5-34.5-22-38-7.5q-21 0-39 6.5t-33.5 14-28.5 14-25 6.5q-18 0-28-9.5t-16-32.5h-89z" glyph-name="ntilde" horiz-adv-x="593" unicode="&#xf1;"/><glyph d="M294-8q-55 0-102.5 20.5t-82.5 55.5-55 82-20 100 20 100 55 82 82.5 55.5 102.5 20.5q54 0 101.5-20.5t83-55.5 55.5-82 20-100-20-100-55.5-82-83-55.5-101.5-20.5zM294 120q26 0 48.5 10t38.5 27 25 41 9 52-9 52-25 41-38.5 27-48.5 10q-54 0-88-36.5t-34-93.5 34-93.5 88-36.5zM110 710h159l84-160h-101z" glyph-name="ograve" horiz-adv-x="588" unicode="&#xf2;"/><glyph d="M294-8q-55 0-102.5 20.5t-82.5 55.5-55 82-20 100 20 100 55 82 82.5 55.5 102.5 20.5q54 0 101.5-20.5t83-55.5 55.5-82 20-100-20-100-55.5-82-83-55.5-101.5-20.5zM294 120q26 0 48.5 10t38.5 27 25 41 9 52-9 52-25 41-38.5 27-48.5 10q-54 0-88-36.5t-34-93.5 34-93.5 88-36.5zM488.97 710h-158.99l-83.9941-160h100.993z" glyph-name="oacute" horiz-adv-x="588" unicode="&#xf3;"/><glyph d="M294-8q-55 0-102.5 20.5t-82.5 55.5-55 82-20 100 20 100 55 82 82.5 55.5 102.5 20.5q54 0 101.5-20.5t83-55.5 55.5-82 20-100-20-100-55.5-82-83-55.5-101.5-20.5zM294 120q26 0 48.5 10t38.5 27 25 41 9 52-9 52-25 41-38.5 27-48.5 10q-54 0-88-36.5t-34-93.5 34-93.5 88-36.5zM462 631l-45-84-123 67-123-67-45 84 168 95z" glyph-name="ocircumflex" horiz-adv-x="588" unicode="&#xf4;"/><glyph d="M294-8q-55 0-102.5 20.5t-82.5 55.5-55 82-20 100 20 100 55 82 82.5 55.5 102.5 20.5q54 0 101.5-20.5t83-55.5 55.5-82 20-100-20-100-55.5-82-83-55.5-101.5-20.5zM294 120q26 0 48.5 10t38.5 27 25 41 9 52-9 52-25 41-38.5 27-48.5 10q-54 0-88-36.5t-34-93.5 34-93.5 88-36.5zM109 583q4 27 15.5 47.5t27 35 34 22 37.5 7.5q22 0 40-6.5t33.5-14 28.5-14 24-6.5q18 0 28.5 9.5t15.5 32.5h90l-4-26q-4-26-15-47t-26.5-35.5-34.5-22-38-7.5q-21 0-39 6.5t-33.5 14-28.5 14-25 6.5q-18 0-28-9.5t-16-32.5h-89z" glyph-name="otilde" horiz-adv-x="588" unicode="&#xf5;"/><glyph d="M294-8q-55 0-102.5 20.5t-82.5 55.5-55 82-20 100 20 100 55 82 82.5 55.5 102.5 20.5q54 0 101.5-20.5t83-55.5 55.5-82 20-100-20-100-55.5-82-83-55.5-101.5-20.5zM294 120q26 0 48.5 10t38.5 27 25 41 9 52-9 52-25 41-38.5 27-48.5 10q-54 0-88-36.5t-34-93.5 34-93.5 88-36.5zM412 568q-32 0-54 22t-22 54 23 53.5 53 21.5 53-21.5 23-53.5-22.5-54-53.5-22zM177 568q-32 0-54 22t-22 54 22.5 53.5 53.5 21.5q30 0 52.5-21.5t22.5-53.5-22-54-53-22z" glyph-name="odieresis" horiz-adv-x="588" unicode="&#xf6;"/><glyph d="M296 364q-32 0-55 22.5t-23 55.5q0 16 6 30t16.5 24.5 25 16.5 30.5 6q32 0 54.5-22.5t22.5-54.5q0-34-23.5-56t-53.5-22zM77 333h437v-105h-437v105zM296 42q-32 0-55 22t-23 55q0 32 23 54.5t55 22.5 54.5-22.5 22.5-54.5q0-33-23.5-55t-53.5-22z" glyph-name="divide" horiz-adv-x="590" unicode="&#xf7;"/><glyph d="M30-13l73 88q-30 32-48 75-20 47-20 100t20 100 55 82 82.5 55.5 102.5 20.5q54 0 101-21 19-8 35-18l75 90 54-45-74-89q31-33 49-75 20-47 20-100t-20-100-55.5-82-83-55.5-101.5-20.5q-55 0-103 20-18 8-35 18l-73-88zM343 370q-22 10-48 10-54 0-88-36.5t-34-93.5q0-41 17-71l157 189zM295 120q26 0 48.5 10t38.5 27 25 41 9 52-9 52q-4 10-9 18l-157-189q24-11 54-11z" glyph-name="oslash" horiz-adv-x="590" unicode="&#xf8;"/><glyph d="M393 41q-25-25-58.5-37t-68.5-12q-49 0-87.5 16t-65.5 45.5-41.5 70.5-14.5 91v285h137v-262q0-52 24-86t72-34q33 0 60.5 15.5t42.5 44.5v322h137v-500h-137v41zM110 710h159l84-160h-101z" glyph-name="ugrave" horiz-adv-x="593" unicode="&#xf9;"/><glyph d="M393 41q-25-25-58.5-37t-68.5-12q-49 0-87.5 16t-65.5 45.5-41.5 70.5-14.5 91v285h137v-262q0-52 24-86t72-34q33 0 60.5 15.5t42.5 44.5v322h137v-500h-137v41zM487.971 710h-158.991l-83.9941-160h100.993z" glyph-name="uacute" horiz-adv-x="593" unicode="&#xfa;"/><glyph d="M393 41q-25-25-58.5-37t-68.5-12q-49 0-87.5 16t-65.5 45.5-41.5 70.5-14.5 91v285h137v-262q0-52 24-86t72-34q33 0 60.5 15.5t42.5 44.5v322h137v-500h-137v41zM461 631l-45-84-123 67-123-67-45 84 168 95z" glyph-name="ucircumflex" horiz-adv-x="593" unicode="&#xfb;"/><glyph d="M393 41q-25-25-58.5-37t-68.5-12q-49 0-87.5 16t-65.5 45.5-41.5 70.5-14.5 91v285h137v-262q0-52 24-86t72-34q33 0 60.5 15.5t42.5 44.5v322h137v-500h-137v41zM411 568q-32 0-54 22t-22 54 23 53.5 53 21.5 53-21.5 23-53.5-22.5-54-53.5-22zM176 568q-32 0-54 22t-22 54 22.5 53.5 53.5 21.5q30 0 52.5-21.5t22.5-53.5-22-54-53-22z" glyph-name="udieresis" horiz-adv-x="593" unicode="&#xfc;"/><glyph d="M191 9l-189 491h146l115-326 116 326h145l-264-684h-145zM458.972 710h-158.99l-83.9951-160h100.994z" glyph-name="yacute" horiz-adv-x="524" unicode="&#xfd;"/><glyph d="M63-184v894h137v-244q23 20 54.5 31t65.5 11q55 0 100.5-21t77.5-56 49.5-82 17.5-99-17.5-99-49.5-82-77.5-56-100.5-21q-34 0-65.5 11t-54.5 31v-218h-137zM300 382q-33 0-58-13.5t-42-36.5v-165q17-23 42-36t58-13q29 0 52.5 10.5t40 28.5 25.5 42 9 51-9 51-25.5 42-40 28.5-52.5 10.5z" glyph-name="thorn" horiz-adv-x="600" unicode="&#xfe;"/><glyph d="M191 9l-189 491h146l115-326 116 326h145l-264-684h-145zM382 568q-32 0-54 22t-22 54 23 53.5 53 21.5 53-21.5 23-53.5-22.5-54-53.5-22zM147 568q-32 0-54 22t-22 54 22.5 53.5 53.5 21.5q30 0 52.5-21.5t22.5-53.5-22-54-53-22z" glyph-name="ydieresis" horiz-adv-x="524" unicode="&#xff;"/><glyph d="M335 718l349-718h-153l-59 126h-274l-59-126h-153zM415 246l-80 170-80-170h160zM335 767q-38 0-70 13.5t-56 37.5-38 55.5-14 67.5h89q1-38 24-66t65-28 65.5 28 23.5 66h89q0-36-14-67.5t-38-55.5-56.5-37.5-69.5-13.5z" glyph-name="Abreve" horiz-adv-x="670" unicode="&#x102;"/><glyph d="M335 718l349-718h-153l-59 126h-274l-59-126h-153zM415 246l-80 170-80-170h160zM174 895h322v-97h-322v97z" glyph-name="Amacron" horiz-adv-x="670" unicode="&#x100;"/><glyph d="M335 718l349-718q-33-15-51.5-28.5t-18.5-33.5q0-17 10.5-25t25.5-8q10 0 20 4t15 8v-81q-37-26-84-26-50 0-82.5 27t-32.5 71q0 30 14 54t31 38l-59 126h-274l-59-126h-153zM415 246l-80 170-80-170h160z" glyph-name="Aogonek" horiz-adv-x="670" unicode="&#x104;"/><glyph d="M402-8q-75 0-141.5 28.5t-115.5 77.5-77.5 115.5-28.5 141.5 28.5 141.5 77.5 115.5 115.5 77.5 141.5 28.5q93 0 169.5-41.5t124.5-108.5l-109-90q-29 45-77 72.5t-108 27.5q-47 0-86.5-17.5t-68.5-48-45.5-71-16.5-86.5 16.5-86.5 45.5-71 68.5-48 86.5-17.5q60 0 108 27.5t77 72.5l109-90q-48-67-124.5-108.5t-169.5-41.5zM585.964 913h-153.99l-70.9961-145h101.994z" glyph-name="Cacute" horiz-adv-x="717" unicode="&#x106;"/><glyph d="M402-8q-75 0-141.5 28.5t-115.5 77.5-77.5 115.5-28.5 141.5 28.5 141.5 77.5 115.5 115.5 77.5 141.5 28.5q93 0 169.5-41.5t124.5-108.5l-109-90q-29 45-77 72.5t-108 27.5q-47 0-86.5-17.5t-68.5-48-45.5-71-16.5-86.5 16.5-86.5 45.5-71 68.5-48 86.5-17.5q60 0 108 27.5t77 72.5l109-90q-48-67-124.5-108.5t-169.5-41.5zM577.965 840.948l-175.989-80.9951-175.989 80.9951 39.9971 87.9951 135.992-62.9961 135.991 62.9961z" glyph-name="Ccaron" horiz-adv-x="717" unicode="&#x10c;"/><glyph d="M402-8q-75 0-141.5 28.5t-115.5 77.5-77.5 115.5-28.5 141.5 28.5 141.5 77.5 115.5 115.5 77.5 141.5 28.5q93 0 169.5-41.5t124.5-108.5l-109-90q-29 45-77 72.5t-108 27.5q-47 0-86.5-17.5t-68.5-48-45.5-71-16.5-86.5 16.5-86.5 45.5-71 68.5-48 86.5-17.5q60 0 108 27.5t77 72.5l109-90q-48-67-124.5-108.5t-169.5-41.5zM226 849l176 81 176-81-40-88-136 63-136-63z" glyph-name="Ccircumflex" horiz-adv-x="717" unicode="&#x108;"/><glyph d="M402-8q-75 0-141.5 28.5t-115.5 77.5-77.5 115.5-28.5 141.5 28.5 141.5 77.5 115.5 115.5 77.5 141.5 28.5q93 0 169.5-41.5t124.5-108.5l-109-90q-29 45-77 72.5t-108 27.5q-47 0-86.5-17.5t-68.5-48-45.5-71-16.5-86.5 16.5-86.5 45.5-71 68.5-48 86.5-17.5q60 0 108 27.5t77 72.5l109-90q-48-67-124.5-108.5t-169.5-41.5zM402 773q-30 0-53 21.5t-23 54.5q0 31 22 53t54 22 54-22 22-53q0-32-22.5-54t-53.5-22z" glyph-name="Cdotaccent" horiz-adv-x="717" unicode="&#x10a;"/><glyph d="M80 710h241q76 0 143-27.5t116-75.5 77.5-113 28.5-139-28.5-139-77.5-113-116-75.5-143-27.5h-241v710zM321 133q49 0 89 17.5t68.5 47.5 44.5 70.5 16 86.5-16 86.5-44.5 70.5-68.5 47.5-89 17.5h-96v-444h96zM508.969 840.948l-175.989-80.9951-175.989 80.9951 39.998 87.9951 135.991-62.9961 135.992 62.9961z" glyph-name="Dcaron" horiz-adv-x="725" unicode="&#x10e;"/><glyph d="M109 710h241q76 0 143-27.5t116-75.5 77.5-113 28.5-139-28.5-139-77.5-113-116-75.5-143-27.5h-241v710zM350 133q49 0 89 17.5t68.5 47.5 44.5 70.5 16 86.5-16 86.5-44.5 70.5-68.5 47.5-89 17.5h-96v-444h96zM13 392h337v-74h-337v74z" glyph-name="Dcroat" horiz-adv-x="754" unicode="&#x110;"/><glyph d="M80 710h434v-143h-289v-140h229v-140h-229v-144h289v-143h-434v710zM298 767q-38 0-70 13.5t-56 37.5-38 55.5-14 67.5h89q1-38 24-66t65-28 65.5 28 23.5 66h89q0-36-14-67.5t-38-55.5-56.5-37.5-69.5-13.5z" glyph-name="Ebreve" horiz-adv-x="563" unicode="&#x114;"/><glyph d="M80 710h434v-143h-289v-140h229v-140h-229v-144h289v-143h-434v710zM473.971 840.948l-175.989-80.9951-175.989 80.9951 39.998 87.9951 135.991-62.9961 135.992 62.9961z" glyph-name="Ecaron" horiz-adv-x="563" unicode="&#x11a;"/><glyph d="M80 710h434v-143h-289v-140h229v-140h-229v-144h289v-143h-434v710zM137 895h322v-97h-322v97z" glyph-name="Emacron" horiz-adv-x="563" unicode="&#x112;"/><glyph d="M80 710h434v-143h-289v-140h229v-140h-229v-144h289v-143h-434v710zM430-190q-50 0-82 27t-32 71q0 30 15.5 54t37.5 38h145q-34-15-52-28.5t-18-33.5q0-17 10-25t26-8q10 0 19.5 4t14.5 8v-81q-35-26-84-26z" glyph-name="Eogonek" horiz-adv-x="563" unicode="&#x118;"/><glyph d="M80 710h434v-143h-289v-140h229v-140h-229v-144h289v-143h-434v710zM298 773q-30 0-53 21.5t-23 54.5q0 31 22 53t54 22 54-22 22-53q0-32-22.5-54t-53.5-22z" glyph-name="Edotaccent" horiz-adv-x="563" unicode="&#x116;"/><glyph d="M402-8q-75 0-141.5 28.5t-115.5 77.5-77.5 115.5-28.5 141.5 28.5 141.5 77.5 115.5 115.5 77.5 141.5 28.5q90 0 161.5-34.5t121.5-95.5l-109-90q-33 41-74 60.5t-100 19.5q-47 0-86.5-17.5t-68.5-48-45.5-71-16.5-86.5 16.5-86.5 45.5-71 68.5-48 86.5-17.5q93 0 146 38v118h-181l62 137h261v-321q-49-55-123-83.5t-165-28.5zM415 767q-38 0-70 13.5t-56 37.5-38 55.5-14 67.5h89q1-38 24-66t65-28 65.5 28 23.5 66h89q0-36-14-67.5t-38-55.5-56.5-37.5-69.5-13.5z" glyph-name="Gbreve" horiz-adv-x="744" unicode="&#x11e;"/><glyph d="M402-8q-75 0-141.5 28.5t-115.5 77.5-77.5 115.5-28.5 141.5 28.5 141.5 77.5 115.5 115.5 77.5 141.5 28.5q90 0 161.5-34.5t121.5-95.5l-109-90q-33 41-74 60.5t-100 19.5q-47 0-86.5-17.5t-68.5-48-45.5-71-16.5-86.5 16.5-86.5 45.5-71 68.5-48 86.5-17.5q93 0 146 38v118h-181l62 137h261v-321q-49-55-123-83.5t-165-28.5zM239 849l176 81 176-81-40-88-136 63-136-63z" glyph-name="Gcircumflex" horiz-adv-x="744" unicode="&#x11c;"/><glyph d="M402-8q-75 0-141.5 28.5t-115.5 77.5-77.5 115.5-28.5 141.5 28.5 141.5 77.5 115.5 115.5 77.5 141.5 28.5q90 0 161.5-34.5t121.5-95.5l-109-90q-33 41-74 60.5t-100 19.5q-47 0-86.5-17.5t-68.5-48-45.5-71-16.5-86.5 16.5-86.5 45.5-71 68.5-48 86.5-17.5q93 0 146 38v118h-181l62 137h261v-321q-49-55-123-83.5t-165-28.5zM337-50h130l-84-165h-82z" glyph-name="uni0122" horiz-adv-x="744" unicode="&#x122;"/><glyph d="M402-8q-75 0-141.5 28.5t-115.5 77.5-77.5 115.5-28.5 141.5 28.5 141.5 77.5 115.5 115.5 77.5 141.5 28.5q90 0 161.5-34.5t121.5-95.5l-109-90q-33 41-74 60.5t-100 19.5q-47 0-86.5-17.5t-68.5-48-45.5-71-16.5-86.5 16.5-86.5 45.5-71 68.5-48 86.5-17.5q93 0 146 38v118h-181l62 137h261v-321q-49-55-123-83.5t-165-28.5zM415 773q-30 0-53 21.5t-23 54.5q0 31 22 53t54 22 54-22 22-53q0-32-22.5-54t-53.5-22z" glyph-name="Gdotaccent" horiz-adv-x="744" unicode="&#x120;"/><glyph d="M88 710h145v-283h308v283h145v-710h-145v287h-308v-287h-145v710zM22 606h730v-74h-730v74z" glyph-name="Hbar" horiz-adv-x="774" unicode="&#x126;"/><glyph d="M80 710h145v-283h308v283h145v-710h-145v287h-308v-287h-145v710zM203 849l176 81 176-81-40-88-136 63-136-63z" glyph-name="Hcircumflex" horiz-adv-x="758" unicode="&#x124;"/><glyph d="M80 710h145v-710h-145v710zM153 767q-38 0-70 13.5t-56 37.5-38 55.5-14 67.5h89q1-38 24-66t65-28 65.5 28 23.5 66h89q0-36-14-67.5t-38-55.5-56.5-37.5-69.5-13.5z" glyph-name="Ibreve" horiz-adv-x="305" unicode="&#x12c;"/><glyph d="M80 710h145v-710h-145v710zM153 773q-30 0-53 21.5t-23 54.5q0 31 22 53t54 22 54-22 22-53q0-32-22.5-54t-53.5-22z" glyph-name="Idotaccent" horiz-adv-x="305" unicode="&#x130;"/><glyph d="M80 710h145v-710h-145v710zM-8 895h322v-97h-322v97z" glyph-name="Imacron" horiz-adv-x="305" unicode="&#x12a;"/><glyph d="M80 710h145v-710h-145v710zM141-190q-50 0-82 27t-32 71q0 30 15.5 54t37.5 38h145q-34-15-52-28.5t-18-33.5q0-17 10-25t26-8q10 0 19.5 4t14.5 8v-81q-35-26-84-26z" glyph-name="Iogonek" horiz-adv-x="305" unicode="&#x12e;"/><glyph d="M80 710h145v-710h-145v710zM-32 805q4 27 15.5 47.5t27 35 34 22 37.5 7.5q22 0 40-6.5t33.5-14 28.5-14 24-6.5q18 0 28.5 9.5t15.5 32.5h90l-4-26q-4-26-15-47t-26.5-35.5-34.5-22-38-7.5q-21 0-39 6.5t-33.5 14-28.5 14-25 6.5q-18 0-28-9.5t-16-32.5h-89z" glyph-name="Itilde" horiz-adv-x="305" unicode="&#x128;"/><glyph d="M80 710h145v-710h-145v710zM153-202q-30 0-53 21.5t-23 54.5q0 31 22 53t54 22 54-22 22-53q0-32-22.5-54t-53.5-22z" glyph-name="uni1ECA" horiz-adv-x="305" unicode="&#x1eca;"/><glyph d="M234-8q-45 0-84.5 13t-69 39.5-46.5 67.5-17 97h145q0-43 20-62t52-19q33 0 52.5 19t19.5 62v501h145v-510q0-55-17.5-94t-47-64.5-69-37.5-83.5-12zM204 849l176 81 176-81-40-88-136 63-136-63z" glyph-name="Jcircumflex" horiz-adv-x="526" unicode="&#x134;"/><glyph d="M80 710h145v-356l265 356h168l-266-359 297-351h-181l-283 334v-334h-145v710zM296-50h130l-84-165h-82z" glyph-name="uni0136" horiz-adv-x="674" unicode="&#x136;"/><glyph d="M80 710h145v-566h284v-144h-429v710zM331.979 913h-153.99l-70.9961-145h101.994z" glyph-name="Lacute" horiz-adv-x="530" unicode="&#x139;"/><glyph d="M80 710h145v-566h284v-144h-429v710zM301 710h138l-66-161h-93z" glyph-name="Lcaron" horiz-adv-x="532" unicode="&#x13d;"/><glyph d="M80 710h145v-566h284v-144h-429v710zM228-50h130l-84-165h-82z" glyph-name="uni013B" horiz-adv-x="530" unicode="&#x13b;"/><glyph d="M80 710h145v-566h284v-144h-429v710zM410 338q-30 0-53 21.5t-23 54.5q0 31 22 53t54 22 54-22 22-53q0-32-22.5-54t-53.5-22z" glyph-name="Ldot" horiz-adv-x="538" unicode="&#x13f;"/><glyph d="M149 710h145v-566h284v-144h-429v710zM4 279l416 245 39-66-416-245z" glyph-name="Lslash" horiz-adv-x="599" unicode="&#x141;"/><glyph d="M225 400v-400h-145v718l461-408v400h145v-718zM539.967 913h-153.99l-70.9961-145h101.994z" glyph-name="Nacute" horiz-adv-x="766" unicode="&#x143;"/><glyph d="M225 400v-400h-145v718l461-408v400h145v-718zM531.968 840.948l-175.989-80.9951-175.989 80.9951 39.9971 87.9951 135.992-62.9961 135.991 62.9961z" glyph-name="Ncaron" horiz-adv-x="766" unicode="&#x147;"/><glyph d="M225 400v-400h-145v718l461-408v400h145v-718zM374-50h130l-84-165h-82z" glyph-name="uni0145" horiz-adv-x="766" unicode="&#x145;"/><glyph d="M402-8q-75 0-141.5 28.5t-115.5 77.5-77.5 115.5-28.5 141.5 28.5 141.5 77.5 115.5 115.5 77.5 141.5 28.5q41 0 78.5-8.5t72.5-24.5v25h434v-143h-283v-11q39-56 54-129h182v-140h-182q-7-37-20.5-70.5t-33.5-63.5v-10h284v-143h-435v24q-70-32-151-32zM402 132q46 0 86 17.5t69 48 45.5 71 16.5 86.5-16.5 86.5-45.5 71-69 48-86 17.5q-47 0-86.5-17.5t-68.5-48-45.5-71-16.5-86.5 16.5-86.5 45.5-71 68.5-48 86.5-17.5z" glyph-name="OE" horiz-adv-x="1037" unicode="&#x152;"/><glyph d="M402-8q-75 0-141.5 28.5t-115.5 77.5-77.5 115.5-28.5 141.5 28.5 141.5 77.5 115.5 115.5 77.5 141.5 28.5 141.5-28.5 115.5-77.5 77.5-115.5 28.5-141.5-28.5-141.5-77.5-115.5-115.5-77.5-141.5-28.5zM402 132q46 0 86 17.5t69 48 45.5 71 16.5 86.5-16.5 86.5-45.5 71-69 48-86 17.5q-47 0-86.5-17.5t-68.5-48-45.5-71-16.5-86.5 16.5-86.5 45.5-71 68.5-48 86.5-17.5zM402 767q-38 0-70 13.5t-56 37.5-38 55.5-14 67.5h89q1-38 24-66t65-28 65.5 28 23.5 66h89q0-36-14-67.5t-38-55.5-56.5-37.5-69.5-13.5z" glyph-name="Obreve" horiz-adv-x="804" unicode="&#x14e;"/><glyph d="M402-8q-75 0-141.5 28.5t-115.5 77.5-77.5 115.5-28.5 141.5 28.5 141.5 77.5 115.5 115.5 77.5 141.5 28.5 141.5-28.5 115.5-77.5 77.5-115.5 28.5-141.5-28.5-141.5-77.5-115.5-115.5-77.5-141.5-28.5zM402 132q46 0 86 17.5t69 48 45.5 71 16.5 86.5-16.5 86.5-45.5 71-69 48-86 17.5q-47 0-86.5-17.5t-68.5-48-45.5-71-16.5-86.5 16.5-86.5 45.5-71 68.5-48 86.5-17.5zM344 913h138l-114-145h-96zM527 913h138l-114-145h-96z" glyph-name="Ohungarumlaut" horiz-adv-x="804" unicode="&#x150;"/><glyph d="M402-8q-75 0-141.5 28.5t-115.5 77.5-77.5 115.5-28.5 141.5 28.5 141.5 77.5 115.5 115.5 77.5 141.5 28.5 141.5-28.5 115.5-77.5 77.5-115.5 28.5-141.5-28.5-141.5-77.5-115.5-115.5-77.5-141.5-28.5zM402 132q46 0 86 17.5t69 48 45.5 71 16.5 86.5-16.5 86.5-45.5 71-69 48-86 17.5q-47 0-86.5-17.5t-68.5-48-45.5-71-16.5-86.5 16.5-86.5 45.5-71 68.5-48 86.5-17.5zM241 895h322v-97h-322v97z" glyph-name="Omacron" horiz-adv-x="804" unicode="&#x14c;"/><glyph d="M402-8q-75 0-141.5 28.5t-115.5 77.5-77.5 115.5-28.5 141.5 28.5 141.5 77.5 115.5 115.5 77.5 141.5 28.5 141.5-28.5 115.5-77.5 77.5-115.5 28.5-141.5-28.5-141.5-77.5-115.5-115.5-77.5-141.5-28.5zM402 132q46 0 86 17.5t69 48 45.5 71 16.5 86.5-16.5 86.5-45.5 71-69 48-86 17.5q-47 0-86.5-17.5t-68.5-48-45.5-71-16.5-86.5 16.5-86.5 45.5-71 68.5-48 86.5-17.5zM402-202q-30 0-53 21.5t-23 54.5q0 31 22 53t54 22 54-22 22-53q0-32-22.5-54t-53.5-22z" glyph-name="uni1ECC" horiz-adv-x="804" unicode="&#x1ecc;"/><glyph d="M80 710h256q45 0 84.5-16t68-44.5 45-66.5 16.5-82q0-33-10-64t-29-57-45-45.5-59-30.5l234-304h-174l-223 293h-19v-293h-145v710zM320 416q41 0 65 22.5t24 57.5-24 58-65 23h-95v-161h95zM471.971 913h-153.99l-70.9951-145h101.993z" glyph-name="Racute" horiz-adv-x="638" unicode="&#x154;"/><glyph d="M80 710h256q45 0 84.5-16t68-44.5 45-66.5 16.5-82q0-33-10-64t-29-57-45-45.5-59-30.5l234-304h-174l-223 293h-19v-293h-145v710zM320 416q41 0 65 22.5t24 57.5-24 58-65 23h-95v-161h95zM477.971 840.948l-175.989-80.9951-175.989 80.9951 39.998 87.9951 135.991-62.9961 135.992 62.9961z" glyph-name="Rcaron" horiz-adv-x="638" unicode="&#x158;"/><glyph d="M80 710h256q45 0 84.5-16t68-44.5 45-66.5 16.5-82q0-33-10-64t-29-57-45-45.5-59-30.5l234-304h-174l-223 293h-19v-293h-145v710zM320 416q41 0 65 22.5t24 57.5-24 58-65 23h-95v-161h95zM277-50h130l-84-165h-82z" glyph-name="uni0156" horiz-adv-x="638" unicode="&#x156;"/><glyph d="M277-8q-85 0-149.5 34.5t-100.5 98.5l110 90q23-36 60-61.5t77-25.5q42 0 62.5 16.5t20.5 45.5-21.5 49-69.5 41l-45 21q-81 35-122.5 90.5t-41.5 127.5q0 45 18 81.5t47.5 63 68 40.5 80.5 14q60 0 108-19t91-70l-98-104q-27 33-49.5 45t-51.5 12q-26 0-47-15t-21-44q0-30 23.5-50t74.5-43l44-20q74-32 116-84t42-126q0-47-16.5-85.5t-46.5-65.5-71.5-42-91.5-15zM458.972 913h-153.99l-70.9961-145h101.994z" glyph-name="Sacute" horiz-adv-x="538" unicode="&#x15a;"/><glyph d="M277-8q-85 0-149.5 34.5t-100.5 98.5l110 90q23-36 60-61.5t77-25.5q42 0 62.5 16.5t20.5 45.5-21.5 49-69.5 41l-45 21q-81 35-122.5 90.5t-41.5 127.5q0 45 18 81.5t47.5 63 68 40.5 80.5 14q60 0 108-19t91-70l-98-104q-27 33-49.5 45t-51.5 12q-26 0-47-15t-21-44q0-30 23.5-50t74.5-43l44-20q74-32 116-84t42-126q0-47-16.5-85.5t-46.5-65.5-71.5-42-91.5-15zM450.973 840.948l-175.989-80.9951-175.989 80.9951 39.9971 87.9951 135.992-62.9961 135.991 62.9961z" glyph-name="Scaron" horiz-adv-x="538" unicode="&#x160;"/><glyph d="M277-8q-85 0-149.5 34.5t-100.5 98.5l110 90q23-36 60-61.5t77-25.5q42 0 62.5 16.5t20.5 45.5-21.5 49-69.5 41l-45 21q-81 35-122.5 90.5t-41.5 127.5q0 45 18 81.5t47.5 63 68 40.5 80.5 14q60 0 108-19t91-70l-98-104q-27 33-49.5 45t-51.5 12q-26 0-47-15t-21-44q0-30 23.5-50t74.5-43l44-20q74-32 116-84t42-126q0-47-16.5-85.5t-46.5-65.5-71.5-42-91.5-15zM242 0h93l-48-165h-121z" glyph-name="Scedilla" horiz-adv-x="538" unicode="&#x15e;"/><glyph d="M277-8q-85 0-149.5 34.5t-100.5 98.5l110 90q23-36 60-61.5t77-25.5q42 0 62.5 16.5t20.5 45.5-21.5 49-69.5 41l-45 21q-81 35-122.5 90.5t-41.5 127.5q0 45 18 81.5t47.5 63 68 40.5 80.5 14q60 0 108-19t91-70l-98-104q-27 33-49.5 45t-51.5 12q-26 0-47-15t-21-44q0-30 23.5-50t74.5-43l44-20q74-32 116-84t42-126q0-47-16.5-85.5t-46.5-65.5-71.5-42-91.5-15zM99 849l176 81 176-81-40-88-136 63-136-63z" glyph-name="Scircumflex" horiz-adv-x="538" unicode="&#x15c;"/><glyph d="M277-8q-85 0-149.5 34.5t-100.5 98.5l110 90q23-36 60-61.5t77-25.5q42 0 62.5 16.5t20.5 45.5-21.5 49-69.5 41l-45 21q-81 35-122.5 90.5t-41.5 127.5q0 45 18 81.5t47.5 63 68 40.5 80.5 14q60 0 108-19t91-70l-98-104q-27 33-49.5 45t-51.5 12q-26 0-47-15t-21-44q0-30 23.5-50t74.5-43l44-20q74-32 116-84t42-126q0-47-16.5-85.5t-46.5-65.5-71.5-42-91.5-15zM210-50h130l-84-165h-82z" glyph-name="uni0218" horiz-adv-x="538" unicode="&#x218;"/><glyph d="M197 567h-177v143h500v-143h-178v-567h-145v567zM444.973 840.948l-175.989-80.9951-175.989 80.9951 39.998 87.9951 135.991-62.9961 135.992 62.9961z" glyph-name="Tcaron" horiz-adv-x="540" unicode="&#x164;"/><glyph d="M197 567h-177v143h500v-143h-178v-567h-145v567zM201-50h130l-84-165h-82z" glyph-name="uni0162" horiz-adv-x="540" unicode="&#x162;"/><glyph d="M197 567h-177v143h500v-143h-178v-567h-145v567zM201-50h130l-84-165h-82z" glyph-name="uni021A" horiz-adv-x="540" unicode="&#x21a;"/><glyph d="M361-8q-63 0-116.5 20.5t-91.5 59-59.5 92.5-21.5 120v426h145v-428q0-71 39.5-110.5t104.5-39.5 104.5 39.5 39.5 110.5v428h145v-427q0-66-21.5-120t-59.5-92-91.5-58.5-116.5-20.5zM361 767q-38 0-70 13.5t-56 37.5-38 55.5-14 67.5h89q1-38 24-66t65-28 65.5 28 23.5 66h89q0-36-14-67.5t-38-55.5-56.5-37.5-69.5-13.5z" glyph-name="Ubreve" horiz-adv-x="722" unicode="&#x16c;"/><glyph d="M361-8q-63 0-116.5 20.5t-91.5 59-59.5 92.5-21.5 120v426h145v-428q0-71 39.5-110.5t104.5-39.5 104.5 39.5 39.5 110.5v428h145v-427q0-66-21.5-120t-59.5-92-91.5-58.5-116.5-20.5zM303 913h138l-114-145h-96zM486 913h138l-114-145h-96z" glyph-name="Uhungarumlaut" horiz-adv-x="722" unicode="&#x170;"/><glyph d="M361-8q-63 0-116.5 20.5t-91.5 59-59.5 92.5-21.5 120v426h145v-428q0-71 39.5-110.5t104.5-39.5 104.5 39.5 39.5 110.5v428h145v-427q0-66-21.5-120t-59.5-92-91.5-58.5-116.5-20.5zM200 895h322v-97h-322v97z" glyph-name="Umacron" horiz-adv-x="722" unicode="&#x16a;"/><glyph d="M361-8q-63 0-116.5 20.5t-91.5 59-59.5 92.5-21.5 120v426h145v-428q0-71 39.5-110.5t104.5-39.5 104.5 39.5 39.5 110.5v428h145v-427q0-66-21.5-120t-59.5-92-91.5-58.5-116.5-20.5zM361-187q-50 0-82 27t-32 71q0 30 15.5 54t37.5 38h145q-34-15-52-28.5t-18-33.5q0-17 10-25t26-8q10 0 19.5 4t14.5 8v-81q-35-26-84-26z" glyph-name="Uogonek" horiz-adv-x="722" unicode="&#x172;"/><glyph d="M361-8q-63 0-116.5 20.5t-91.5 59-59.5 92.5-21.5 120v426h145v-428q0-71 39.5-110.5t104.5-39.5 104.5 39.5 39.5 110.5v428h145v-427q0-66-21.5-120t-59.5-92-91.5-58.5-116.5-20.5zM361 757q-24 0-45 9t-36.5 25-24.5 36.5-9 44.5 9 44.5 25 36 36.5 24.5 44.5 9 44.5-9 36.5-24.5 25-36 9-44.5-9-44.5-24.5-36.5-36.5-25-45-9zM361 825q20 0 33.5 13.5t13.5 33.5-13.5 33.5-33.5 13.5-33.5-13.5-13.5-33.5 13.5-33.5 33.5-13.5z" glyph-name="Uring" horiz-adv-x="722" unicode="&#x16e;"/><glyph d="M361-8q-63 0-116.5 20.5t-91.5 59-59.5 92.5-21.5 120v426h145v-428q0-71 39.5-110.5t104.5-39.5 104.5 39.5 39.5 110.5v428h145v-427q0-66-21.5-120t-59.5-92-91.5-58.5-116.5-20.5zM176 805q4 27 15.5 47.5t27 35 34 22 37.5 7.5q22 0 40-6.5t33.5-14 28.5-14 24-6.5q18 0 28.5 9.5t15.5 32.5h90l-4-26q-4-26-15-47t-26.5-35.5-34.5-22-38-7.5q-21 0-39 6.5t-33.5 14-28.5 14-25 6.5q-18 0-28-9.5t-16-32.5h-89z" glyph-name="Utilde" horiz-adv-x="722" unicode="&#x168;"/><glyph d="M361-8q-63 0-116.5 20.5t-91.5 59-59.5 92.5-21.5 120v426h145v-428q0-71 39.5-110.5t104.5-39.5 104.5 39.5 39.5 110.5v428h145v-427q0-66-21.5-120t-59.5-92-91.5-58.5-116.5-20.5zM361-202q-30 0-53 21.5t-23 54.5q0 31 22 53t54 22 54-22 22-53q0-32-22.5-54t-53.5-22z" glyph-name="uni1EE4" horiz-adv-x="722" unicode="&#x1ee4;"/><glyph d="M-1 710h148l120-364 166 372 165-371 121 363h148l-246-718-188 429-188-429zM616.962 913h-153.99l-70.9951-145h101.993z" glyph-name="Wacute" horiz-adv-x="866" unicode="&#x1e82;"/><glyph d="M-1 710h148l120-364 166 372 165-371 121 363h148l-246-718-188 429-188-429zM257 849l176 81 176-81-40-88-136 63-136-63z" glyph-name="Wcircumflex" horiz-adv-x="866" unicode="&#x174;"/><glyph d="M-1 710h148l120-364 166 372 165-371 121 363h148l-246-718-188 429-188-429zM551 773q-32 0-54 22t-22 54 23 53.5 53 21.5 53-21.5 23-53.5-22.5-54-53.5-22zM316 773q-32 0-54 22t-22 54 22.5 53.5 53.5 21.5q30 0 52.5-21.5t22.5-53.5-22-54-53-22z" glyph-name="Wdieresis" horiz-adv-x="866" unicode="&#x1e84;"/><glyph d="M-1 710h148l120-364 166 372 165-371 121 363h148l-246-718-188 429-188-429zM258 913h154l71-145h-102z" glyph-name="Wgrave" horiz-adv-x="866" unicode="&#x1e80;"/><glyph d="M263 299l-263 411h170l165-266 166 266h169l-262-411v-299h-145v299zM160 849l176 81 176-81-40-88-136 63-136-63z" glyph-name="Ycircumflex" horiz-adv-x="671" unicode="&#x176;"/><glyph d="M263 299l-263 411h170l165-266 166 266h169l-262-411v-299h-145v299zM454 773q-32 0-54 22t-22 54 23 53.5 53 21.5 53-21.5 23-53.5-22.5-54-53.5-22zM219 773q-32 0-54 22t-22 54 22.5 53.5 53.5 21.5q30 0 52.5-21.5t22.5-53.5-22-54-53-22z" glyph-name="Ydieresis" horiz-adv-x="671" unicode="&#x178;"/><glyph d="M263 299l-263 411h170l165-266 166 266h169l-262-411v-299h-145v299zM161 913h154l71-145h-102z" glyph-name="Ygrave" horiz-adv-x="671" unicode="&#x1ef2;"/><glyph d="M263 299l-263 411h170l165-266 166 266h169l-262-411v-299h-145v299zM175 895h322v-97h-322v97z" glyph-name="uni0232" horiz-adv-x="671" unicode="&#x232;"/><glyph d="M351 567h-301v143h549l-342-567h326v-143h-575zM506.969 913h-153.99l-70.9961-145h101.994z" glyph-name="Zacute" horiz-adv-x="617" unicode="&#x179;"/><glyph d="M351 567h-301v143h549l-342-567h326v-143h-575zM498.97 840.948l-175.989-80.9951-175.989 80.9951 39.9971 87.9951 135.992-62.9961 135.991 62.9961z" glyph-name="Zcaron" horiz-adv-x="617" unicode="&#x17d;"/><glyph d="M351 567h-301v143h549l-342-567h326v-143h-575zM323 773q-30 0-53 21.5t-23 54.5q0 31 22 53t54 22 54-22 22-53q0-32-22.5-54t-53.5-22z" glyph-name="Zdotaccent" horiz-adv-x="617" unicode="&#x17b;"/><glyph d="M80 710h484l-108-251q74-23 113.5-76.5t39.5-138.5q0-58-19-103.5t-53.5-76.5-82-47.5-104.5-16.5h-46v138h43q48 0 82 26.5t34 79.5q0 52-34 78.5t-82 26.5h-43v105l54 124h-133v-578h-145v710z" glyph-name="uni1E9E" horiz-adv-x="648" unicode="&#x1e9e;"/><glyph d="M401 34q-50-42-121-42-56 0-101 21t-77 56-49.5 82-17.5 99 17.5 99 49.5 82 77 56 101 21q71 0 121-42v34h137v-500h-137v34zM300 118q34 0 59 13t42 36v165q-17 23-42 36.5t-59 13.5q-29 0-52-10.5t-39.5-28.5-25.5-42-9-51 9-51 25.5-42 39.5-28.5 52-10.5zM308 552q-38 0-70.5 11t-56 31.5-37.5 50-14 65.5h89q1-38 24-58t65-20 65 20 24 58h89q0-36-14-65.5t-37.5-50-56-31.5-70.5-11z" glyph-name="abreve" horiz-adv-x="601" unicode="&#x103;"/><glyph d="M401 34q-50-42-121-42-56 0-101 21t-77 56-49.5 82-17.5 99 17.5 99 49.5 82 77 56 101 21q71 0 121-42v34h137v-500h-137v34zM300 118q34 0 59 13t42 36v165q-17 23-42 36.5t-59 13.5q-29 0-52-10.5t-39.5-28.5-25.5-42-9-51 9-51 25.5-42 39.5-28.5 52-10.5zM147 676h322v-89h-322v89z" glyph-name="amacron" horiz-adv-x="601" unicode="&#x101;"/><glyph d="M401 34q-50-42-121-42-56 0-101 21t-77 56-49.5 82-17.5 99 17.5 99 49.5 82 77 56 101 21q71 0 121-42v34h137v-500h-137v34zM300 118q34 0 59 13t42 36v165q-17 23-42 36.5t-59 13.5q-29 0-52-10.5t-39.5-28.5-25.5-42-9-51 9-51 25.5-42 39.5-28.5 52-10.5zM459-190q-44 0-75 29t-31 74q0 27 13.5 50t33.5 37h137q-33-16-47.5-31t-14.5-31q0-14 9.5-23.5t24.5-9.5q11 0 17.5 4t11.5 8v-81q-16-14-36-20t-43-6z" glyph-name="aogonek" horiz-adv-x="601" unicode="&#x105;"/><glyph d="M293-8q-54 0-101.5 20.5t-82.5 55.5-55 82-20 100 20 100 55 82 82.5 55.5 101.5 20.5q68 0 123.5-30t89.5-80l-106-79q-17 27-44.5 44t-62.5 17q-26 0-48.5-10t-38.5-27-25-41-9-52 9-52 25-41 38.5-27 48.5-10q35 0 62.5 17t44.5 44l106-79q-34-50-89.5-80t-123.5-30zM488.97 710h-158.99l-83.9941-160h100.993z" glyph-name="cacute" horiz-adv-x="527" unicode="&#x107;"/><glyph d="M293-8q-54 0-101.5 20.5t-82.5 55.5-55 82-20 100 20 100 55 82 82.5 55.5 101.5 20.5q68 0 123.5-30t89.5-80l-106-79q-17 27-44.5 44t-62.5 17q-26 0-48.5-10t-38.5-27-25-41-9-52 9-52 25-41 38.5-27 48.5-10q35 0 62.5 17t44.5 44l106-79q-34-50-89.5-80t-123.5-30zM125.992 641.961l44.9971 83.9951 122.993-66.9961 122.992 66.9961 44.9971-83.9951-167.989-94.9941z" glyph-name="ccaron" horiz-adv-x="527" unicode="&#x10d;"/><glyph d="M293-8q-54 0-101.5 20.5t-82.5 55.5-55 82-20 100 20 100 55 82 82.5 55.5 101.5 20.5q68 0 123.5-30t89.5-80l-106-79q-17 27-44.5 44t-62.5 17q-26 0-48.5-10t-38.5-27-25-41-9-52 9-52 25-41 38.5-27 48.5-10q35 0 62.5 17t44.5 44l106-79q-34-50-89.5-80t-123.5-30zM462 631l-45-84-123 67-123-67-45 84 168 95z" glyph-name="ccircumflex" horiz-adv-x="527" unicode="&#x109;"/><glyph d="M293-8q-54 0-101.5 20.5t-82.5 55.5-55 82-20 100 20 100 55 82 82.5 55.5 101.5 20.5q68 0 123.5-30t89.5-80l-106-79q-17 27-44.5 44t-62.5 17q-26 0-48.5-10t-38.5-27-25-41-9-52 9-52 25-41 38.5-27 48.5-10q35 0 62.5 17t44.5 44l106-79q-34-50-89.5-80t-123.5-30zM294 568q-30 0-53 21.5t-23 54.5q0 31 22 53t54 22 54-22 22-53q0-32-22.5-54t-53.5-22z" glyph-name="cdotaccent" horiz-adv-x="527" unicode="&#x10b;"/><glyph d="M401 0v34q-50-42-121-42-56 0-101 21t-77 56-49.5 82-17.5 99 17.5 99 49.5 82 77 56 101 21q71 0 121-42v244h137v-710h-137zM300 382q-29 0-52-10.5t-39.5-28.5-25.5-42-9-51 9-51 25.5-42 39.5-28.5 52-10.5q34 0 59 13t42 36v165q-17 23-42 36.5t-59 13.5zM594 710h138l-66-161h-93z" glyph-name="dcaron" horiz-adv-x="625" unicode="&#x10f;"/><glyph d="M401 0v34q-50-42-121-42-56 0-101 21t-77 56-49.5 82-17.5 99 17.5 99 49.5 82 77 56 101 21q71 0 121-42v244h137v-710h-137zM300 382q-29 0-52-10.5t-39.5-28.5-25.5-42-9-51 9-51 25.5-42 39.5-28.5 52-10.5q34 0 59 13t42 36v165q-17 23-42 36.5t-59 13.5zM263 643h344v-65h-344v65z" glyph-name="dcroat" horiz-adv-x="601" unicode="&#x111;"/><glyph d="M290-8q-51 0-97 19t-81 53-56 81.5-21 104.5q0 55 19 102.5t52.5 82 80.5 54 104 19.5q56 0 103-20t80-57 48.5-89.5 8.5-117.5h-363q3-27 15-47t29-33 37-19.5 40-6.5q42 0 70.5 17.5t45.5 44.5l106-76q-35-51-91.5-81.5t-129.5-30.5zM283 396q-15 0-32.5-4t-33.5-14-28.5-27-18.5-42h225q-7 45-38.5 66t-73.5 21zM293 552q-38 0-70.5 11t-56 31.5-37.5 50-14 65.5h89q1-38 24-58t65-20 65 20 24 58h89q0-36-14-65.5t-37.5-50-56-31.5-70.5-11z" glyph-name="ebreve" horiz-adv-x="567" unicode="&#x115;"/><glyph d="M290-8q-51 0-97 19t-81 53-56 81.5-21 104.5q0 55 19 102.5t52.5 82 80.5 54 104 19.5q56 0 103-20t80-57 48.5-89.5 8.5-117.5h-363q3-27 15-47t29-33 37-19.5 40-6.5q42 0 70.5 17.5t45.5 44.5l106-76q-35-51-91.5-81.5t-129.5-30.5zM283 396q-15 0-32.5-4t-33.5-14-28.5-27-18.5-42h225q-7 45-38.5 66t-73.5 21zM124.992 641.961l44.9971 83.9951 122.993-66.9961 122.992 66.9961 44.9971-83.9951-167.989-94.9941z" glyph-name="ecaron" horiz-adv-x="567" unicode="&#x11b;"/><glyph d="M290-8q-51 0-97 19t-81 53-56 81.5-21 104.5q0 55 19 102.5t52.5 82 80.5 54 104 19.5q56 0 103-20t80-57 48.5-89.5 8.5-117.5h-363q3-27 15-47t29-33 37-19.5 40-6.5q42 0 70.5 17.5t45.5 44.5l106-76q-35-51-91.5-81.5t-129.5-30.5zM283 396q-15 0-32.5-4t-33.5-14-28.5-27-18.5-42h225q-7 45-38.5 66t-73.5 21zM132 676h322v-89h-322v89z" glyph-name="emacron" horiz-adv-x="567" unicode="&#x113;"/><glyph d="M500-164q-15-14-35-20t-43-6q-22 0-41.5 8t-34.5 22-23.5 33-8.5 42q0 26 10 47t27 36q-29-6-61-6-51 0-97 19t-81 53-56 81.5-21 104.5q0 55 19 102.5t52.5 82 80.5 54 104 19.5q55 0 102-20t80-57 49-89.5 9-117.5h-363q3-28 15.5-48t30-33 37.5-19 38-6q42 0 70.5 17.5t45.5 44.5l106-76q-12-20-26-40t-25.5-40.5-19-40-7.5-37.5q0-21 11-31t28-10q10 0 17 4t11 8v-81zM283 396q-14 0-31-4t-33.5-13.5-29.5-26.5-19-43h225q-7 45-38.5 66t-73.5 21z" glyph-name="eogonek" horiz-adv-x="567" unicode="&#x119;"/><glyph d="M290-8q-51 0-97 19t-81 53-56 81.5-21 104.5q0 55 19 102.5t52.5 82 80.5 54 104 19.5q56 0 103-20t80-57 48.5-89.5 8.5-117.5h-363q3-27 15-47t29-33 37-19.5 40-6.5q42 0 70.5 17.5t45.5 44.5l106-76q-35-51-91.5-81.5t-129.5-30.5zM283 396q-15 0-32.5-4t-33.5-14-28.5-27-18.5-42h225q-7 45-38.5 66t-73.5 21zM293 568q-30 0-53 21.5t-23 54.5q0 31 22 53t54 22 54-22 22-53q0-32-22.5-54t-53.5-22z" glyph-name="edotaccent" horiz-adv-x="567" unicode="&#x117;"/><glyph d="M290-194q-56 0-113.5 11.5t-108.5 45.5l63 120q30-23 68.5-37.5t83.5-14.5q25 0 47.5 4.5t39.5 15 27.5 28 10.5 42.5q0 9-2.5 22t-10.5 25q-23-20-54.5-31.5t-66.5-11.5q-56 0-100.5 20t-75 53.5-46.5 77-16 90.5 16 91 46.5 77.5 75 53.5 100.5 20q35 0 65.5-11.5t54.5-31.5v35h137v-402q11-26 16-50.5t5-47.5q0-53-22.5-90t-59.5-60-84-33.5-96-10.5zM290 151q34 0 60.5 13.5t43.5 36.5v131q-17 23-43.5 36.5t-60.5 13.5q-27 0-48.5-9.5t-36.5-25.5-23-37-8-44 8-43.5 23-36.5 36.5-25.5 48.5-9.5zM288 552q-38 0-70.5 11t-56 31.5-37.5 50-14 65.5h89q1-38 24-58t65-20 65 20 24 58h89q0-36-14-65.5t-37.5-50-56-31.5-70.5-11z" glyph-name="gbreve" horiz-adv-x="598" unicode="&#x11f;"/><glyph d="M290-194q-56 0-113.5 11.5t-108.5 45.5l63 120q30-23 68.5-37.5t83.5-14.5q25 0 47.5 4.5t39.5 15 27.5 28 10.5 42.5q0 9-2.5 22t-10.5 25q-23-20-54.5-31.5t-66.5-11.5q-56 0-100.5 20t-75 53.5-46.5 77-16 90.5 16 91 46.5 77.5 75 53.5 100.5 20q35 0 65.5-11.5t54.5-31.5v35h137v-402q11-26 16-50.5t5-47.5q0-53-22.5-90t-59.5-60-84-33.5-96-10.5zM290 151q34 0 60.5 13.5t43.5 36.5v131q-17 23-43.5 36.5t-60.5 13.5q-27 0-48.5-9.5t-36.5-25.5-23-37-8-44 8-43.5 23-36.5 36.5-25.5 48.5-9.5zM456 631l-45-84-123 67-123-67-45 84 168 95z" glyph-name="gcircumflex" horiz-adv-x="598" unicode="&#x11d;"/><glyph d="M290-194q-56 0-113.5 11.5t-108.5 45.5l63 120q30-23 68.5-37.5t83.5-14.5q25 0 47.5 4.5t39.5 15 27.5 28 10.5 42.5q0 9-2.5 22t-10.5 25q-23-20-54.5-31.5t-66.5-11.5q-56 0-100.5 20t-75 53.5-46.5 77-16 90.5 16 91 46.5 77.5 75 53.5 100.5 20q35 0 65.5-11.5t54.5-31.5v35h137v-402q11-26 16-50.5t5-47.5q0-53-22.5-90t-59.5-60-84-33.5-96-10.5zM290 151q34 0 60.5 13.5t43.5 36.5v131q-17 23-43.5 36.5t-60.5 13.5q-27 0-48.5-9.5t-36.5-25.5-23-37-8-44 8-43.5 23-36.5 36.5-25.5 48.5-9.5zM349.979 549.967h-129.992l83.9951 164.989h81.9951z" glyph-name="uni0123" horiz-adv-x="598" unicode="&#x123;"/><glyph d="M290-194q-56 0-113.5 11.5t-108.5 45.5l63 120q30-23 68.5-37.5t83.5-14.5q25 0 47.5 4.5t39.5 15 27.5 28 10.5 42.5q0 9-2.5 22t-10.5 25q-23-20-54.5-31.5t-66.5-11.5q-56 0-100.5 20t-75 53.5-46.5 77-16 90.5 16 91 46.5 77.5 75 53.5 100.5 20q35 0 65.5-11.5t54.5-31.5v35h137v-402q11-26 16-50.5t5-47.5q0-53-22.5-90t-59.5-60-84-33.5-96-10.5zM290 151q34 0 60.5 13.5t43.5 36.5v131q-17 23-43.5 36.5t-60.5 13.5q-27 0-48.5-9.5t-36.5-25.5-23-37-8-44 8-43.5 23-36.5 36.5-25.5 48.5-9.5zM288 568q-30 0-53 21.5t-23 54.5q0 31 22 53t54 22 54-22 22-53q0-32-22.5-54t-53.5-22z" glyph-name="gdotaccent" horiz-adv-x="598" unicode="&#x121;"/><glyph d="M63 710h137v-247q24 23 56 34t67 11q51 0 90.5-16.5t66.5-45.5 41.5-70.5 14.5-90.5v-285h-137v262q0 52-24 86t-75 34q-29 0-56-14.5t-44-41.5v-326h-137v710zM-6 643h344v-65h-344v65z" glyph-name="hbar" horiz-adv-x="593" unicode="&#x127;"/><glyph d="M63 710h137v-247q24 23 56 34t67 11q51 0 90.5-16.5t66.5-45.5 41.5-70.5 14.5-90.5v-285h-137v262q0 52-24 86t-75 34q-29 0-56-14.5t-44-41.5v-326h-137v710zM148 849l176 81 176-81-40-88-136 63-136-63z" glyph-name="hcircumflex" horiz-adv-x="593" unicode="&#x125;"/><glyph d="M63 500h137v-500h-137v500z" glyph-name="dotlessi" horiz-adv-x="263" unicode="&#x131;"/><glyph d="M63 500h137v-500h-137v500zM132 552q-38 0-70.5 11t-56 31.5-37.5 50-14 65.5h89q1-38 24-58t65-20 65 20 24 58h89q0-36-14-65.5t-37.5-50-56-31.5-70.5-11z" glyph-name="ibreve" horiz-adv-x="263" unicode="&#x12d;"/><glyph d="M63 500h137v-500h-137v500zM-29 676h322v-89h-322v89z" glyph-name="imacron" horiz-adv-x="263" unicode="&#x12b;"/><glyph d="M63 500h137v-500h-137v500zM68 579q-20 22-20 55 0 35 24.5 59.5t59.5 24.5 59.5-24.5 24.5-59.5q0-33-20-55h-128zM121-190q-44 0-75 29t-31 74q0 27 13.5 50t33.5 37h137q-33-16-47.5-31t-14.5-31q0-14 9.5-23.5t24.5-9.5q11 0 17.5 4t11.5 8v-81q-16-14-36-20t-43-6z" glyph-name="iogonek" horiz-adv-x="263" unicode="&#x12f;"/><glyph d="M63 500h137v-500h-137v500zM-53 583q4 27 15.5 47.5t27 35 34 22 37.5 7.5q22 0 40-6.5t33.5-14 28.5-14 24-6.5q18 0 28.5 9.5t15.5 32.5h90l-4-26q-4-26-15-47t-26.5-35.5-34.5-22-38-7.5q-21 0-39 6.5t-33.5 14-28.5 14-25 6.5q-18 0-28-9.5t-16-32.5h-89z" glyph-name="itilde" horiz-adv-x="263" unicode="&#x129;"/><glyph d="M63 500h137v-500h-137v500zM68 579q-20 22-20 55 0 35 24.5 59.5t59.5 24.5 59.5-24.5 24.5-59.5q0-33-20-55h-128zM131-202q-30 0-53 21.5t-23 54.5q0 31 22 53t54 22 54-22 22-53q0-32-22.5-54t-53.5-22z" glyph-name="uni1ECB" horiz-adv-x="263" unicode="&#x1ecb;"/><glyph d="M-33-55h26q37 0 57.5 14t20.5 50v491h137v-508q0-88-56.5-132t-149.5-44h-35v129z" glyph-name="uni0237" horiz-adv-x="271" unicode="&#x237;"/><glyph d="M-33-55h26q37 0 57.5 14t20.5 50v491h137v-508q0-88-56.5-132t-149.5-44h-35v129zM307 631l-45-84-123 67-123-67-45 84 168 95z" glyph-name="jcircumflex" horiz-adv-x="271" unicode="&#x135;"/><glyph d="M63 710h137v-438l175 228h161l-183-237 209-263h-165l-197 249v-249h-137v710zM235-50h130l-84-165h-82z" glyph-name="uni0137" horiz-adv-x="551" unicode="&#x137;"/><glyph d="M63 710h137v-710h-137v710zM315.98 920h-158.99l-83.9951-160h100.994z" glyph-name="lacute" horiz-adv-x="263" unicode="&#x13a;"/><glyph d="M63 710h137v-710h-137v710zM256 710h138l-66-161h-93z" glyph-name="lcaron" horiz-adv-x="287" unicode="&#x13e;"/><glyph d="M63 710h137v-710h-137v710zM67-50h130l-84-165h-82z" glyph-name="uni013C" horiz-adv-x="263" unicode="&#x13c;"/><glyph d="M63 710h137v-710h-137v710zM334 294q-30 0-53 21.5t-23 54.5q0 31 22 53t54 22 54-22 22-53q0-32-22.5-54t-53.5-22z" glyph-name="ldot" horiz-adv-x="399" unicode="&#x140;"/><glyph d="M135 710h137v-710h-137v710zM20 304l335 195 34-59-335-196z" glyph-name="lslash" horiz-adv-x="390" unicode="&#x142;"/><glyph d="M63 500h137v-37q24 23 56 34t67 11q51 0 90.5-16.5t66.5-45.5 41.5-70.5 14.5-90.5v-285h-137v262q0 52-24 86t-75 34q-29 0-56-14.5t-44-41.5v-326h-137v500zM501.97 710h-158.99l-83.9951-160h100.994z" glyph-name="nacute" horiz-adv-x="593" unicode="&#x144;"/><glyph d="M63 500h137v-37q24 23 56 34t67 11q51 0 90.5-16.5t66.5-45.5 41.5-70.5 14.5-90.5v-285h-137v262q0 52-24 86t-75 34q-29 0-56-14.5t-44-41.5v-326h-137v500zM138.991 641.961l44.9971 83.9951 122.993-66.9961 122.992 66.9961 44.9971-83.9951-167.989-94.9941z" glyph-name="ncaron" horiz-adv-x="593" unicode="&#x148;"/><glyph d="M63 500h137v-37q24 23 56 34t67 11q51 0 90.5-16.5t66.5-45.5 41.5-70.5 14.5-90.5v-285h-137v262q0 52-24 86t-75 34q-29 0-56-14.5t-44-41.5v-326h-137v500zM237-50h130l-84-165h-82z" glyph-name="uni0146" horiz-adv-x="593" unicode="&#x146;"/><glyph d="M891 104q-34-51-91-81.5t-129-30.5q-49 0-97 19t-90 62q-42-43-90.5-62t-99.5-19q-55 0-102.5 20.5t-82.5 55.5-55 82-20 100 20 100 55 82 82.5 55.5 102.5 20.5q50 0 98.5-19t88.5-61q41 42 89.5 61t101.5 19q55 0 101.5-19.5t79.5-56.5 48.5-89.5 9.5-118.5h-365q5-29 18-49.5t30.5-33 37.5-18 38-5.5q42 0 70 17.5t45 44.5zM664 396q-14 0-30.5-3.5t-33-13-30.5-26.5-21-44h227q-7 45-38.5 66t-73.5 21zM294 120q26 0 48.5 10t38.5 27 25 41 9 52-9 52-25 41-38.5 27-48.5 10q-54 0-88-36.5t-34-93.5 34-93.5 88-36.5z" glyph-name="oe" horiz-adv-x="947" unicode="&#x153;"/><glyph d="M294-8q-55 0-102.5 20.5t-82.5 55.5-55 82-20 100 20 100 55 82 82.5 55.5 102.5 20.5q54 0 101.5-20.5t83-55.5 55.5-82 20-100-20-100-55.5-82-83-55.5-101.5-20.5zM294 120q26 0 48.5 10t38.5 27 25 41 9 52-9 52-25 41-38.5 27-48.5 10q-54 0-88-36.5t-34-93.5 34-93.5 88-36.5zM294 552q-38 0-70.5 11t-56 31.5-37.5 50-14 65.5h89q1-38 24-58t65-20 65 20 24 58h89q0-36-14-65.5t-37.5-50-56-31.5-70.5-11z" glyph-name="obreve" horiz-adv-x="588" unicode="&#x14f;"/><glyph d="M294-8q-55 0-102.5 20.5t-82.5 55.5-55 82-20 100 20 100 55 82 82.5 55.5 102.5 20.5q54 0 101.5-20.5t83-55.5 55.5-82 20-100-20-100-55.5-82-83-55.5-101.5-20.5zM294 120q26 0 48.5 10t38.5 27 25 41 9 52-9 52-25 41-38.5 27-48.5 10q-54 0-88-36.5t-34-93.5 34-93.5 88-36.5zM249 710h134l-130-160h-88zM421 710h134l-130-160h-88z" glyph-name="ohungarumlaut" horiz-adv-x="588" unicode="&#x151;"/><glyph d="M294-8q-55 0-102.5 20.5t-82.5 55.5-55 82-20 100 20 100 55 82 82.5 55.5 102.5 20.5q54 0 101.5-20.5t83-55.5 55.5-82 20-100-20-100-55.5-82-83-55.5-101.5-20.5zM294 120q26 0 48.5 10t38.5 27 25 41 9 52-9 52-25 41-38.5 27-48.5 10q-54 0-88-36.5t-34-93.5 34-93.5 88-36.5zM133 676h322v-89h-322v89z" glyph-name="omacron" horiz-adv-x="588" unicode="&#x14d;"/><glyph d="M294-8q-55 0-102.5 20.5t-82.5 55.5-55 82-20 100 20 100 55 82 82.5 55.5 102.5 20.5q54 0 101.5-20.5t83-55.5 55.5-82 20-100-20-100-55.5-82-83-55.5-101.5-20.5zM294 120q26 0 48.5 10t38.5 27 25 41 9 52-9 52-25 41-38.5 27-48.5 10q-54 0-88-36.5t-34-93.5 34-93.5 88-36.5zM294-202q-30 0-53 21.5t-23 54.5q0 31 22 53t54 22 54-22 22-53q0-32-22.5-54t-53.5-22z" glyph-name="uni1ECD" horiz-adv-x="588" unicode="&#x1ecd;"/><glyph d="M63 500h137v-47q43 54 119 54 11 0 24-1t26-6v-142q-16 8-34.5 11.5t-36.5 3.5q-27 0-54-11t-44-32v-330h-137v500zM410.975 710h-158.99l-83.9941-160h100.993z" glyph-name="racute" horiz-adv-x="388" unicode="&#x155;"/><glyph d="M63 500h137v-47q43 54 119 54 11 0 24-1t26-6v-142q-16 8-34.5 11.5t-36.5 3.5q-27 0-54-11t-44-32v-330h-137v500zM47.9971 641.961l44.9971 83.9951 122.992-66.9961 122.993 66.9961 44.9971-83.9951-167.99-94.9941z" glyph-name="rcaron" horiz-adv-x="388" unicode="&#x159;"/><glyph d="M63 500h137v-47q43 54 119 54 11 0 24-1t26-6v-142q-16 8-34.5 11.5t-36.5 3.5q-27 0-54-11t-44-32v-330h-137v500zM64-50h130l-84-165h-82z" glyph-name="uni0157" horiz-adv-x="388" unicode="&#x157;"/><glyph d="M220-8q-63 0-113 24.5t-82 80.5l104 71q17-29 39-46t57-17q21 0 35.5 7.5t14.5 24.5-14.5 27-52.5 24l-29 12q-66 25-97.5 65.5t-31.5 92.5q0 33 13 60.5t35.5 47.5 53 31 66.5 11q48 0 88.5-19.5t67.5-61.5l-82-75q-14 21-31.5 33.5t-42.5 12.5q-18 0-30.5-7.5t-12.5-22.5q0-17 14-27t53-25l25-9q70-26 101.5-64.5t31.5-94.5q0-37-13.5-66t-37.5-49-57-30.5-72-10.5zM413.975 710h-158.99l-83.9951-160h100.994z" glyph-name="sacute" horiz-adv-x="434" unicode="&#x15b;"/><glyph d="M220-8q-63 0-113 24.5t-82 80.5l104 71q17-29 39-46t57-17q21 0 35.5 7.5t14.5 24.5-14.5 27-52.5 24l-29 12q-66 25-97.5 65.5t-31.5 92.5q0 33 13 60.5t35.5 47.5 53 31 66.5 11q48 0 88.5-19.5t67.5-61.5l-82-75q-14 21-31.5 33.5t-42.5 12.5q-18 0-30.5-7.5t-12.5-22.5q0-17 14-27t53-25l25-9q70-26 101.5-64.5t31.5-94.5q0-37-13.5-66t-37.5-49-57-30.5-72-10.5zM50.9971 641.961l44.9971 83.9951 122.992-66.9961 122.993 66.9961 44.9971-83.9951-167.99-94.9941z" glyph-name="scaron" horiz-adv-x="434" unicode="&#x161;"/><glyph d="M220-8q-63 0-113 24.5t-82 80.5l104 71q17-29 39-46t57-17q21 0 35.5 7.5t14.5 24.5-14.5 27-52.5 24l-29 12q-66 25-97.5 65.5t-31.5 92.5q0 33 13 60.5t35.5 47.5 53 31 66.5 11q48 0 88.5-19.5t67.5-61.5l-82-75q-14 21-31.5 33.5t-42.5 12.5q-18 0-30.5-7.5t-12.5-22.5q0-17 14-27t53-25l25-9q70-26 101.5-64.5t31.5-94.5q0-37-13.5-66t-37.5-49-57-30.5-72-10.5zM179 0h93l-48-165h-121z" glyph-name="scedilla" horiz-adv-x="434" unicode="&#x15f;"/><glyph d="M220-8q-63 0-113 24.5t-82 80.5l104 71q17-29 39-46t57-17q21 0 35.5 7.5t14.5 24.5-14.5 27-52.5 24l-29 12q-66 25-97.5 65.5t-31.5 92.5q0 33 13 60.5t35.5 47.5 53 31 66.5 11q48 0 88.5-19.5t67.5-61.5l-82-75q-14 21-31.5 33.5t-42.5 12.5q-18 0-30.5-7.5t-12.5-22.5q0-17 14-27t53-25l25-9q70-26 101.5-64.5t31.5-94.5q0-37-13.5-66t-37.5-49-57-30.5-72-10.5zM387 631l-45-84-123 67-123-67-45 84 168 95z" glyph-name="scircumflex" horiz-adv-x="434" unicode="&#x15d;"/><glyph d="M220-8q-63 0-113 24.5t-82 80.5l104 71q17-29 39-46t57-17q21 0 35.5 7.5t14.5 24.5-14.5 27-52.5 24l-29 12q-66 25-97.5 65.5t-31.5 92.5q0 33 13 60.5t35.5 47.5 53 31 66.5 11q48 0 88.5-19.5t67.5-61.5l-82-75q-14 21-31.5 33.5t-42.5 12.5q-18 0-30.5-7.5t-12.5-22.5q0-17 14-27t53-25l25-9q70-26 101.5-64.5t31.5-94.5q0-37-13.5-66t-37.5-49-57-30.5-72-10.5zM156-50h130l-84-165h-82z" glyph-name="uni0219" horiz-adv-x="434" unicode="&#x219;"/><glyph d="M258 0q-71 0-111.5 40t-40.5 112v228h-68l-30 120h98v82l137 68v-150h156l-30-120h-126v-191q0-33 14-48.5t47-15.5h79v-125h-125zM317 710h138l-66-161h-93z" glyph-name="tcaron" horiz-adv-x="416" unicode="&#x165;"/><glyph d="M258 0q-71 0-111.5 40t-40.5 112v228h-68l-30 120h98v82l137 68v-150h156l-30-120h-126v-191q0-33 14-48.5t47-15.5h79v-125h-125zM180-50h130l-84-165h-82z" glyph-name="uni0163" horiz-adv-x="416" unicode="&#x163;"/><glyph d="M258 0q-71 0-111.5 40t-40.5 112v228h-68l-30 120h98v82l137 68v-150h156l-30-120h-126v-191q0-33 14-48.5t47-15.5h79v-125h-125zM180-50h130l-84-165h-82z" glyph-name="uni021B" horiz-adv-x="416" unicode="&#x21b;"/><glyph d="M393 41q-25-25-58.5-37t-68.5-12q-49 0-87.5 16t-65.5 45.5-41.5 70.5-14.5 91v285h137v-262q0-52 24-86t72-34q33 0 60.5 15.5t42.5 44.5v322h137v-500h-137v41zM293 552q-38 0-70.5 11t-56 31.5-37.5 50-14 65.5h89q1-38 24-58t65-20 65 20 24 58h89q0-36-14-65.5t-37.5-50-56-31.5-70.5-11z" glyph-name="ubreve" horiz-adv-x="593" unicode="&#x16d;"/><glyph d="M393 41q-25-25-58.5-37t-68.5-12q-49 0-87.5 16t-65.5 45.5-41.5 70.5-14.5 91v285h137v-262q0-52 24-86t72-34q33 0 60.5 15.5t42.5 44.5v322h137v-500h-137v41zM248 710h134l-130-160h-88zM420 710h134l-130-160h-88z" glyph-name="uhungarumlaut" horiz-adv-x="593" unicode="&#x171;"/><glyph d="M393 41q-25-25-58.5-37t-68.5-12q-49 0-87.5 16t-65.5 45.5-41.5 70.5-14.5 91v285h137v-262q0-52 24-86t72-34q33 0 60.5 15.5t42.5 44.5v322h137v-500h-137v41zM132 676h322v-89h-322v89z" glyph-name="umacron" horiz-adv-x="593" unicode="&#x16b;"/><glyph d="M393 41q-25-25-58.5-37t-68.5-12q-49 0-87.5 16t-65.5 45.5-41.5 70.5-14.5 91v285h137v-262q0-52 24-86t72-34q33 0 60.5 15.5t42.5 44.5v322h137v-500h-137v41zM451-190q-44 0-75 29t-31 74q0 27 13.5 50t33.5 37h137q-33-16-47.5-31t-14.5-31q0-14 9.5-23.5t24.5-9.5q11 0 17.5 4t11.5 8v-81q-16-14-36-20t-43-6z" glyph-name="uogonek" horiz-adv-x="593" unicode="&#x173;"/><glyph d="M393 41q-25-25-58.5-37t-68.5-12q-49 0-87.5 16t-65.5 45.5-41.5 70.5-14.5 91v285h137v-262q0-52 24-86t72-34q33 0 60.5 15.5t42.5 44.5v322h137v-500h-137v41zM293 550q-24 0-45 9t-36.5 25-24.5 36.5-9 44.5 9 44.5 25 36 36.5 24.5 44.5 9 44.5-9 36.5-24.5 25-36 9-44.5-9-44.5-24.5-36.5-36.5-25-45-9zM293 618q20 0 33.5 13.5t13.5 33.5-13.5 33.5-33.5 13.5-33.5-13.5-13.5-33.5 13.5-33.5 33.5-13.5z" glyph-name="uring" horiz-adv-x="593" unicode="&#x16f;"/><glyph d="M393 41q-25-25-58.5-37t-68.5-12q-49 0-87.5 16t-65.5 45.5-41.5 70.5-14.5 91v285h137v-262q0-52 24-86t72-34q33 0 60.5 15.5t42.5 44.5v322h137v-500h-137v41zM108 583q4 27 15.5 47.5t27 35 34 22 37.5 7.5q22 0 40-6.5t33.5-14 28.5-14 24-6.5q18 0 28.5 9.5t15.5 32.5h90l-4-26q-4-26-15-47t-26.5-35.5-34.5-22-38-7.5q-21 0-39 6.5t-33.5 14-28.5 14-25 6.5q-18 0-28-9.5t-16-32.5h-89z" glyph-name="utilde" horiz-adv-x="593" unicode="&#x169;"/><glyph d="M393 41q-25-25-58.5-37t-68.5-12q-49 0-87.5 16t-65.5 45.5-41.5 70.5-14.5 91v285h137v-262q0-52 24-86t72-34q33 0 60.5 15.5t42.5 44.5v322h137v-500h-137v41zM289-202q-30 0-53 21.5t-23 54.5q0 31 22 53t54 22 54-22 22-53q0-32-22.5-54t-53.5-22z" glyph-name="uni1EE5" horiz-adv-x="593" unicode="&#x1ee5;"/><glyph d="M4 500h143l89-299 127 307 127-307 88 299h144l-158-500h-106l-95 226-95-226h-106zM557.966 710h-158.99l-83.9951-160h100.994z" glyph-name="wacute" horiz-adv-x="726" unicode="&#x1e83;"/><glyph d="M4 500h143l89-299 127 307 127-307 88 299h144l-158-500h-106l-95 226-95-226h-106zM531 631l-45-84-123 67-123-67-45 84 168 95z" glyph-name="wcircumflex" horiz-adv-x="726" unicode="&#x175;"/><glyph d="M4 500h143l89-299 127 307 127-307 88 299h144l-158-500h-106l-95 226-95-226h-106zM481 568q-32 0-54 22t-22 54 23 53.5 53 21.5 53-21.5 23-53.5-22.5-54-53.5-22zM246 568q-32 0-54 22t-22 54 22.5 53.5 53.5 21.5q30 0 52.5-21.5t22.5-53.5-22-54-53-22z" glyph-name="wdieresis" horiz-adv-x="726" unicode="&#x1e85;"/><glyph d="M4 500h143l89-299 127 307 127-307 88 299h144l-158-500h-106l-95 226-95-226h-106zM179 710h159l84-160h-101z" glyph-name="wgrave" horiz-adv-x="726" unicode="&#x1e81;"/><glyph d="M191 9l-189 491h146l115-326 116 326h145l-264-684h-145zM432 631l-45-84-123 67-123-67-45 84 168 95z" glyph-name="ycircumflex" horiz-adv-x="524" unicode="&#x177;"/><glyph d="M191 9l-189 491h146l115-326 116 326h145l-264-684h-145zM80 710h159l84-160h-101z" glyph-name="ygrave" horiz-adv-x="524" unicode="&#x1ef3;"/><glyph d="M191 9l-189 491h146l115-326 116 326h145l-264-684h-145zM103 676h322v-89h-322v89z" glyph-name="uni0233" horiz-adv-x="524" unicode="&#x233;"/><glyph d="M258 381h-214v119h444l-244-380h230v-120h-461zM461.972 710h-158.99l-83.9951-160h100.994z" glyph-name="zacute" horiz-adv-x="511" unicode="&#x17a;"/><glyph d="M258 381h-214v119h444l-244-380h230v-120h-461zM98.9941 641.961l44.9971 83.9951 122.992-66.9961 122.993 66.9961 44.9971-83.9951-167.99-94.9941z" glyph-name="zcaron" horiz-adv-x="511" unicode="&#x17e;"/><glyph d="M258 381h-214v119h444l-244-380h230v-120h-461zM267 568q-30 0-53 21.5t-23 54.5q0 31 22 53t54 22 54-22 22-53q0-32-22.5-54t-53.5-22z" glyph-name="zdotaccent" horiz-adv-x="511" unicode="&#x17c;"/><glyph d="M140-8q-21 0-39 8t-31.5 21.5-21.5 32-8 39.5 8 39.5 22 32 32 21 38 7.5 38.5-7.5 32.5-21 22-32 8-39.5-8-39.5-21.5-32-32-21.5-39.5-8zM421-8q-21 0-39 8t-31.5 21.5-21.5 32-8 39.5 8 39.5 22 32 32 21 38 7.5 38.5-7.5 32.5-21 22-32 8-39.5-8-39.5-21.5-32-32-21.5-39.5-8zM703-8q-21 0-39 8t-31.5 21.5-21.5 32-8 39.5 8 39.5 22 32 32 21 38 7.5 38.5-7.5 32.5-21 22-32 8-39.5-8-39.5-21.5-32-32-21.5-39.5-8z" glyph-name="ellipsis" horiz-adv-x="844" unicode="&#x2026;"/><glyph d="M58 345h473v-130h-473v130z" glyph-name="endash" horiz-adv-x="589" unicode="&#x2013;"/><glyph d="M58 345h767v-130h-767v130z" glyph-name="emdash" horiz-adv-x="883" unicode="&#x2014;"/><glyph d="M30 250l161 237 92-63-119-174 119-174-92-63z" glyph-name="guilsinglleft" horiz-adv-x="323" unicode="&#x2039;"/><glyph d="M40 76l119 174-119 174 92 63 161-237-161-237z" glyph-name="guilsinglright" horiz-adv-x="323" unicode="&#x203a;"/><glyph d="M151 559h63v-163h-162v163l62 151h81z" glyph-name="quoteleft" horiz-adv-x="266" unicode="&#x2018;"/><glyph d="M114 547h-63v163h162v-163l-62-151h-81z" glyph-name="quoteright" horiz-adv-x="257" unicode="&#x2019;"/><glyph d="M151 559h63v-163h-162v163l62 151h81zM369 559h63v-163h-162v163l62 151h81z" glyph-name="quotedblleft" horiz-adv-x="484" unicode="&#x201c;"/><glyph d="M114 547h-63v163h162v-163l-62-151h-81zM332 547h-63v163h162v-163l-62-151h-81z" glyph-name="quotedblright" horiz-adv-x="475" unicode="&#x201d;"/><glyph d="M122 0h-63v163h162v-163l-62-151h-81z" glyph-name="quotesinglbase" horiz-adv-x="280" unicode="&#x201a;"/><glyph d="M122 0h-63v163h162v-163l-62-151h-81zM340 0h-63v163h162v-163l-62-151h-81z" glyph-name="quotedblbase" horiz-adv-x="498" unicode="&#x201e;"/><glyph d="M201 166q-28 0-53 10.5t-43.5 29-29 43.5-10.5 53 10.5 53 29 43.5 43.5 29 53 10.5 53-10.5 43.5-29 29-43.5 10.5-53-10.5-53-29-43.5-43.5-29-53-10.5z" glyph-name="bullet" horiz-adv-x="402" unicode="&#x2022;"/><glyph d="M76 333h437v-105h-437v105z" glyph-name="minus" horiz-adv-x="590" unicode="&#x2212;"/><glyph d="M55 315h93q-1 10-1.5 19.5t-.5 20.5v13q0 6 1 13h-118l26 74h105q16 57 49 105.5t79 83.5 102 54.5 118 19.5q63 0 117.5-19t99.5-53l-44-128q-29 31-74 51.5t-98 20.5q-72 0-126-36.5t-80-98.5h358l-26-74h-350q-1-6-1-13v-13q0-21 3-40h327l-26-74h-278q28-57 80-89t118-32q52 0 92 15.5t74 42.5v-145q-35-19-77-30t-89-11q-60 0-114.5 18.5t-99.5 51.5-78.5 79-51.5 100h-135z" glyph-name="Euro" horiz-adv-x="755" unicode="&#x20ac;"/><glyph d="M103 380h-70v120h78q-35 33-35 84 0 27 9.5 50t27.5 40 43.5 26.5 57.5 9.5h147v-120h-100q-27 0-40.5-12.5t-13.5-32.5 13.5-32.5 31.5-12.5h109v-120h-121v-380h-137v380zM440 500h137v-500h-137v500zM445 579q-20 22-20 55 0 35 24.5 59.5t59.5 24.5 59.5-24.5 24.5-59.5q0-33-20-55h-128z" glyph-name="uniFB01" horiz-adv-x="640" unicode="&#xfb01;"/><glyph d="M103 380h-70v120h78q-35 33-35 84 0 27 9.5 50t27.5 40 43.5 26.5 57.5 9.5h147v-120h-100q-27 0-40.5-12.5t-13.5-32.5 13.5-32.5 31.5-12.5h109v-120h-121v-380h-137v380zM440 710h137v-710h-137v710z" glyph-name="uniFB02" horiz-adv-x="640" unicode="&#xfb02;"/><glyph d="M57 579q-20 22-20 55 0 35 24.5 59.5t59.5 24.5 59.5-24.5 24.5-59.5q0-33-20-55h-128z" glyph-name="glyph329" horiz-adv-x="242"/><glyph d="M0 552q-38 0-70.5 11t-56 31.5-37.5 50-14 65.5h89q1-38 24-58t65-20 65 20 24 58h89q0-36-14-65.5t-37.5-50-56-31.5-70.5-11z" glyph-name="breve" unicode="&#x2d8;"/><glyph d="M-167.99 641.961l44.998 83.9951 122.992-66.9961 122.992 66.9961 44.998-83.9951-167.99-94.9941z" glyph-name="caron" unicode="&#x2c7;"/><glyph d="M168 631l-45-84-123 67-123-67-45 84 168 95z" glyph-name="circumflex" unicode="&#x2c6;"/><glyph d="M0 568q-30 0-53 21.5t-23 54.5q0 31 22 53t54 22 54-22 22-53q0-32-22.5-54t-53.5-22z" glyph-name="dotaccent" unicode="&#x2d9;"/><glyph d="M-112 710h134l-130-160h-88zM60 710h134l-130-160h-88z" glyph-name="hungarumlaut" unicode="&#x2dd;"/><glyph d="M-57-50h130l-84-165h-82z" glyph-name="glyph335"/><glyph d="M14-190q-44 0-75 29t-31 74q0 27 13.5 50t33.5 37h137q-33-16-47.5-31t-14.5-31q0-14 9.5-23.5t24.5-9.5q11 0 17.5 4t11.5 8v-81q-16-14-36-20t-43-6z" glyph-name="ogonek" unicode="&#x2db;"/><glyph d="M0 550q-24 0-45 9t-36.5 25-24.5 36.5-9 44.5 9 44.5 25 36 36.5 24.5 44.5 9 44.5-9 36.5-24.5 25-36 9-44.5-9-44.5-24.5-36.5-36.5-25-45-9zM0 618q20 0 33.5 13.5t13.5 33.5-13.5 33.5-33.5 13.5-33.5-13.5-13.5-33.5 13.5-33.5 33.5-13.5z" glyph-name="ring" unicode="&#x2da;"/><glyph d="M-185 583q4 27 15.5 47.5t27 35 34 22 37.5 7.5q22 0 40-6.5t33.5-14 28.5-14 24-6.5q18 0 28.5 9.5t15.5 32.5h90l-4-26q-4-26-15-47t-26.5-35.5-34.5-22-38-7.5q-21 0-39 6.5t-33.5 14-28.5 14-25 6.5q-18 0-28-9.5t-16-32.5h-89z" glyph-name="tilde" unicode="&#x2dc;"/><glyph d="M-58 710h138l-66-161h-93z" glyph-name="glyph339"/><glyph d="M-96 568q-30 0-52.5 21.5t-22.5 54.5q0 31 22 53t53 22q32 0 54-22t22-53q0-32-22.5-54t-53.5-22zM96 568q-30 0-53 21.5t-23 54.5q0 31 22 53t54 22q31 0 53-22t22-53q0-32-22.5-54t-52.5-22z" glyph-name="glyph340"/><glyph d="M-172 643h344v-65h-344v65z" glyph-name="glyph341"/><glyph d="M-184 291l335 195 34-59-335-196z" glyph-name="glyph342"/><glyph d="M0 767q-38 0-70 13.5t-56 37.5-38 55.5-14 67.5h89q1-38 24-66t65-28 65.5 28 23.5 66h89q0-36-14-67.5t-38-55.5-56.5-37.5-69.5-13.5z" glyph-name="glyph343"/><glyph d="M-176 849l176 81 176-81-40-88-136 63-136-63z" glyph-name="glyph344"/><glyph d="M-113 913h154l71-145h-102z" glyph-name="glyph345"/><glyph d="M-127 913h138l-114-145h-96zM56 913h138l-114-145h-96z" glyph-name="glyph346"/><glyph d="M-161 895h322v-97h-322v97z" glyph-name="glyph347"/><glyph d="M16-190q-50 0-82 27t-32 71q0 30 15.5 54t37.5 38h145q-34-15-52-28.5t-18-33.5q0-17 10-25t26-8q10 0 19.5 4t14.5 8v-81q-35-26-84-26z" glyph-name="glyph348"/><glyph d="M-168 392h337v-74h-337v74z" glyph-name="glyph349"/><glyph d="M-217 269l416 245 39-66-416-245z" glyph-name="glyph350"/><glyph d="M-365 605h730v-74h-730v74z" glyph-name="glyph351"/></font>
</defs>
</svg>
