<svg xmlns="http://www.w3.org/2000/svg"><defs><font horiz-adv-x="0"><font-face ascent="800" bbox="-350 -215 1027 940" cap-height="710" descent="-200" panose-1="2 11 5 4 0 0 0 0 0 0" underline-position="-126" underline-thickness="73" unicode-range="U+000D-FB02" x-height="500"/><missing-glyph d="M0 710h500v-710h-500v710zM250 371l216 320h-432zM19 28l221 327-221 327v-654zM481 28v654l-220-327zM466 19l-216 320-216-320h432z" horiz-adv-x="500"/><glyph d="M0 710h500v-710h-500v710zM250 371l216 320h-432zM19 28l221 327-221 327v-654zM481 28v654l-220-327zM466 19l-216 320-216-320h432z" glyph-name=".notdef" horiz-adv-x="500"/><glyph glyph-name="glyph1"/><glyph glyph-name="uni000D" horiz-adv-x="250" unicode="&#xd;"/><glyph glyph-name="space" horiz-adv-x="250" unicode="&#x20;"/><glyph d="M90 417v293h87v-293l-16-197h-55zM132-8q-30 0-51.5 21.5t-21.5 52.5q0 20 9 36t25 26h80q15-10 24.5-26t9.5-36q0-31-21.5-52.5t-53.5-21.5z" glyph-name="exclam" horiz-adv-x="267" unicode="&#x21;"/><glyph d="M68 710h78v-245h-78v245zM270 710h78v-245h-78v245z" glyph-name="quotedbl" horiz-adv-x="416" unicode="&#x22;"/><glyph d="M87 0l63 200h-116v73h138l54 171h-119v73h142l60 193h79l-60-193h181l60 193h79l-60-193h116v-73h-139l-54-171h121v-73h-143l-63-200h-79l63 200h-181l-63-200h-79zM432 273l54 171h-181l-54-171h181z" glyph-name="numbersign" horiz-adv-x="737" unicode="&#x23;"/><glyph d="M223-5q-70 8-118 39.5t-73 67.5l63 53q25-34 67.5-59t96.5-25q65 0 101.5 30.5t36.5 77.5q0 24-8.5 42t-24 33-37.5 28-50 27l-65 32q-80 39-116 85.5t-36 113.5q0 31 11.5 60t32.5 52.5 51 39.5 68 22v84h83v-84q29-4 52-12.5t42-20 33.5-25.5 27.5-29l-59-55q-27 32-59.5 49.5t-78.5 17.5q-52 0-86-28t-34-70q0-41 26.5-67.5t82.5-53.5l65-32q35-17 65.5-36.5t52.5-43 34.5-53 12.5-66.5q0-35-10.5-67t-32.5-58-55.5-44-78.5-24v-84h-83v83z" glyph-name="dollar" horiz-adv-x="521" unicode="&#x24;"/><glyph d="M211 437q-29 0-55 11t-45.5 29.5-30.5 44-11 55.5 11 55.5 30.5 44 45.5 29.5 55 11q30 0 56.5-11t46-29.5 31-44 11.5-55.5-11.5-55.5-31-44-46-29.5-56.5-11zM211 502q34 0 54 22t20 53-20 52.5-54 21.5q-32 0-52-21.5t-20-52.5 20-53 52-22zM71 390h290v-73h-290v73zM211-7q-29 0-55 11t-45.5 29.5-30.5 44-11 55.5 11 55.5 30.5 44 45.5 29.5 55 11q30 0 56.5-11t46-29.5 31-44 11.5-55.5-11.5-55.5-31-44-46-29.5-56.5-11zM211 58q34 0 54 22t20 53-20 53-54 22q-32 0-52-22t-20-53 20-53 52-22z" glyph-name="percent" horiz-adv-x="427" unicode="&#x25;"/><glyph d="M251-8q-49 0-90 17.5t-71 47.5-47 70.5-17 87.5q0 46 17 86.5t47 71 71 48 90 17.5q22 0 42-4l-143 276h359v-78h-228l330-632h-94l-67 126q-29-69-81-101.5t-118-32.5zM251 71q30 0 55.5 10.5t44.5 30 29.5 45.5 10.5 58q0 31-10.5 57.5t-29.5 46-44.5 30-55.5 10.5-55.5-10.5-44.5-30-29.5-46-10.5-57.5q0-32 10.5-58t29.5-45.5 44.5-30 55.5-10.5z" glyph-name="ampersand" horiz-adv-x="608" unicode="&#x26;"/><glyph d="M68 710h78v-245h-78v245z" glyph-name="quotesingle" horiz-adv-x="214" unicode="&#x27;"/><glyph d="M225.986-113q-24.999 53-43.4971 103.5-18.499 50.5-30.998 100.5-12.5 50-18.499 102-6 52-6 108t6 108q5.99902 52 18.499 102 12.499 50 30.998 100.5 18.498 50.5 43.4971 103.5l-67.9961 29q-26.998-55-46.9971-106t-33.498-103.5-20.499-109.5q-6.99902-57-6.99902-124t6.99902-124q7-57 20.499-109.5t33.498-103.5 46.9971-106z" glyph-name="parenleft" horiz-adv-x="261" unicode="&#x28;"/><glyph d="M35-113q25 53 43.5 103.5t31 100.5 18.5 102 6 108-6 108-18.5 102-31 100.5-43.5 103.5l68 29q27-55 47-106t33.5-103.5 20.5-109.5 7-124-7-124-20.5-109.5-33.5-103.5-47-106z" glyph-name="parenright" horiz-adv-x="261" unicode="&#x29;"/><glyph d="M86 414l78 105-125 42 20 64 126-42v127h66v-127l127 42 20-64-126-41 78-106-53-39-79 106-77-105z" glyph-name="asterisk" horiz-adv-x="437" unicode="&#x2a;"/><glyph d="M77 310h183v178h71v-178h183v-70h-183v-182h-71v182h-183v70z" glyph-name="plus" horiz-adv-x="590" unicode="&#x2b;"/><glyph d="M119 0h-51v123h122v-124l-57-141h-57z" glyph-name="comma" horiz-adv-x="258" unicode="&#x2c;"/><glyph d="M66 318h243v-89h-243v89z" glyph-name="hyphen" horiz-adv-x="375" unicode="&#x2d;"/><glyph d="M125-8q-30 0-52 21.5t-22 52.5q0 32 22.5 53t51.5 21 51.5-21 22.5-53q0-31-22-52.5t-52-21.5z" glyph-name="period" horiz-adv-x="250" unicode="&#x2e;"/><glyph d="M368 710h81l-344-710h-81z" glyph-name="slash" horiz-adv-x="472" unicode="&#x2f;"/><glyph d="M412-8q-76 0-142.5 28t-115.5 77-77.5 115-28.5 143q0 76 28.5 142.5t77.5 115.5 115.5 77 142.5 28 142.5-28 115.5-77 77.5-115.5 28.5-142.5q0-77-28.5-143t-77.5-115-115.5-77-142.5-28zM412 71q60 0 111 22t87.5 60 57.5 90 21 112-21 112-57.5 90-87.5 60-111 22-110.5-22-87.5-60-57.5-90-20.5-112 20.5-112 57.5-90 87.5-60 110.5-22z" glyph-name="zero" horiz-adv-x="824" unicode="&#x30;"/><glyph d="M91 632l86 86v-718h-86v632z" glyph-name="one" horiz-adv-x="272" unicode="&#x31;"/><glyph d="M302 299q-14-2-20.5-2.5t-12.5-.5q-45 1-83 18t-65.5 45.5-42.5 66-15 79.5q0 45 16.5 84t45.5 67.5 68.5 45 84.5 16.5 84.5-16.5 69-45 46-67.5 16.5-84q0-32-7-60.5t-22-57.5-38.5-59.5-55.5-65.5l-164-182h287v-80h-467zM278 371q28 0 52.5 10t41.5 28 27 42.5 10 53.5q0 28-10 52.5t-27 42.5-41.5 28.5-52.5 10.5q-29 0-53-10.5t-41-28.5-26.5-42.5-9.5-52.5q0-29 9.5-53.5t26.5-42.5 41-28 53-10z" glyph-name="two" horiz-adv-x="550" unicode="&#x32;"/><glyph d="M236-8q-63 0-118 29.5t-86 79.5l66 51q18-34 54-57.5t83-23.5q33 0 61 11t49 31 32.5 48.5 11.5 63.5q0 34-11 63t-32 50-50.5 33-65.5 12h-63l143 247h-249v80h382l-148-257q46-10 80-32.5t56.5-53.5 34-67.5 11.5-74.5q0-49-17.5-91.5t-49-74-76-49.5-98.5-18z" glyph-name="three" horiz-adv-x="525" unicode="&#x33;"/><glyph d="M411 196h-401l486 522v-442h93v-80h-93v-196h-85v196zM411 276v243l-226-243h226z" glyph-name="four" horiz-adv-x="630" unicode="&#x34;"/><glyph d="M253-8q-64 0-120.5 29.5t-86.5 79.5l67 52q17-34 54-58t84-24q33 0 61 11.5t48 31.5 31.5 48 11.5 61-11 61.5-31.5 49.5-49 33-64.5 12q-41 0-68-18t-43-37l-59 25v361h358v-80h-272v-192q47 19 87 19 56 0 100.5-18.5t75.5-50 47.5-74.5 16.5-91-17-90-48.5-73.5-75-49.5-96.5-18z" glyph-name="five" horiz-adv-x="528" unicode="&#x35;"/><glyph d="M278-8q-50 0-92.5 18t-74.5 49.5-50 73.5-18 90q0 37 12 70t29 62l212 355h99l-158-262q14 4 24 5t22 1q47 0 89-18t73.5-49.5 50-73.5 18.5-90-18.5-90-50-73.5-75-49.5-92.5-18zM278 71q33 0 60 12t46.5 32.5 30.5 48 11 59.5q0 31-11 59t-30.5 48.5-46.5 32.5-60 12-60-12-46.5-32.5-30.5-48.5-11-59q0-32 11-59.5t30.5-48 46.5-32.5 60-12z" glyph-name="six" horiz-adv-x="544" unicode="&#x36;"/><glyph d="M368 630h-336v80h465l-340-710h-91z" glyph-name="seven" horiz-adv-x="499" unicode="&#x37;"/><glyph d="M275-8q-47 0-88.5 17t-72.5 47.5-49 72.5-18 91q0 63 29 113.5t77 80.5q-25 23-39.5 56t-14.5 72q0 38 14 70.5t38 56 56 36.5 68 13 68-13 56-36.5 38-56 14-70.5q0-39-14.5-72t-39.5-56q48-30 77-80.5t29-113.5q0-49-18-91t-49-72.5-72.5-47.5-88.5-17zM275 637q-38 0-64.5-26.5t-26.5-68.5 26.5-68.5 64.5-26.5 64.5 26.5 26.5 68.5-26.5 68.5-64.5 26.5zM275 73q29 0 54.5 11.5t44 31 29.5 46.5 11 58-11 58-29.5 46.5-44 31-54.5 11.5-54.5-11.5-44.5-31-29.5-46.5-10.5-58 10.5-58 29.5-46.5 44.5-31 54.5-11.5z" glyph-name="eight" horiz-adv-x="550" unicode="&#x38;"/><glyph d="M307 261q-14-4-24-5t-22-1q-47 0-89 18t-73.5 49.5-50 73.5-18.5 90 18.5 90 50 73.5 74.5 50 93 18.5q49 0 92-18.5t75-50 50-73.5 18-90q0-37-12.5-70t-29.5-62l-212-355h-98zM266 334q33 0 60 12t46.5 32.5 30.5 48 11 59.5q0 31-11 59t-30.5 49-46.5 33-60 12-60.5-12-47-33-30-49-10.5-59q0-32 10.5-59.5t30-48 47-32.5 60.5-12z" glyph-name="nine" horiz-adv-x="544" unicode="&#x39;"/><glyph d="M140 360q-30 0-52 21.5t-22 52.5q0 32 22.5 53t51.5 21 51.5-21 22.5-53q0-31-22-52.5t-52-21.5zM140-8q-30 0-52 21.5t-22 52.5q0 32 22.5 53t51.5 21 51.5-21 22.5-53q0-31-22-52.5t-52-21.5z" glyph-name="colon" horiz-adv-x="280" unicode="&#x3a;"/><glyph d="M128 0h-51v123h122v-124l-57-141h-57zM144 360q-30 0-52 21.5t-22 52.5q0 32 22.5 53t51.5 21 51.5-21 22.5-53q0-31-22-52.5t-52-21.5z" glyph-name="semicolon" horiz-adv-x="282" unicode="&#x3b;"/><glyph d="M73 420h444v-70h-444v70zM73 201h444v-70h-444v70z" glyph-name="equal" horiz-adv-x="590" unicode="&#x3d;"/><glyph d="M188 371h60q28 0 52.5 10t41.5 28 27 42.5 10 53.5q0 28-10 52.5t-27 42.5-41.5 28.5-52.5 10.5q-29 0-53-10.5t-41-28.5-26.5-42.5-9.5-52.5h-85q0 45 16.5 84t45.5 67.5 68.5 45 84.5 16.5 84.5-16.5 69-45 46-67.5 16.5-84-16.5-84-46-67.5-69-45-84.5-16.5h-60v79zM251-8q-30 0-51.5 21.5t-21.5 52.5q0 20 9 36t25 26h80q15-10 24.5-26t9.5-36q0-31-21.5-52.5t-53.5-21.5z" glyph-name="question" horiz-adv-x="515" unicode="&#x3f;"/><glyph d="M393-8q-81 0-145.5 27t-110 73.5-69.5 109.5-24 135q0 85 32 155.5t85.5 120.5 123.5 77.5 146 27.5q73 0 135.5-22t108.5-62.5 72-98 26-129.5q0-65-15.5-111.5t-41-75.5-58.5-42.5-67-13.5q-29 0-56 13.5t-42 39.5q-24-23-57-37t-76-14q-36 0-65 13.5t-50 37-32 55-11 66.5q0 45 16.5 85t45.5 70 68.5 47 86.5 17q36 0 63-10t47-28l6 28h72l-51-239q-7-33 4-56t43-23q20 0 38.5 11.5t32.5 34.5 22.5 56.5 8.5 77.5q0 58-21 104t-58 78-87.5 48.5-108.5 16.5q-64 0-121.5-22.5t-100.5-64-68.5-100.5-25.5-131q0-59 19-110t54.5-88.5 87.5-59 118-21.5q45 0 94 10t90 31l25-63q-47-21-103.5-32.5t-105.5-11.5zM279 344q0-54 27-83.5t71-29.5q28 0 57 13t46 45q0 3 2 11l31 144q-17 24-44 35t-54 11-51.5-11-43.5-30.5-30-46-11-58.5z" glyph-name="at" horiz-adv-x="804" unicode="&#x40;"/><glyph d="M339 718l346-718h-98l-88 186h-320l-88-186h-98zM459 270l-120 254-120-254h240z" glyph-name="A" horiz-adv-x="678" unicode="&#x41;"/><glyph d="M95 710h237q51 0 90.5-15t65.5-40 39.5-59 13.5-71q0-54-19.5-89.5t-54.5-58.5q53-20 87-62.5t34-114.5q0-48-18-85.5t-50-63-77-38.5-100-13h-248v710zM330 404q57 0 88.5 31.5t31.5 79.5q0 22-8 42.5t-23.5 35.5-38 24-50.5 9h-144v-222h144zM354 84q72 0 107 34t35 86-35 87-107 35h-168v-242h168z" glyph-name="B" horiz-adv-x="632" unicode="&#x42;"/><glyph d="M409-8q-76 0-142.5 27.5t-115.5 76.5-77 115.5-28 143.5 28 143.5 77 115 115.5 76.5 142.5 28q47 0 89.5-10.5t79-29 66-43 49.5-52.5l-65-57q-35 48-91.5 76.5t-127.5 28.5q-58 0-107.5-21t-85.5-58.5-56.5-88-20.5-108.5q0-59 20.5-109t56.5-87.5 85.5-58.5 107.5-21q71 0 127.5 28.5t91.5 76.5l65-57q-20-28-49.5-52.5t-66-43-79-29-89.5-10.5z" glyph-name="C" horiz-adv-x="722" unicode="&#x43;"/><glyph d="M95 710h211q82 0 151.5-27t120-74.5 79-112.5 28.5-141-28.5-141-79-112.5-120-74.5-151.5-27h-211v710zM306 85q64 0 117 20.5t90.5 56.5 58 85.5 20.5 107.5-20.5 107.5-58 85.5-90.5 56.5-117 20.5h-120v-540h120z" glyph-name="D" horiz-adv-x="731" unicode="&#x44;"/><glyph d="M95 710h410v-88h-319v-215h259v-88h-259v-231h319v-88h-410v710z" glyph-name="E" horiz-adv-x="555" unicode="&#x45;"/><glyph d="M95 710h398v-88h-307v-215h240v-88h-240v-319h-91v710z" glyph-name="F" horiz-adv-x="517" unicode="&#x46;"/><glyph d="M409-8q-76 0-142.5 27.5t-115.5 76.5-77 115.5-28 143.5 28 143.5 77 115 115.5 76.5 142.5 28q41 0 80.5-8.5t74-24 63.5-36.5 50-46l-65-58q-36 39-87 62.5t-116 23.5q-58 0-107.5-21t-85.5-58.5-56.5-88-20.5-108.5q0-59 20.5-109t56.5-87.5 85.5-58.5 107.5-21q60 0 106.5 15.5t74.5 37.5v187h-218l39 88h270v-317q-16-19-43.5-36.5t-62.5-31-77.5-22-88.5-8.5z" glyph-name="G" horiz-adv-x="742" unicode="&#x47;"/><glyph d="M95 710h91v-303h392v303h91v-710h-91v319h-392v-319h-91v710z" glyph-name="H" horiz-adv-x="764" unicode="&#x48;"/><glyph d="M95 710h91v-710h-91v710z" glyph-name="I" horiz-adv-x="281" unicode="&#x49;"/><glyph d="M228-8q-43 0-80.5 13.5t-65.5 39.5-44.5 64.5-16.5 88.5h91q0-30 9-52.5t25-37.5 36.5-22 44.5-7q51 0 84 29t33 90v512h91v-518q0-50-16.5-87.5t-45-62.5-66-37.5-79.5-12.5z" glyph-name="J" horiz-adv-x="523" unicode="&#x4a;"/><glyph d="M95 710h91v-356l324 356h112l-328-361 355-349h-121l-342 337v-337h-91v710z" glyph-name="K" horiz-adv-x="641" unicode="&#x4b;"/><glyph d="M95 710h91v-621h311v-89h-402v710z" glyph-name="L" horiz-adv-x="515" unicode="&#x4c;"/><glyph d="M95 718l346-381 346 381v-718h-91v494l-255-285-255 285v-494h-91v718z" glyph-name="M" horiz-adv-x="882" unicode="&#x4d;"/><glyph d="M186 505v-505h-91v718l506-513v505h91v-718z" glyph-name="N" horiz-adv-x="787" unicode="&#x4e;"/><glyph d="M409-8q-76 0-142.5 27.5t-115.5 76.5-77 115.5-28 143.5 28 143.5 77 115 115.5 76.5 142.5 28 142.5-28 115.5-76.5 77-115 28-143.5-28-143.5-77-115.5-115.5-76.5-142.5-27.5zM409 79q58 0 107.5 21t85.5 58.5 56.5 87.5 20.5 109q0 58-20.5 108.5t-56.5 88-85.5 58.5-107.5 21-107.5-21-85.5-58.5-56.5-88-20.5-108.5q0-59 20.5-109t56.5-87.5 85.5-58.5 107.5-21z" glyph-name="O" horiz-adv-x="818" unicode="&#x4f;"/><glyph d="M95 710h201q56 0 101.5-15t77.5-43 49.5-68.5 17.5-90.5-17.5-90-49.5-68-77.5-43.5-101.5-15.5h-110v-276h-91v710zM293 360q77 0 116.5 35t39.5 98-39.5 98-116.5 35h-107v-266h107z" glyph-name="P" horiz-adv-x="574" unicode="&#x50;"/><glyph d="M409-8q-76 0-142.5 27.5t-115.5 76.5-77 115.5-28 143.5 28 143.5 77 115 115.5 76.5 142.5 28 142.5-28 115.5-76.5 77-115 28-143.5q0-62-18.5-117t-51.5-100l92-84-58-62-91 84q-48-40-108-62t-128-22zM409 79q50 0 92.5 15t77.5 43l-93 86 58 62 91-85q21 33 32.5 72t11.5 83q0 58-20.5 108.5t-56.5 88-85.5 58.5-107.5 21-107.5-21-85.5-58.5-56.5-88-20.5-108.5q0-59 20.5-109t56.5-87.5 85.5-58.5 107.5-21z" glyph-name="Q" horiz-adv-x="835" unicode="&#x51;"/><glyph d="M95 710h211q52 0 94-14t72-40.5 46-63.5 16-82q0-31-9-62t-29-57-52.5-46-78.5-29l246-316h-110l-237 310h-78v-310h-91v710zM300 391q70 0 105 31t35 86q0 56-35 87t-105 31h-114v-235h114z" glyph-name="R" horiz-adv-x="619" unicode="&#x52;"/><glyph d="M263-8q-78 0-138.5 32.5t-92.5 77.5l69 60q26-33 67.5-58t93.5-25q62 0 98 26.5t36 73.5q0 49-29.5 78t-86.5 54l-65 28q-81 35-118 84.5t-37 116.5q0 40 17.5 73t46.5 56.5 66.5 36 76.5 12.5q63 0 113-23.5t86-67.5l-64-64q-28 33-59.5 50.5t-78.5 17.5q-23 0-43-6t-36-18-25-29.5-9-39.5q0-39 24-67t81-53l65-28q36-16 66.5-35t53-43.5 35-55 12.5-67.5q0-44-15.5-80t-45-62-71-40.5-93.5-14.5z" glyph-name="S" horiz-adv-x="528" unicode="&#x53;"/><glyph d="M217 622h-201v88h494v-88h-202v-622h-91v622z" glyph-name="T" horiz-adv-x="526" unicode="&#x54;"/><glyph d="M369-8q-62 0-114 19t-89.5 55-58.5 87.5-21 116.5v440h91v-444q0-46 14-81t39.5-58.5 60.5-35.5 78-12 78 12 60.5 35.5 39.5 58.5 14 81v444h91v-440q0-65-21-116.5t-58.5-87.5-89.5-55-114-19z" glyph-name="U" horiz-adv-x="738" unicode="&#x55;"/><glyph d="M0 710h100l228-509 227 509h100l-327-718z" glyph-name="V" horiz-adv-x="656" unicode="&#x56;"/><glyph d="M8 710h94l157-474 185 482 186-482 157 474h94l-244-718-193 500-192-500z" glyph-name="W" horiz-adv-x="889" unicode="&#x57;"/><glyph d="M262 362l-243 348h105l195-279 195 279h105l-241-348 255-362h-103l-210 295-208-295h-106z" glyph-name="X" horiz-adv-x="639" unicode="&#x58;"/><glyph d="M268 301l-260 409h106l200-319 200 319h106l-260-409v-301h-92v301z" glyph-name="Y" horiz-adv-x="628" unicode="&#x59;"/><glyph d="M404 622h-352v88h508l-395-622h397v-88h-553z" glyph-name="Z" horiz-adv-x="593" unicode="&#x5a;"/><glyph d="M275.983-141v71h-107.993v740h107.993v71h-186.989v-882h186.989z" glyph-name="bracketleft" horiz-adv-x="306" unicode="&#x5b;"/><glyph d="M30-141v71h108v740h-108v71h187v-882h-187z" glyph-name="bracketright" horiz-adv-x="306" unicode="&#x5d;"/><glyph d="M56 0h424v-73h-424v73z" glyph-name="underscore" horiz-adv-x="536" unicode="&#x5f;"/><glyph d="M-98 710h109l85-160h-71z" glyph-name="grave" unicode="&#x60;"/><glyph d="M456 50q-32-29-72.5-43.5t-86.5-14.5q-55 0-102 20t-81 54.5-53 82-19 101.5 19 101.5 53 82 81 54.5 102 20q46 0 86.5-14.5t72.5-43.5v50h86v-500h-86v50zM299 73q54 0 94.5 23t62.5 58v192q-22 35-62.5 58t-94.5 23q-37 0-67.5-13.5t-53-37.5-35-56.5-12.5-69.5 12.5-69.5 35-56.5 53-37.5 67.5-13.5z" glyph-name="a" horiz-adv-x="617" unicode="&#x61;"/><glyph d="M75 710h86v-260q31 29 71.5 43.5t87.5 14.5q55 0 102-20t81-54.5 53-82 19-101.5-19-101.5-53-82-81-54.5-102-20q-47 0-87.5 14.5t-71.5 43.5v-50h-86v710zM318 427q-54 0-95-23t-62-58v-192q21-35 62-58t95-23q37 0 67.5 13.5t53 37.5 35 56.5 12.5 69.5-12.5 69.5-35 56.5-53 37.5-67.5 13.5z" glyph-name="b" horiz-adv-x="617" unicode="&#x62;"/><glyph d="M298-8q-56 0-103 20t-81 55-53.5 82-19.5 101 19.5 101 53.5 82 81 55 103 20q63 0 110.5-22.5t80.5-56.5l-55-60q-24 24-57.5 41t-78.5 17q-37 0-67.5-13.5t-53-37.5-35-56.5-12.5-69.5 12.5-69.5 35-56.5 53-37.5 67.5-13.5q45 0 78.5 17t57.5 41l55-60q-33-34-80.5-56.5t-110.5-22.5z" glyph-name="c" horiz-adv-x="517" unicode="&#x63;"/><glyph d="M456 0v50q-31-29-71.5-43.5t-87.5-14.5q-55 0-102 20t-81 54.5-53 82-19 101.5 19 101.5 53 82 81 54.5 102 20q47 0 87.5-14.5t71.5-43.5v260h86v-710h-86zM299 427q-37 0-67.5-13.5t-53-37.5-35-56.5-12.5-69.5 12.5-69.5 35-56.5 53-37.5 67.5-13.5q54 0 95 23t62 58v192q-21 35-62 58t-95 23z" glyph-name="d" horiz-adv-x="617" unicode="&#x64;"/><glyph d="M298-8q-56 0-103 20t-81 55-53.5 82-19.5 101 19.5 101.5 53.5 82 79.5 54.5 98.5 20q56 0 101.5-20.5t77-57.5 48.5-88.5 17-112.5h-406q3-36 18-65t37.5-49 51.5-31 61-11q48 0 85 18t61 42l55-60q-32-34-83.5-57.5t-117.5-23.5zM287 429q-23 0-47-7t-45-22.5-37-39-23-56.5h304q-9 62-52 94t-100 31z" glyph-name="e" horiz-adv-x="569" unicode="&#x65;"/><glyph d="M113 422h-86v78h84q-17 17-27 39.5t-10 48.5 10.5 48.5 29.5 39 46 25.5 60 9h118v-78h-104q-32 0-54-15.5t-22-47.5q0-33 22-50t47-19h111v-78h-139v-422h-86v422z" glyph-name="f" horiz-adv-x="352" unicode="&#x66;"/><glyph d="M291-194q-54 0-111 15t-102 44l45 73q32-23 76.5-37.5t94.5-14.5q33 0 63 6.5t53.5 21.5 37.5 39 14 59q0 13-3 31t-10 32q-62-60-159-60-56 0-101.5 19t-77.5 52-50 78-18 97 18 97.5 50 78.5 77.5 52 101.5 19q48 0 86.5-15t69.5-44v51h86v-398q10-26 14.5-51t4.5-47q0-54-22.5-91.5t-59.5-61.5-83.5-34.5-94.5-10.5zM292 95q54 0 94 23.5t60 58.5v169q-20 35-60 58t-94 23q-36 0-65.5-12.5t-50.5-35-32.5-52.5-11.5-66q0-35 11.5-65.5t32.5-53 50.5-35 65.5-12.5z" glyph-name="g" horiz-adv-x="611" unicode="&#x67;"/><glyph d="M75 710h86v-267q29 36 70 50.5t85 14.5q42 0 77.5-14.5t61-40.5 40-64 14.5-84v-305h-86v300q0 55-33.5 91t-92.5 36q-53 0-87.5-27.5t-48.5-76.5v-323h-86v710z" glyph-name="h" horiz-adv-x="578" unicode="&#x68;"/><glyph d="M75 500h86v-500h-86v500zM75 609q-19 17-19 46 0 26 18 44.5t44 18.5 44-18.5 18-44.5q0-29-19-46h-86z" glyph-name="i" horiz-adv-x="236" unicode="&#x69;"/><glyph d="M-21-106h30q42 0 58 21t16 59v526h86v-539q0-72-39.5-108.5t-111.5-36.5h-39v78zM83 609q-19 17-19 46 0 26 18 44.5t44 18.5 44-18.5 18-44.5q0-29-19-46h-86z" glyph-name="j" horiz-adv-x="244" unicode="&#x6a;"/><glyph d="M75 710h86v-436l221 226h113l-232-235 255-265h-116l-241 250v-250h-86v710z" glyph-name="k" horiz-adv-x="512" unicode="&#x6b;"/><glyph d="M75 710h86v-710h-86v710z" glyph-name="l" horiz-adv-x="236" unicode="&#x6c;"/><glyph d="M398 300q0 55-30.5 91t-84.5 36q-44 0-75.5-24.5t-46.5-69.5v-333h-86v500h86v-55q28 35 65.5 49t75.5 14q56 0 92.5-23.5t58.5-58.5q29 42 73.5 62t93.5 20q43 0 77.5-14.5t58.5-40.5 37-64 13-84v-305h-86v300q0 55-30 91t-84 36q-42 0-74-23.5t-49-77.5q1-5 1-11v-315h-86v300z" glyph-name="m" horiz-adv-x="875" unicode="&#x6d;"/><glyph d="M75 500h86v-57q29 36 70 50.5t85 14.5q42 0 77.5-14.5t61-40.5 40-64 14.5-84v-305h-86v300q0 55-33.5 91t-92.5 36q-53 0-87.5-27.5t-48.5-76.5v-323h-86v500z" glyph-name="n" horiz-adv-x="578" unicode="&#x6e;"/><glyph d="M301-8q-57 0-104.5 20t-82 55-54 82-19.5 101 19.5 101 54 82 82 55 104.5 20q56 0 103.5-20t82-55 54-82 19.5-101-19.5-101-54-82-82-55-103.5-20zM301 73q38 0 69.5 13.5t54 37.5 34.5 56.5 12 69.5-12 69.5-34.5 56.5-54 37.5-69.5 13.5-69.5-13.5-54-37.5-35-56.5-12.5-69.5 12.5-69.5 35-56.5 54-37.5 69.5-13.5z" glyph-name="o" horiz-adv-x="602" unicode="&#x6f;"/><glyph d="M161 500v-50q31 29 71.5 43.5t87.5 14.5q55 0 102-20t81-54.5 53-82 19-101.5-19-101.5-53-82-81-54.5-102-20q-47 0-87.5 14.5t-71.5 43.5v-234h-86v684h86zM318 73q37 0 67.5 13.5t53 37.5 35 56.5 12.5 69.5-12.5 69.5-35 56.5-53 37.5-67.5 13.5q-54 0-95-23t-62-58v-192q21-35 62-58t95-23z" glyph-name="p" horiz-adv-x="617" unicode="&#x70;"/><glyph d="M542-184h-86v234q-31-29-71.5-43.5t-87.5-14.5q-55 0-102 20t-81 54.5-53 82-19 101.5 19 101.5 53 82 81 54.5 102 20q47 0 87.5-14.5t71.5-43.5v50h86v-684zM299 73q54 0 95 23t62 58v192q-21 35-62 58t-95 23q-37 0-67.5-13.5t-53-37.5-35-56.5-12.5-69.5 12.5-69.5 35-56.5 53-37.5 67.5-13.5z" glyph-name="q" horiz-adv-x="617" unicode="&#x71;"/><glyph d="M75 500h86v-59q26 32 61 48t77 16q18 0 35-3v-89q-21 6-48 6-41 0-74.5-20t-50.5-59v-340h-86v500z" glyph-name="r" horiz-adv-x="351" unicode="&#x72;"/><glyph d="M207-8q-56 0-101.5 24.5t-75.5 75.5l68 46q20-33 45.5-51t65.5-18q37 0 63 17t26 46-20 46.5-65 33.5l-39 15q-66 25-92.5 64t-26.5 84q0 28 11.5 52.5t32.5 42.5 49.5 28 62.5 10q48 0 87.5-22t62.5-68l-67-39q-25 52-83 52-29 0-50-14.5t-21-40.5q0-23 14.5-41.5t58.5-34.5l41-15q64-23 97-58.5t33-91.5q0-30-12.5-56t-35.5-45.5-55.5-30.5-73.5-11z" glyph-name="s" horiz-adv-x="420" unicode="&#x73;"/><glyph d="M258 0q-72 0-111.5 36.5t-39.5 108.5v277h-80l-19 78h99v107l86 43v-150h151l-19-78h-132v-264q0-38 16-59t58-21h67v-78h-76z" glyph-name="t" horiz-adv-x="364" unicode="&#x74;"/><glyph d="M416 56q-29-36-69.5-50t-84.5-14q-43 0-78.5 14.5t-61 40.5-39.5 63.5-14 84.5v305h86v-300q0-55 33.5-91t91.5-36q52 0 86.5 26t49.5 74v327h86v-500h-86v56z" glyph-name="u" horiz-adv-x="577" unicode="&#x75;"/><glyph d="M-4 500h97l167-338 168 338h97l-265-508z" glyph-name="v" horiz-adv-x="520" unicode="&#x76;"/><glyph d="M11 500h89l112-364 138 372 138-372 112 364h89l-158-500h-69l-112 304-111-304h-70z" glyph-name="w" horiz-adv-x="700" unicode="&#x77;"/><glyph d="M205 254l-185 246h99l139-184 137 184h99l-185-246 195-254h-100l-147 194-147-194h-100z" glyph-name="x" horiz-adv-x="514" unicode="&#x78;"/><glyph d="M210 42l-204 458h93l156-364 157 364h93l-307-684h-91z" glyph-name="y" horiz-adv-x="507" unicode="&#x79;"/><glyph d="M308 422h-260v78h411l-291-422h281v-78h-433z" glyph-name="z" horiz-adv-x="486" unicode="&#x7a;"/><glyph d="M280.982-141v71h-38.9971q-36.998 0-47.9971 17.5t-10.999 55.5v186q0 46-11 71-10.999 25-41.9971 40 30.998 14 41.9971 39 11 25 11 71v187q0 38 10.999 55.5t47.9971 17.5h38.9971v71h-49.9961q-70.9961 0-98.4941-37-27.499-37-27.499-107v-191q0-35-10.499-53t-47.4971-18h-15.999v-71h15.999q36.998 0 47.4971-18t10.499-53v-190q0-71 28.499-107.5 28.498-36.5 99.4932-36.5h47.9971z" glyph-name="braceleft" horiz-adv-x="316" unicode="&#x7b;"/><glyph d="M89 710h79v-894h-79v894z" glyph-name="bar" horiz-adv-x="257" unicode="&#x7c;"/><glyph d="M35-141v71h39q37 0 48 17.5t11 55.5v186q0 46 11 71t42 40q-31 14-42 39t-11 71v187q0 38-11 55.5t-48 17.5h-39v71h50q71 0 98.5-37t27.5-107v-191q0-35 10.5-53t47.5-18h16v-71h-16q-37 0-47.5-18t-10.5-53v-190q0-71-28.5-107.5t-99.5-36.5h-48z" glyph-name="braceright" horiz-adv-x="316" unicode="&#x7d;"/><glyph glyph-name="uni00A0" horiz-adv-x="250" unicode="&#xa0;"/><glyph d="M126 508q32 0 53.5-21.5t21.5-52.5q0-20-9.5-36t-24.5-25h-80q-16 9-25 25t-9 36q0 31 21.5 52.5t51.5 21.5zM155 281l16-197v-268h-87v268l16 197h55z" glyph-name="exclamdown" horiz-adv-x="255" unicode="&#xa1;"/><glyph d="M53 80h90v224h-90v74h91q-25 26-39 60.5t-14 72.5q0 42 15.5 80t44 66 68 44.5 86.5 16.5q46 0 85-16.5t67.5-45.5 44.5-67.5 16-81.5h-87q0 27-9 51t-25.5 42-40 28.5-51.5 10.5q-29 0-52.5-9.5t-40-27-26-41-9.5-50.5 9.5-51.5 26-42.5 40-28.5 52.5-10.5h82v-74h-157v-224h315v-80h-492v80z" glyph-name="sterling" horiz-adv-x="580" unicode="&#xa3;"/><glyph d="M131 345h127l-232 365h106l200-319 200 319h106l-232-365h126v-74h-154v-73h154v-74h-154v-124h-92v124h-155v74h155v73h-155v74z" glyph-name="yen" horiz-adv-x="664" unicode="&#xa5;"/><glyph d="M114 571q-25 0-43 17t-18 43q0 25 17.5 42t43.5 17q25 0 42.5-17t17.5-42q0-27-18.5-43.5t-41.5-16.5zM-111 571q-25 0-43 17t-18 43q0 25 17.5 42t43.5 17q25 0 42.5-17t17.5-42q0-27-18.5-43.5t-41.5-16.5z" glyph-name="dieresis" unicode="&#xa8;"/><glyph d="M408-9q-75 0-141 28.5t-115.5 78-78 115.5-28.5 141 28.5 141 78 115.5 115.5 78.5 141 29 141-29 115.5-78.5 78-115.5 28.5-141-28.5-141-78-115.5-115.5-78-141-28.5zM408 54q61 0 114.5 23.5t93.5 64.5 63 95.5 23 117.5-23 117.5-63 95-93.5 64-114.5 23.5q-60 0-113.5-23.5t-93.5-64-63-95-23-117.5 23-117.5 63-95.5 93.5-64.5 113.5-23.5zM426 183q-36 0-67.5 13t-54.5 36-36.5 54.5-13.5 68.5q0 36 13.5 67.5t36.5 55 54.5 36.5 67.5 13q65 0 110-43l-39-51q-13 11-30.5 20t-40.5 9-41.5-8.5-32-23-21-34-7.5-41.5 7.5-41.5 21-34 32-23 41.5-8.5 40 8.5 31 20.5l39-51q-43-43-110-43z" glyph-name="copyright" horiz-adv-x="816" unicode="&#xa9;"/><glyph d="M244 250l152 221 62-42-123-179 123-179-62-42zM42 250l152 221 62-42-123-179 123-179-62-42z" glyph-name="guillemotleft" horiz-adv-x="509" unicode="&#xab;"/><glyph d="M66 318h243v-89h-243v89z" glyph-name="uni00AD" horiz-adv-x="375" unicode="&#xad;"/><glyph d="M-146 679h292v-65h-292v65z" glyph-name="macron" unicode="&#xaf;"/><glyph d="M166 470q-25 0-47.5 9.5t-39 26-26 39-9.5 47.5 9.5 47.5 26 39 39 26 47.5 9.5 47.5-9.5 39-26 26-39 9.5-47.5-9.5-47.5-26-39-39-26-47.5-9.5zM166 525q28 0 47 20t19 47-19 46.5-47 19.5q-27 0-47-19.5t-20-46.5 20-47 47-20z" glyph-name="degree" horiz-adv-x="332" unicode="&#xb0;"/><glyph d="M98.9941 710h-108.993l-84.9951-160h70.9961z" glyph-name="acute" unicode="&#xb4;"/><glyph d="M135 175q-30 0-52 21.5t-22 52.5q0 32 22.5 53t51.5 21 51.5-21 22.5-53q0-31-22-52.5t-52-21.5z" glyph-name="periodcentered" horiz-adv-x="270" unicode="&#xb7;"/><glyph d="M9 0h59l-54-165h-98z" glyph-name="cedilla" unicode="&#xb8;"/><glyph d="M253 71l123 179-123 179 62 42 152-221-152-221zM51 71l123 179-123 179 62 42 152-221-152-221z" glyph-name="guillemotright" horiz-adv-x="509" unicode="&#xbb;"/><glyph d="M214 372q-15 10-24.5 26t-9.5 36q0 31 21.5 52.5t53.5 21.5q30 0 51.5-21.5t21.5-52.5q0-20-9-36t-25-26h-80zM258-194q-45 0-84.5 16.5t-69 45-46 67.5-16.5 84 16.5 84 46 67.5 69 45 84.5 16.5h60v-79h-60q-29 0-53-10.5t-41-28.5-27-42.5-10-52.5q0-29 10-53.5t27-42.5 41-28 53-10 53 10 41 28 26.5 42.5 9.5 53.5h85q0-45-16.5-84t-45.5-67.5-68.5-45-84.5-16.5z" glyph-name="questiondown" horiz-adv-x="502" unicode="&#xbf;"/><glyph d="M339 718l346-718h-98l-88 186h-320l-88-186h-98zM459 270l-120 254-120-254h240zM184 913h109l77-145h-73z" glyph-name="Agrave" horiz-adv-x="678" unicode="&#xc0;"/><glyph d="M339 718l346-718h-98l-88 186h-320l-88-186h-98zM459 270l-120 254-120-254h240zM489.97 913h-108.993l-76.9951-145h72.9951z" glyph-name="Aacute" horiz-adv-x="678" unicode="&#xc1;"/><glyph d="M339 718l346-718h-98l-88 186h-320l-88-186h-98zM459 270l-120 254-120-254h240zM166 826l173 100 173-100-35-60-138 82-138-82z" glyph-name="Acircumflex" horiz-adv-x="678" unicode="&#xc2;"/><glyph d="M339 718l346-718h-98l-88 186h-320l-88-186h-98zM459 270l-120 254-120-254h240zM169 803q9 45 38.5 69.5t64.5 24.5q21 0 38.5-7t33-15 29-15 25.5-7q21 0 32 11t16 33h66l-3-18q-8-42-36.5-68t-66.5-26q-21 0-39 7t-33.5 15-29 15-26.5 7q-20 0-30.5-11t-15.5-34h-66z" glyph-name="Atilde" horiz-adv-x="678" unicode="&#xc3;"/><glyph d="M339 718l346-718h-98l-88 186h-320l-88-186h-98zM459 270l-120 254-120-254h240zM453 785q-25 0-43 17t-18 43q0 25 17.5 42t43.5 17q25 0 42.5-17t17.5-42q0-27-18.5-43.5t-41.5-16.5zM228 785q-25 0-43 17t-18 43q0 25 17.5 42t43.5 17q25 0 42.5-17t17.5-42q0-27-18.5-43.5t-41.5-16.5z" glyph-name="Adieresis" horiz-adv-x="678" unicode="&#xc4;"/><glyph d="M339 718l346-718h-98l-88 186h-320l-88-186h-98zM459 270l-120 254-120-254h240zM339 751q-21 0-39 7t-31.5 20-21 30-7.5 37q0 42 29 68.5t70 26.5 70-26.5 29-68.5q0-20-7.5-37t-21-30-31.5-20-39-7zM339 798q20 0 34 13t14 34q0 22-14 35t-34 13-34-13-14-35q0-21 14-34t34-13z" glyph-name="Aring" horiz-adv-x="678" unicode="&#xc5;"/><glyph d="M2 0l299 621-42 89h399l42-88h-306l104-215h262l42-88h-262l111-231h306l43-88h-404l-88 186h-320l-88-186h-98zM468 270l-120 253-120-253h240z" glyph-name="AE" horiz-adv-x="998" unicode="&#xc6;"/><glyph d="M409-8q-76 0-142.5 27.5t-115.5 76.5-77 115.5-28 143.5 28 143.5 77 115 115.5 76.5 142.5 28q47 0 89.5-10.5t79-29 66-43 49.5-52.5l-65-57q-35 48-91.5 76.5t-127.5 28.5q-58 0-107.5-21t-85.5-58.5-56.5-88-20.5-108.5q0-59 20.5-109t56.5-87.5 85.5-58.5 107.5-21q71 0 127.5 28.5t91.5 76.5l65-57q-20-28-49.5-52.5t-66-43-79-29-89.5-10.5zM406 0h59l-54-165h-98z" glyph-name="Ccedilla" horiz-adv-x="722" unicode="&#xc7;"/><glyph d="M95 710h410v-88h-319v-215h259v-88h-259v-231h319v-88h-410v710zM152 913h109l77-145h-73z" glyph-name="Egrave" horiz-adv-x="555" unicode="&#xc8;"/><glyph d="M95 710h410v-88h-319v-215h259v-88h-259v-231h319v-88h-410v710zM457.972 913h-108.993l-76.9951-145h72.9951z" glyph-name="Eacute" horiz-adv-x="555" unicode="&#xc9;"/><glyph d="M95 710h410v-88h-319v-215h259v-88h-259v-231h319v-88h-410v710zM134 826l173 100 173-100-35-60-138 82-138-82z" glyph-name="Ecircumflex" horiz-adv-x="555" unicode="&#xca;"/><glyph d="M95 710h410v-88h-319v-215h259v-88h-259v-231h319v-88h-410v710zM421 785q-25 0-43 17t-18 43q0 25 17.5 42t43.5 17q25 0 42.5-17t17.5-42q0-27-18.5-43.5t-41.5-16.5zM196 785q-25 0-43 17t-18 43q0 25 17.5 42t43.5 17q25 0 42.5-17t17.5-42q0-27-18.5-43.5t-41.5-16.5z" glyph-name="Edieresis" horiz-adv-x="555" unicode="&#xcb;"/><glyph d="M95 710h91v-710h-91v710zM-15 913h109l77-145h-73z" glyph-name="Igrave" horiz-adv-x="281" unicode="&#xcc;"/><glyph d="M95 710h91v-710h-91v710zM290.982 913h-108.993l-76.9961-145h72.9961z" glyph-name="Iacute" horiz-adv-x="281" unicode="&#xcd;"/><glyph d="M95 710h91v-710h-91v710zM-33 826l173 100 173-100-35-60-138 82-138-82z" glyph-name="Icircumflex" horiz-adv-x="281" unicode="&#xce;"/><glyph d="M95 710h91v-710h-91v710zM254 785q-25 0-43 17t-18 43q0 25 17.5 42t43.5 17q25 0 42.5-17t17.5-42q0-27-18.5-43.5t-41.5-16.5zM29 785q-25 0-43 17t-18 43q0 25 17.5 42t43.5 17q25 0 42.5-17t17.5-42q0-27-18.5-43.5t-41.5-16.5z" glyph-name="Idieresis" horiz-adv-x="281" unicode="&#xcf;"/><glyph d="M129 710h211q82 0 151.5-27t120-74.5 79-112.5 28.5-141-28.5-141-79-112.5-120-74.5-151.5-27h-211v710zM340 85q64 0 117 20.5t90.5 56.5 58 85.5 20.5 107.5-20.5 107.5-58 85.5-90.5 56.5-117 20.5h-120v-540h120zM8 393h333v-74h-333v74z" glyph-name="Eth" horiz-adv-x="765" unicode="&#xd0;"/><glyph d="M186 505v-505h-91v718l506-513v505h91v-718zM218 803q9 45 38.5 69.5t64.5 24.5q21 0 38.5-7t33-15 29-15 25.5-7q21 0 32 11t16 33h66l-3-18q-8-42-36.5-68t-66.5-26q-21 0-39 7t-33.5 15-29 15-26.5 7q-20 0-30.5-11t-15.5-34h-66z" glyph-name="Ntilde" horiz-adv-x="787" unicode="&#xd1;"/><glyph d="M409-8q-76 0-142.5 27.5t-115.5 76.5-77 115.5-28 143.5 28 143.5 77 115 115.5 76.5 142.5 28 142.5-28 115.5-76.5 77-115 28-143.5-28-143.5-77-115.5-115.5-76.5-142.5-27.5zM409 79q58 0 107.5 21t85.5 58.5 56.5 87.5 20.5 109q0 58-20.5 108.5t-56.5 88-85.5 58.5-107.5 21-107.5-21-85.5-58.5-56.5-88-20.5-108.5q0-59 20.5-109t56.5-87.5 85.5-58.5 107.5-21zM255 913h109l77-145h-73z" glyph-name="Ograve" horiz-adv-x="818" unicode="&#xd2;"/><glyph d="M409-8q-76 0-142.5 27.5t-115.5 76.5-77 115.5-28 143.5 28 143.5 77 115 115.5 76.5 142.5 28 142.5-28 115.5-76.5 77-115 28-143.5-28-143.5-77-115.5-115.5-76.5-142.5-27.5zM409 79q58 0 107.5 21t85.5 58.5 56.5 87.5 20.5 109q0 58-20.5 108.5t-56.5 88-85.5 58.5-107.5 21-107.5-21-85.5-58.5-56.5-88-20.5-108.5q0-59 20.5-109t56.5-87.5 85.5-58.5 107.5-21zM560.966 913h-108.993l-76.9951-145h72.9951z" glyph-name="Oacute" horiz-adv-x="818" unicode="&#xd3;"/><glyph d="M409-8q-76 0-142.5 27.5t-115.5 76.5-77 115.5-28 143.5 28 143.5 77 115 115.5 76.5 142.5 28 142.5-28 115.5-76.5 77-115 28-143.5-28-143.5-77-115.5-115.5-76.5-142.5-27.5zM409 79q58 0 107.5 21t85.5 58.5 56.5 87.5 20.5 109q0 58-20.5 108.5t-56.5 88-85.5 58.5-107.5 21-107.5-21-85.5-58.5-56.5-88-20.5-108.5q0-59 20.5-109t56.5-87.5 85.5-58.5 107.5-21zM237 826l173 100 173-100-35-60-138 82-138-82z" glyph-name="Ocircumflex" horiz-adv-x="818" unicode="&#xd4;"/><glyph d="M409-8q-76 0-142.5 27.5t-115.5 76.5-77 115.5-28 143.5 28 143.5 77 115 115.5 76.5 142.5 28 142.5-28 115.5-76.5 77-115 28-143.5-28-143.5-77-115.5-115.5-76.5-142.5-27.5zM409 79q58 0 107.5 21t85.5 58.5 56.5 87.5 20.5 109q0 58-20.5 108.5t-56.5 88-85.5 58.5-107.5 21-107.5-21-85.5-58.5-56.5-88-20.5-108.5q0-59 20.5-109t56.5-87.5 85.5-58.5 107.5-21zM240 802q9 45 38.5 69.5t64.5 24.5q21 0 38.5-7t33-15 29-15 25.5-7q21 0 32 11t16 33h66l-3-18q-8-42-36.5-68t-66.5-26q-21 0-39 7t-33.5 15-29 15-26.5 7q-20 0-30.5-11t-15.5-34h-66z" glyph-name="Otilde" horiz-adv-x="818" unicode="&#xd5;"/><glyph d="M409-8q-76 0-142.5 27.5t-115.5 76.5-77 115.5-28 143.5 28 143.5 77 115 115.5 76.5 142.5 28 142.5-28 115.5-76.5 77-115 28-143.5-28-143.5-77-115.5-115.5-76.5-142.5-27.5zM409 79q58 0 107.5 21t85.5 58.5 56.5 87.5 20.5 109q0 58-20.5 108.5t-56.5 88-85.5 58.5-107.5 21-107.5-21-85.5-58.5-56.5-88-20.5-108.5q0-59 20.5-109t56.5-87.5 85.5-58.5 107.5-21zM524 784q-25 0-43 17t-18 43q0 25 17.5 42t43.5 17q25 0 42.5-17t17.5-42q0-27-18.5-43.5t-41.5-16.5zM299 784q-25 0-43 17t-18 43q0 25 17.5 42t43.5 17q25 0 42.5-17t17.5-42q0-27-18.5-43.5t-41.5-16.5z" glyph-name="Odieresis" horiz-adv-x="818" unicode="&#xd6;"/><glyph d="M98 119l148 148-150 149 50 49 149-149 148 147 49-49-147-147 149-150-49-49-150 149-147-147z" glyph-name="multiply" horiz-adv-x="590" unicode="&#xd7;"/><glyph d="M70-11l84 105-2 2q-49 49-77 115.5t-28 143.5 28 143.5 77 115 115.5 76.5 142.5 28 142-28q29-13 55-29l85 107 58-46-85-106 3-3q49-48 77-114.5t28-143.5-28-143.5-77-115.5-115.5-76.5-142.5-27.5-143 27q-30 13-56 29l-84-105zM410 79q58 0 107.5 21t85.5 58.5 56.5 87.5 20.5 109q0 58-21 108-19 47-50 82l-342-427q17-10 35-18 50-21 108-21zM517 610q-49 21-107 21t-107.5-21-85.5-58.5-56.5-88-20.5-108.5q0-59 20-109 19-46 50-81l342 427q-17 10-35 18z" glyph-name="Oslash" horiz-adv-x="820" unicode="&#xd8;"/><glyph d="M369-8q-62 0-114 19t-89.5 55-58.5 87.5-21 116.5v440h91v-444q0-46 14-81t39.5-58.5 60.5-35.5 78-12 78 12 60.5 35.5 39.5 58.5 14 81v444h91v-440q0-65-21-116.5t-58.5-87.5-89.5-55-114-19zM212 913h109l77-145h-73z" glyph-name="Ugrave" horiz-adv-x="738" unicode="&#xd9;"/><glyph d="M369-8q-62 0-114 19t-89.5 55-58.5 87.5-21 116.5v440h91v-444q0-46 14-81t39.5-58.5 60.5-35.5 78-12 78 12 60.5 35.5 39.5 58.5 14 81v444h91v-440q0-65-21-116.5t-58.5-87.5-89.5-55-114-19zM517.969 913h-108.994l-76.9951-145h72.9961z" glyph-name="Uacute" horiz-adv-x="738" unicode="&#xda;"/><glyph d="M369-8q-62 0-114 19t-89.5 55-58.5 87.5-21 116.5v440h91v-444q0-46 14-81t39.5-58.5 60.5-35.5 78-12 78 12 60.5 35.5 39.5 58.5 14 81v444h91v-440q0-65-21-116.5t-58.5-87.5-89.5-55-114-19zM194 826l173 100 173-100-35-60-138 82-138-82z" glyph-name="Ucircumflex" horiz-adv-x="738" unicode="&#xdb;"/><glyph d="M369-8q-62 0-114 19t-89.5 55-58.5 87.5-21 116.5v440h91v-444q0-46 14-81t39.5-58.5 60.5-35.5 78-12 78 12 60.5 35.5 39.5 58.5 14 81v444h91v-440q0-65-21-116.5t-58.5-87.5-89.5-55-114-19zM481 785q-25 0-43 17t-18 43q0 25 17.5 42t43.5 17q25 0 42.5-17t17.5-42q0-27-18.5-43.5t-41.5-16.5zM256 785q-25 0-43 17t-18 43q0 25 17.5 42t43.5 17q25 0 42.5-17t17.5-42q0-27-18.5-43.5t-41.5-16.5z" glyph-name="Udieresis" horiz-adv-x="738" unicode="&#xdc;"/><glyph d="M268 301l-260 409h106l200-319 200 319h106l-260-409v-301h-92v301zM465.972 913h-108.993l-76.9961-145h72.9961z" glyph-name="Yacute" horiz-adv-x="628" unicode="&#xdd;"/><glyph d="M95 710h91v-136h102q57 0 103.5-15.5t79.5-44 51-68.5 18-89q0-50-18-90t-51-68.5-79.5-44-103.5-15.5h-102v-139h-91v710zM186 489v-266h101q78 0 119.5 35.5t41.5 98.5-41.5 97.5-119.5 34.5h-101z" glyph-name="Thorn" horiz-adv-x="580" unicode="&#xde;"/><glyph d="M420 56q0 35-13 64t-36.5 50-56.5 32.5-73 11.5v67l95 141h-175v-422h-86v565q0 72 39.5 108.5t111.5 36.5h39v-78h-30q-42 0-58-21t-16-59v-52h325l-151-224q86-26 128.5-84.5t42.5-135.5q0-52-19.5-96t-55-76-84-50-106.5-18v82q40 0 73 11.5t56.5 32.5 36.5 50 13 64z" glyph-name="germandbls" horiz-adv-x="543" unicode="&#xdf;"/><glyph d="M456 50q-32-29-72.5-43.5t-86.5-14.5q-55 0-102 20t-81 54.5-53 82-19 101.5 19 101.5 53 82 81 54.5 102 20q46 0 86.5-14.5t72.5-43.5v50h86v-500h-86v50zM299 73q54 0 94.5 23t62.5 58v192q-22 35-62.5 58t-94.5 23q-37 0-67.5-13.5t-53-37.5-35-56.5-12.5-69.5 12.5-69.5 35-56.5 53-37.5 67.5-13.5zM167 710h109l85-160h-71z" glyph-name="agrave" horiz-adv-x="617" unicode="&#xe0;"/><glyph d="M456 50q-32-29-72.5-43.5t-86.5-14.5q-55 0-102 20t-81 54.5-53 82-19 101.5 19 101.5 53 82 81 54.5 102 20q46 0 86.5-14.5t72.5-43.5v50h86v-500h-86v50zM299 73q54 0 94.5 23t62.5 58v192q-22 35-62.5 58t-94.5 23q-37 0-67.5-13.5t-53-37.5-35-56.5-12.5-69.5 12.5-69.5 35-56.5 53-37.5 67.5-13.5zM464.972 710h-108.993l-84.9951-160h70.9961z" glyph-name="aacute" horiz-adv-x="617" unicode="&#xe1;"/><glyph d="M456 50q-32-29-72.5-43.5t-86.5-14.5q-55 0-102 20t-81 54.5-53 82-19 101.5 19 101.5 53 82 81 54.5 102 20q46 0 86.5-14.5t72.5-43.5v50h86v-500h-86v50zM299 73q54 0 94.5 23t62.5 58v192q-22 35-62.5 58t-94.5 23q-37 0-67.5-13.5t-53-37.5-35-56.5-12.5-69.5 12.5-69.5 35-56.5 53-37.5 67.5-13.5zM474 609l-38-55-123 83-123-83-38 55 161 109z" glyph-name="acircumflex" horiz-adv-x="617" unicode="&#xe2;"/><glyph d="M456 50q-32-29-72.5-43.5t-86.5-14.5q-55 0-102 20t-81 54.5-53 82-19 101.5 19 101.5 53 82 81 54.5 102 20q46 0 86.5-14.5t72.5-43.5v50h86v-500h-86v50zM299 73q54 0 94.5 23t62.5 58v192q-22 35-62.5 58t-94.5 23q-37 0-67.5-13.5t-53-37.5-35-56.5-12.5-69.5 12.5-69.5 35-56.5 53-37.5 67.5-13.5zM144 585q9 45 38.5 69.5t64.5 24.5q21 0 38.5-7t33-15 29-15 25.5-7q21 0 32 11t16 33h66l-3-18q-8-42-36.5-68t-66.5-26q-21 0-39 7t-33.5 15-29 15-26.5 7q-20 0-30.5-11t-15.5-34h-66z" glyph-name="atilde" horiz-adv-x="617" unicode="&#xe3;"/><glyph d="M456 50q-32-29-72.5-43.5t-86.5-14.5q-55 0-102 20t-81 54.5-53 82-19 101.5 19 101.5 53 82 81 54.5 102 20q46 0 86.5-14.5t72.5-43.5v50h86v-500h-86v50zM299 73q54 0 94.5 23t62.5 58v192q-22 35-62.5 58t-94.5 23q-37 0-67.5-13.5t-53-37.5-35-56.5-12.5-69.5 12.5-69.5 35-56.5 53-37.5 67.5-13.5zM427 571q-25 0-43 17t-18 43q0 25 17.5 42t43.5 17q25 0 42.5-17t17.5-42q0-27-18.5-43.5t-41.5-16.5zM202 571q-25 0-43 17t-18 43q0 25 17.5 42t43.5 17q25 0 42.5-17t17.5-42q0-27-18.5-43.5t-41.5-16.5z" glyph-name="adieresis" horiz-adv-x="617" unicode="&#xe4;"/><glyph d="M456 50q-32-29-72.5-43.5t-86.5-14.5q-55 0-102 20t-81 54.5-53 82-19 101.5 19 101.5 53 82 81 54.5 102 20q46 0 86.5-14.5t72.5-43.5v50h86v-500h-86v50zM299 73q54 0 94.5 23t62.5 58v192q-22 35-62.5 58t-94.5 23q-37 0-67.5-13.5t-53-37.5-35-56.5-12.5-69.5 12.5-69.5 35-56.5 53-37.5 67.5-13.5zM313 566q-21 0-39 7t-31.5 20-21 30-7.5 37q0 42 29 68.5t70 26.5 70-26.5 29-68.5q0-20-7.5-37t-21-30-31.5-20-39-7zM313 613q20 0 34 13t14 34q0 22-14 35t-34 13-34-13-14-35q0-21 14-34t34-13z" glyph-name="aring" horiz-adv-x="617" unicode="&#xe5;"/><glyph d="M851 73q-32-34-83.5-57.5t-117.5-23.5q-58 0-112 24t-93 75q-45-53-98.5-76t-113.5-23q-91 0-145 44.5t-54 121.5q0 36 15 66t42 51.5 65 34 83 12.5q51 0 88.5-10.5t64.5-25.5v25q0 35-12 57.5t-31.5 35.5-44 18-50.5 5q-44 0-80-14.5t-62-36.5l-41 70q32 26 79.5 44t104.5 18q27 0 55-5t53-16 46.5-30.5 35.5-47.5q38 50 91 74.5t108 24.5q52 0 96.5-18.5t77-54 51-87.5 19.5-119h-407q4-36 19-65t38-49.5 51.5-31 60.5-10.5q48 0 85 18t61 42zM639 429q-23 0-47-7.5t-45-23-37.5-39-23.5-55.5h305q-9 62-52 94t-100 31zM237 73q56 0 95.5 22t59.5 55v56q-26 20-61 31.5t-85 11.5q-25 0-47-5.5t-39-17-27-28.5-10-40 9.5-39 25.5-26.5 36.5-15 42.5-4.5z" glyph-name="ae" horiz-adv-x="921" unicode="&#xe6;"/><glyph d="M298-8q-56 0-103 20t-81 55-53.5 82-19.5 101 19.5 101 53.5 82 81 55 103 20q63 0 110.5-22.5t80.5-56.5l-55-60q-24 24-57.5 41t-78.5 17q-37 0-67.5-13.5t-53-37.5-35-56.5-12.5-69.5 12.5-69.5 35-56.5 53-37.5 67.5-13.5q45 0 78.5 17t57.5 41l55-60q-33-34-80.5-56.5t-110.5-22.5zM269 0h59l-54-165h-98z" glyph-name="ccedilla" horiz-adv-x="517" unicode="&#xe7;"/><glyph d="M298-8q-56 0-103 20t-81 55-53.5 82-19.5 101 19.5 101.5 53.5 82 79.5 54.5 98.5 20q56 0 101.5-20.5t77-57.5 48.5-88.5 17-112.5h-406q3-36 18-65t37.5-49 51.5-31 61-11q48 0 85 18t61 42l55-60q-32-34-83.5-57.5t-117.5-23.5zM287 429q-23 0-47-7t-45-22.5-37-39-23-56.5h304q-9 62-52 94t-100 31zM146 710h109l85-160h-71z" glyph-name="egrave" horiz-adv-x="569" unicode="&#xe8;"/><glyph d="M298-8q-56 0-103 20t-81 55-53.5 82-19.5 101 19.5 101.5 53.5 82 79.5 54.5 98.5 20q56 0 101.5-20.5t77-57.5 48.5-88.5 17-112.5h-406q3-36 18-65t37.5-49 51.5-31 61-11q48 0 85 18t61 42l55-60q-32-34-83.5-57.5t-117.5-23.5zM287 429q-23 0-47-7t-45-22.5-37-39-23-56.5h304q-9 62-52 94t-100 31zM443.973 710h-108.993l-84.9951-160h70.9961z" glyph-name="eacute" horiz-adv-x="569" unicode="&#xe9;"/><glyph d="M298-8q-56 0-103 20t-81 55-53.5 82-19.5 101 19.5 101.5 53.5 82 79.5 54.5 98.5 20q56 0 101.5-20.5t77-57.5 48.5-88.5 17-112.5h-406q3-36 18-65t37.5-49 51.5-31 61-11q48 0 85 18t61 42l55-60q-32-34-83.5-57.5t-117.5-23.5zM287 429q-23 0-47-7t-45-22.5-37-39-23-56.5h304q-9 62-52 94t-100 31zM453 609l-38-55-123 83-123-83-38 55 161 109z" glyph-name="ecircumflex" horiz-adv-x="569" unicode="&#xea;"/><glyph d="M298-8q-56 0-103 20t-81 55-53.5 82-19.5 101 19.5 101.5 53.5 82 79.5 54.5 98.5 20q56 0 101.5-20.5t77-57.5 48.5-88.5 17-112.5h-406q3-36 18-65t37.5-49 51.5-31 61-11q48 0 85 18t61 42l55-60q-32-34-83.5-57.5t-117.5-23.5zM287 429q-23 0-47-7t-45-22.5-37-39-23-56.5h304q-9 62-52 94t-100 31zM406 571q-25 0-43 17t-18 43q0 25 17.5 42t43.5 17q25 0 42.5-17t17.5-42q0-27-18.5-43.5t-41.5-16.5zM181 571q-25 0-43 17t-18 43q0 25 17.5 42t43.5 17q25 0 42.5-17t17.5-42q0-27-18.5-43.5t-41.5-16.5z" glyph-name="edieresis" horiz-adv-x="569" unicode="&#xeb;"/><glyph d="M75 500h86v-500h-86v500zM-28 710h109l85-160h-71z" glyph-name="igrave" horiz-adv-x="236" unicode="&#xec;"/><glyph d="M75 500h86v-500h-86v500zM269.983 710h-108.993l-84.9951-160h70.9961z" glyph-name="iacute" horiz-adv-x="236" unicode="&#xed;"/><glyph d="M75 500h86v-500h-86v500zM279 609l-38-55-123 83-123-83-38 55 161 109z" glyph-name="icircumflex" horiz-adv-x="236" unicode="&#xee;"/><glyph d="M75 500h86v-500h-86v500zM17 571q-25 0-43 17t-18 43q0 24 17.5 41.5t43.5 17.5q25 0 42.5-17.5t17.5-41.5q0-26-18-43t-42-17zM220 571q-25 0-43 17t-18 43q0 24 17.5 41.5t43.5 17.5q25 0 42.5-17.5t17.5-41.5q0-26-18-43t-42-17z" glyph-name="idieresis" horiz-adv-x="236" unicode="&#xef;"/><glyph d="M175 628h86l-56 82h94l57-82h124v-65h-80l106-153q30-45 42-83t12-77q0-53-19.5-100t-54-82-82.5-55.5-104-20.5-103.5 20.5-82 55.5-54 82-19.5 100q0 52 18.5 98.5t52 81.5 79.5 55.5 101 22.5q12 0 25-1.5t32-6.5l-43 63h-131v65zM300 71q39 0 70.5 14t54 38.5 35 57 12.5 69.5-12.5 69.5-35 57-54 38.5-70.5 14q-38 0-70-14t-54.5-38.5-35-57-12.5-69.5 12.5-69.5 35-57 54.5-38.5 70-14z" glyph-name="eth" horiz-adv-x="602" unicode="&#xf0;"/><glyph d="M75 500h86v-57q29 36 70 50.5t85 14.5q42 0 77.5-14.5t61-40.5 40-64 14.5-84v-305h-86v300q0 55-33.5 91t-92.5 36q-53 0-87.5-27.5t-48.5-76.5v-323h-86v500zM141 585q9 45 38.5 69.5t64.5 24.5q21 0 38.5-7t33-15 29-15 25.5-7q21 0 32 11t16 33h66l-3-18q-8-42-36.5-68t-66.5-26q-21 0-39 7t-33.5 15-29 15-26.5 7q-20 0-30.5-11t-15.5-34h-66z" glyph-name="ntilde" horiz-adv-x="578" unicode="&#xf1;"/><glyph d="M301-8q-57 0-104.5 20t-82 55-54 82-19.5 101 19.5 101 54 82 82 55 104.5 20q56 0 103.5-20t82-55 54-82 19.5-101-19.5-101-54-82-82-55-103.5-20zM301 73q38 0 69.5 13.5t54 37.5 34.5 56.5 12 69.5-12 69.5-34.5 56.5-54 37.5-69.5 13.5-69.5-13.5-54-37.5-35-56.5-12.5-69.5 12.5-69.5 35-56.5 54-37.5 69.5-13.5zM155 710h109l85-160h-71z" glyph-name="ograve" horiz-adv-x="602" unicode="&#xf2;"/><glyph d="M301-8q-57 0-104.5 20t-82 55-54 82-19.5 101 19.5 101 54 82 82 55 104.5 20q56 0 103.5-20t82-55 54-82 19.5-101-19.5-101-54-82-82-55-103.5-20zM301 73q38 0 69.5 13.5t54 37.5 34.5 56.5 12 69.5-12 69.5-34.5 56.5-54 37.5-69.5 13.5-69.5-13.5-54-37.5-35-56.5-12.5-69.5 12.5-69.5 35-56.5 54-37.5 69.5-13.5zM452.973 710h-108.994l-84.9941-160h70.9951z" glyph-name="oacute" horiz-adv-x="602" unicode="&#xf3;"/><glyph d="M301-8q-57 0-104.5 20t-82 55-54 82-19.5 101 19.5 101 54 82 82 55 104.5 20q56 0 103.5-20t82-55 54-82 19.5-101-19.5-101-54-82-82-55-103.5-20zM301 73q38 0 69.5 13.5t54 37.5 34.5 56.5 12 69.5-12 69.5-34.5 56.5-54 37.5-69.5 13.5-69.5-13.5-54-37.5-35-56.5-12.5-69.5 12.5-69.5 35-56.5 54-37.5 69.5-13.5zM462 609l-38-55-123 83-123-83-38 55 161 109z" glyph-name="ocircumflex" horiz-adv-x="602" unicode="&#xf4;"/><glyph d="M301-8q-57 0-104.5 20t-82 55-54 82-19.5 101 19.5 101 54 82 82 55 104.5 20q56 0 103.5-20t82-55 54-82 19.5-101-19.5-101-54-82-82-55-103.5-20zM301 73q38 0 69.5 13.5t54 37.5 34.5 56.5 12 69.5-12 69.5-34.5 56.5-54 37.5-69.5 13.5-69.5-13.5-54-37.5-35-56.5-12.5-69.5 12.5-69.5 35-56.5 54-37.5 69.5-13.5zM132 585q9 45 38.5 69.5t64.5 24.5q21 0 38.5-7t33-15 29-15 25.5-7q21 0 32 11t16 33h66l-3-18q-8-42-36.5-68t-66.5-26q-21 0-39 7t-33.5 15-29 15-26.5 7q-20 0-30.5-11t-15.5-34h-66z" glyph-name="otilde" horiz-adv-x="602" unicode="&#xf5;"/><glyph d="M301-8q-57 0-104.5 20t-82 55-54 82-19.5 101 19.5 101 54 82 82 55 104.5 20q56 0 103.5-20t82-55 54-82 19.5-101-19.5-101-54-82-82-55-103.5-20zM301 73q38 0 69.5 13.5t54 37.5 34.5 56.5 12 69.5-12 69.5-34.5 56.5-54 37.5-69.5 13.5-69.5-13.5-54-37.5-35-56.5-12.5-69.5 12.5-69.5 35-56.5 54-37.5 69.5-13.5zM415 571q-25 0-43 17t-18 43q0 25 17.5 42t43.5 17q25 0 42.5-17t17.5-42q0-27-18.5-43.5t-41.5-16.5zM190 571q-25 0-43 17t-18 43q0 25 17.5 42t43.5 17q25 0 42.5-17t17.5-42q0-27-18.5-43.5t-41.5-16.5z" glyph-name="odieresis" horiz-adv-x="602" unicode="&#xf6;"/><glyph d="M296 348q-26 0-47 18.5t-21 48.5q0 28 19.5 47t48.5 19q28 0 47-19t19-47q0-29-19.5-48t-46.5-19zM76 310h438v-70h-438v70zM296 68q-26 0-47 18.5t-21 48.5q0 28 19.5 47t48.5 19q28 0 47-19t19-47q0-29-19.5-48t-46.5-19z" glyph-name="divide" horiz-adv-x="590" unicode="&#xf7;"/><glyph d="M39-12l71 86q-29 33-47 75-19 47-19 101t19.5 101 54 82 82 55 104.5 20q56 0 103-20 18-8 34-17l74 89 54-45-74-88q30-33 48-76 20-47 20-101t-19.5-101-54-82-82-55-103.5-20q-57 0-105 20-18 7-35 17l-71-86zM304 73q38 0 69.5 13.5t54 37.5 34.5 56.5 12 69.5-12 69q-9 23-22 41l-222-266 16-8q32-13 70-13zM373 413q-31 14-69 14t-69.5-13.5-54-37.5-35-56.5-12.5-69.5 12-70q9-21 21-39l221 265q-6 4-14 7z" glyph-name="oslash" horiz-adv-x="607" unicode="&#xf8;"/><glyph d="M416 56q-29-36-69.5-50t-84.5-14q-43 0-78.5 14.5t-61 40.5-39.5 63.5-14 84.5v305h86v-300q0-55 33.5-91t91.5-36q52 0 86.5 26t49.5 74v327h86v-500h-86v56zM139 710h109l85-160h-71z" glyph-name="ugrave" horiz-adv-x="577" unicode="&#xf9;"/><glyph d="M416 56q-29-36-69.5-50t-84.5-14q-43 0-78.5 14.5t-61 40.5-39.5 63.5-14 84.5v305h86v-300q0-55 33.5-91t91.5-36q52 0 86.5 26t49.5 74v327h86v-500h-86v56zM436.974 710h-108.993l-84.9951-160h70.9951z" glyph-name="uacute" horiz-adv-x="577" unicode="&#xfa;"/><glyph d="M416 56q-29-36-69.5-50t-84.5-14q-43 0-78.5 14.5t-61 40.5-39.5 63.5-14 84.5v305h86v-300q0-55 33.5-91t91.5-36q52 0 86.5 26t49.5 74v327h86v-500h-86v56zM446 609l-38-55-123 83-123-83-38 55 161 109z" glyph-name="ucircumflex" horiz-adv-x="577" unicode="&#xfb;"/><glyph d="M416 56q-29-36-69.5-50t-84.5-14q-43 0-78.5 14.5t-61 40.5-39.5 63.5-14 84.5v305h86v-300q0-55 33.5-91t91.5-36q52 0 86.5 26t49.5 74v327h86v-500h-86v56zM399 571q-25 0-43 17t-18 43q0 25 17.5 42t43.5 17q25 0 42.5-17t17.5-42q0-27-18.5-43.5t-41.5-16.5zM174 571q-25 0-43 17t-18 43q0 25 17.5 42t43.5 17q25 0 42.5-17t17.5-42q0-27-18.5-43.5t-41.5-16.5z" glyph-name="udieresis" horiz-adv-x="577" unicode="&#xfc;"/><glyph d="M210 42l-204 458h93l156-364 157 364h93l-307-684h-91zM408.975 710h-108.993l-84.9941-160h70.9951z" glyph-name="yacute" horiz-adv-x="507" unicode="&#xfd;"/><glyph d="M75-184v894h86v-260q31 29 71.5 43.5t87.5 14.5q55 0 102-20t81-54.5 53-82 19-101.5-19-101.5-53-82-81-54.5-102-20q-47 0-87.5 14.5t-71.5 43.5v-234h-86zM318 427q-54 0-95-23t-62-58v-192q21-35 62-58t95-23q37 0 67.5 13.5t53 37.5 35 56.5 12.5 69.5-12.5 69.5-35 56.5-53 37.5-67.5 13.5z" glyph-name="thorn" horiz-adv-x="617" unicode="&#xfe;"/><glyph d="M210 42l-204 458h93l156-364 157 364h93l-307-684h-91zM371 571q-25 0-43 17t-18 43q0 25 17.5 42t43.5 17q25 0 42.5-17t17.5-42q0-27-18.5-43.5t-41.5-16.5zM146 571q-25 0-43 17t-18 43q0 25 17.5 42t43.5 17q25 0 42.5-17t17.5-42q0-27-18.5-43.5t-41.5-16.5z" glyph-name="ydieresis" horiz-adv-x="507" unicode="&#xff;"/><glyph d="M339 718l346-718h-98l-88 186h-320l-88-186h-98zM459 270l-120 254-120-254h240zM338 772q-35 0-63 11t-48.5 29.5-32 43.5-12.5 53h64q2-31 26-55t67-24 67.5 24 26.5 55h64q-2-28-13.5-53t-32-43.5-49-29.5-64.5-11z" glyph-name="Abreve" horiz-adv-x="678" unicode="&#x102;"/><glyph d="M339 718l346-718h-98l-88 186h-320l-88-186h-98zM459 270l-120 254-120-254h240zM193 868h292v-65h-292v65z" glyph-name="Amacron" horiz-adv-x="678" unicode="&#x100;"/><glyph d="M339 718l346-718q-41-18-61.5-40.5t-20.5-45.5q0-19 12.5-30t37.5-11q11 0 19 2.5t14 4.5v-59q-14-8-29.5-10.5t-32.5-2.5q-21 0-40.5 5.5t-34.5 16-24.5 27-9.5 37.5q0 18 6.5 34.5t17 30 23.5 24 25 17.5l-88 186h-320l-88-186h-98zM459 270l-120 254-120-254h240z" glyph-name="Aogonek" horiz-adv-x="678" unicode="&#x104;"/><glyph d="M409-8q-76 0-142.5 27.5t-115.5 76.5-77 115.5-28 143.5 28 143.5 77 115 115.5 76.5 142.5 28q47 0 89.5-10.5t79-29 66-43 49.5-52.5l-65-57q-35 48-91.5 76.5t-127.5 28.5q-58 0-107.5-21t-85.5-58.5-56.5-88-20.5-108.5q0-59 20.5-109t56.5-87.5 85.5-58.5 107.5-21q71 0 127.5 28.5t91.5 76.5l65-57q-20-28-49.5-52.5t-66-43-79-29-89.5-10.5zM559.966 913h-108.993l-76.9951-145h72.9951z" glyph-name="Cacute" horiz-adv-x="722" unicode="&#x106;"/><glyph d="M409-8q-76 0-142.5 27.5t-115.5 76.5-77 115.5-28 143.5 28 143.5 77 115 115.5 76.5 142.5 28q47 0 89.5-10.5t79-29 66-43 49.5-52.5l-65-57q-35 48-91.5 76.5t-127.5 28.5q-58 0-107.5-21t-85.5-58.5-56.5-88-20.5-108.5q0-59 20.5-109t56.5-87.5 85.5-58.5 107.5-21q71 0 127.5 28.5t91.5 76.5l65-57q-20-28-49.5-52.5t-66-43-79-29-89.5-10.5zM581.965 865.947l-172.99-99.9941-172.989 99.9941 34.998 59.9961 137.991-81.9951 137.992 81.9951z" glyph-name="Ccaron" horiz-adv-x="722" unicode="&#x10c;"/><glyph d="M409-8q-76 0-142.5 27.5t-115.5 76.5-77 115.5-28 143.5 28 143.5 77 115 115.5 76.5 142.5 28q47 0 89.5-10.5t79-29 66-43 49.5-52.5l-65-57q-35 48-91.5 76.5t-127.5 28.5q-58 0-107.5-21t-85.5-58.5-56.5-88-20.5-108.5q0-59 20.5-109t56.5-87.5 85.5-58.5 107.5-21q71 0 127.5 28.5t91.5 76.5l65-57q-20-28-49.5-52.5t-66-43-79-29-89.5-10.5zM236 826l173 100 173-100-35-60-138 82-138-82z" glyph-name="Ccircumflex" horiz-adv-x="722" unicode="&#x108;"/><glyph d="M409-8q-76 0-142.5 27.5t-115.5 76.5-77 115.5-28 143.5 28 143.5 77 115 115.5 76.5 142.5 28q47 0 89.5-10.5t79-29 66-43 49.5-52.5l-65-57q-35 48-91.5 76.5t-127.5 28.5q-58 0-107.5-21t-85.5-58.5-56.5-88-20.5-108.5q0-59 20.5-109t56.5-87.5 85.5-58.5 107.5-21q71 0 127.5 28.5t91.5 76.5l65-57q-20-28-49.5-52.5t-66-43-79-29-89.5-10.5zM409 785q-24 0-42.5 16.5t-18.5 43.5q0 25 17.5 42t43.5 17q25 0 42-17t17-42q0-26-17.5-43t-41.5-17z" glyph-name="Cdotaccent" horiz-adv-x="722" unicode="&#x10a;"/><glyph d="M95 710h211q82 0 151.5-27t120-74.5 79-112.5 28.5-141-28.5-141-79-112.5-120-74.5-151.5-27h-211v710zM306 85q64 0 117 20.5t90.5 56.5 58 85.5 20.5 107.5-20.5 107.5-58 85.5-90.5 56.5-117 20.5h-120v-540h120zM510.969 865.947l-172.989-99.9941-172.989 99.9941 34.998 59.9961 137.991-81.9951 137.991 81.9951z" glyph-name="Dcaron" horiz-adv-x="731" unicode="&#x10e;"/><glyph d="M129 710h211q82 0 151.5-27t120-74.5 79-112.5 28.5-141-28.5-141-79-112.5-120-74.5-151.5-27h-211v710zM340 85q64 0 117 20.5t90.5 56.5 58 85.5 20.5 107.5-20.5 107.5-58 85.5-90.5 56.5-117 20.5h-120v-540h120zM8 393h333v-74h-333v74z" glyph-name="Dcroat" horiz-adv-x="765" unicode="&#x110;"/><glyph d="M95 710h410v-88h-319v-215h259v-88h-259v-231h319v-88h-410v710zM306 772q-35 0-63 11t-48.5 29.5-32 43.5-12.5 53h64q2-31 26-55t67-24 67.5 24 26.5 55h64q-2-28-13.5-53t-32-43.5-49-29.5-64.5-11z" glyph-name="Ebreve" horiz-adv-x="555" unicode="&#x114;"/><glyph d="M95 710h410v-88h-319v-215h259v-88h-259v-231h319v-88h-410v710zM479.971 865.947l-172.989-99.9941-172.989 99.9941 34.9971 59.9961 137.992-81.9951 137.991 81.9951z" glyph-name="Ecaron" horiz-adv-x="555" unicode="&#x11a;"/><glyph d="M95 710h410v-88h-319v-215h259v-88h-259v-231h319v-88h-410v710zM161 868h292v-65h-292v65z" glyph-name="Emacron" horiz-adv-x="555" unicode="&#x112;"/><glyph d="M95 710h410v-88h-319v-215h259v-88h-259v-231h319v-88h-410v710zM444-192q-21 0-40.5 5.5t-34.5 16-24.5 27-9.5 37.5q0 18 7.5 35t18.5 30.5 25 24 28 16.5h91q-41-18-61.5-40.5t-20.5-45.5q0-19 12.5-30t37.5-11q11 0 19 2.5t14 4.5v-59q-14-8-29.5-10.5t-32.5-2.5z" glyph-name="Eogonek" horiz-adv-x="555" unicode="&#x118;"/><glyph d="M95 710h410v-88h-319v-215h259v-88h-259v-231h319v-88h-410v710zM307 785q-24 0-42.5 16.5t-18.5 43.5q0 25 17.5 42t43.5 17q25 0 42-17t17-42q0-26-17.5-43t-41.5-17z" glyph-name="Edotaccent" horiz-adv-x="555" unicode="&#x116;"/><glyph d="M409-8q-76 0-142.5 27.5t-115.5 76.5-77 115.5-28 143.5 28 143.5 77 115 115.5 76.5 142.5 28q41 0 80.5-8.5t74-24 63.5-36.5 50-46l-65-58q-36 39-87 62.5t-116 23.5q-58 0-107.5-21t-85.5-58.5-56.5-88-20.5-108.5q0-59 20.5-109t56.5-87.5 85.5-58.5 107.5-21q60 0 106.5 15.5t74.5 37.5v187h-218l39 88h270v-317q-16-19-43.5-36.5t-62.5-31-77.5-22-88.5-8.5zM388 772q-35 0-63 11t-48.5 29.5-32 43.5-12.5 53h64q2-31 26-55t67-24 67.5 24 26.5 55h64q-2-28-13.5-53t-32-43.5-49-29.5-64.5-11z" glyph-name="Gbreve" horiz-adv-x="742" unicode="&#x11e;"/><glyph d="M409-8q-76 0-142.5 27.5t-115.5 76.5-77 115.5-28 143.5 28 143.5 77 115 115.5 76.5 142.5 28q41 0 80.5-8.5t74-24 63.5-36.5 50-46l-65-58q-36 39-87 62.5t-116 23.5q-58 0-107.5-21t-85.5-58.5-56.5-88-20.5-108.5q0-59 20.5-109t56.5-87.5 85.5-58.5 107.5-21q60 0 106.5 15.5t74.5 37.5v187h-218l39 88h270v-317q-16-19-43.5-36.5t-62.5-31-77.5-22-88.5-8.5zM216 826l173 100 173-100-35-60-138 82-138-82z" glyph-name="Gcircumflex" horiz-adv-x="742" unicode="&#x11c;"/><glyph d="M409-8q-76 0-142.5 27.5t-115.5 76.5-77 115.5-28 143.5 28 143.5 77 115 115.5 76.5 142.5 28q41 0 80.5-8.5t74-24 63.5-36.5 50-46l-65-58q-36 39-87 62.5t-116 23.5q-58 0-107.5-21t-85.5-58.5-56.5-88-20.5-108.5q0-59 20.5-109t56.5-87.5 85.5-58.5 107.5-21q60 0 106.5 15.5t74.5 37.5v187h-218l39 88h270v-317q-16-19-43.5-36.5t-62.5-31-77.5-22-88.5-8.5zM352-50h100l-104-165h-65z" glyph-name="uni0122" horiz-adv-x="742" unicode="&#x122;"/><glyph d="M409-8q-76 0-142.5 27.5t-115.5 76.5-77 115.5-28 143.5 28 143.5 77 115 115.5 76.5 142.5 28q41 0 80.5-8.5t74-24 63.5-36.5 50-46l-65-58q-36 39-87 62.5t-116 23.5q-58 0-107.5-21t-85.5-58.5-56.5-88-20.5-108.5q0-59 20.5-109t56.5-87.5 85.5-58.5 107.5-21q60 0 106.5 15.5t74.5 37.5v187h-218l39 88h270v-317q-16-19-43.5-36.5t-62.5-31-77.5-22-88.5-8.5zM389 785q-24 0-42.5 16.5t-18.5 43.5q0 25 17.5 42t43.5 17q25 0 42-17t17-42q0-26-17.5-43t-41.5-17z" glyph-name="Gdotaccent" horiz-adv-x="742" unicode="&#x120;"/><glyph d="M97 710h91v-303h392v303h91v-710h-91v319h-392v-319h-91v710zM34 596h700v-74h-700v74z" glyph-name="Hbar" horiz-adv-x="768" unicode="&#x126;"/><glyph d="M95 710h91v-303h392v303h91v-710h-91v319h-392v-319h-91v710zM209 826l173 100 173-100-35-60-138 82-138-82z" glyph-name="Hcircumflex" horiz-adv-x="764" unicode="&#x124;"/><glyph d="M95 710h91v-710h-91v710zM139 772q-35 0-63 11t-48.5 29.5-32 43.5-12.5 53h64q2-31 26-55t67-24 67.5 24 26.5 55h64q-2-28-13.5-53t-32-43.5-49-29.5-64.5-11z" glyph-name="Ibreve" horiz-adv-x="281" unicode="&#x12c;"/><glyph d="M95 710h91v-710h-91v710zM140 785q-24 0-42.5 16.5t-18.5 43.5q0 25 17.5 42t43.5 17q25 0 42-17t17-42q0-26-17.5-43t-41.5-17z" glyph-name="Idotaccent" horiz-adv-x="281" unicode="&#x130;"/><glyph d="M95 710h91v-710h-91v710zM-6 868h292v-65h-292v65z" glyph-name="Imacron" horiz-adv-x="281" unicode="&#x12a;"/><glyph d="M95 710h91v-710h-91v710zM125-192q-21 0-40.5 5.5t-34.5 16-24.5 27-9.5 37.5q0 18 7.5 35t18.5 30.5 25 24 28 16.5h91q-41-18-61.5-40.5t-20.5-45.5q0-19 12.5-30t37.5-11q11 0 19 2.5t14 4.5v-59q-14-8-29.5-10.5t-32.5-2.5z" glyph-name="Iogonek" horiz-adv-x="281" unicode="&#x12e;"/><glyph d="M95 710h91v-710h-91v710zM-30 803q9 45 38.5 69.5t64.5 24.5q21 0 38.5-7t33-15 29-15 25.5-7q21 0 32 11t16 33h66l-3-18q-8-42-36.5-68t-66.5-26q-21 0-39 7t-33.5 15-29 15-26.5 7q-20 0-30.5-11t-15.5-34h-66z" glyph-name="Itilde" horiz-adv-x="281" unicode="&#x128;"/><glyph d="M95 710h91v-710h-91v710zM141-189q-24 0-42.5 16.5t-18.5 43.5q0 25 17.5 42t43.5 17q25 0 42-17t17-42q0-26-17.5-43t-41.5-17z" glyph-name="uni1ECA" horiz-adv-x="281" unicode="&#x1eca;"/><glyph d="M228-8q-43 0-80.5 13.5t-65.5 39.5-44.5 64.5-16.5 88.5h91q0-30 9-52.5t25-37.5 36.5-22 44.5-7q51 0 84 29t33 90v512h91v-518q0-50-16.5-87.5t-45-62.5-66-37.5-79.5-12.5zM216 826l173 100 173-100-35-60-138 82-138-82z" glyph-name="Jcircumflex" horiz-adv-x="523" unicode="&#x134;"/><glyph d="M95 710h91v-356l324 356h112l-328-361 355-349h-121l-342 337v-337h-91v710zM298-50h100l-104-165h-65z" glyph-name="uni0136" horiz-adv-x="641" unicode="&#x136;"/><glyph d="M95 710h91v-621h311v-89h-402v710zM292.982 913h-108.994l-76.9951-145h72.9961z" glyph-name="Lacute" horiz-adv-x="515" unicode="&#x139;"/><glyph d="M95 710h91v-621h311v-89h-402v710zM290 710h87l-51-165h-61z" glyph-name="Lcaron" horiz-adv-x="516" unicode="&#x13d;"/><glyph d="M95 710h91v-621h311v-89h-402v710zM241-50h100l-104-165h-65z" glyph-name="uni013B" horiz-adv-x="515" unicode="&#x13b;"/><glyph d="M95 710h91v-621h311v-89h-402v710zM391 320q-24 0-42.5 16.5t-18.5 43.5q0 25 17.5 42t43.5 17q25 0 42-17t17-42q0-26-17.5-43t-41.5-17z" glyph-name="Ldot" horiz-adv-x="521" unicode="&#x13f;"/><glyph d="M179 710h91v-621h311v-89h-402v710zM10 275l386 252 42-63-386-252z" glyph-name="Lslash" horiz-adv-x="600" unicode="&#x141;"/><glyph d="M186 505v-505h-91v718l506-513v505h91v-718zM538.967 913h-108.993l-76.9951-145h72.9951z" glyph-name="Nacute" horiz-adv-x="787" unicode="&#x143;"/><glyph d="M186 505v-505h-91v718l506-513v505h91v-718zM560.966 865.947l-172.989-99.9941-172.989 99.9941 34.9971 59.9961 137.992-81.9951 137.991 81.9951z" glyph-name="Ncaron" horiz-adv-x="787" unicode="&#x147;"/><glyph d="M186 505v-505h-91v718l506-513v505h91v-718zM369-50h100l-104-165h-65z" glyph-name="uni0145" horiz-adv-x="787" unicode="&#x145;"/><glyph d="M409-8q-76 0-142.5 27.5t-115.5 76.5-77 115.5-28 143.5 28 143.5 77 115 115.5 76.5 142.5 28q58 0 110-16.5t97-46.5v55h411v-88h-324v-51q26-35 42.5-76.5t22.5-87.5h198v-88h-196q-5-51-22-97t-45-84v-50h324v-88h-411v54q-45-29-97-45.5t-110-16.5zM409 79q58 0 107.5 21t85.5 58.5 56.5 87.5 20.5 109q0 58-20.5 108.5t-56.5 88-85.5 58.5-107.5 21-107.5-21-85.5-58.5-56.5-88-20.5-108.5q0-59 20.5-109t56.5-87.5 85.5-58.5 107.5-21z" glyph-name="OE" horiz-adv-x="1077" unicode="&#x152;"/><glyph d="M409-8q-76 0-142.5 27.5t-115.5 76.5-77 115.5-28 143.5 28 143.5 77 115 115.5 76.5 142.5 28 142.5-28 115.5-76.5 77-115 28-143.5-28-143.5-77-115.5-115.5-76.5-142.5-27.5zM409 79q58 0 107.5 21t85.5 58.5 56.5 87.5 20.5 109q0 58-20.5 108.5t-56.5 88-85.5 58.5-107.5 21-107.5-21-85.5-58.5-56.5-88-20.5-108.5q0-59 20.5-109t56.5-87.5 85.5-58.5 107.5-21zM409 772q-35 0-63 11t-48.5 29.5-32 43.5-12.5 53h64q2-31 26-55t67-24 67.5 24 26.5 55h64q-2-28-13.5-53t-32-43.5-49-29.5-64.5-11z" glyph-name="Obreve" horiz-adv-x="818" unicode="&#x14e;"/><glyph d="M409-8q-76 0-142.5 27.5t-115.5 76.5-77 115.5-28 143.5 28 143.5 77 115 115.5 76.5 142.5 28 142.5-28 115.5-76.5 77-115 28-143.5-28-143.5-77-115.5-115.5-76.5-142.5-27.5zM409 79q58 0 107.5 21t85.5 58.5 56.5 87.5 20.5 109q0 58-20.5 108.5t-56.5 88-85.5 58.5-107.5 21-107.5-21-85.5-58.5-56.5-88-20.5-108.5q0-59 20.5-109t56.5-87.5 85.5-58.5 107.5-21zM359 913h104l-113-145h-68zM559 913h104l-113-145h-68z" glyph-name="Ohungarumlaut" horiz-adv-x="818" unicode="&#x150;"/><glyph d="M409-8q-76 0-142.5 27.5t-115.5 76.5-77 115.5-28 143.5 28 143.5 77 115 115.5 76.5 142.5 28 142.5-28 115.5-76.5 77-115 28-143.5-28-143.5-77-115.5-115.5-76.5-142.5-27.5zM409 79q58 0 107.5 21t85.5 58.5 56.5 87.5 20.5 109q0 58-20.5 108.5t-56.5 88-85.5 58.5-107.5 21-107.5-21-85.5-58.5-56.5-88-20.5-108.5q0-59 20.5-109t56.5-87.5 85.5-58.5 107.5-21zM264 868h292v-65h-292v65z" glyph-name="Omacron" horiz-adv-x="818" unicode="&#x14c;"/><glyph d="M409-8q-76 0-142.5 27.5t-115.5 76.5-77 115.5-28 143.5 28 143.5 77 115 115.5 76.5 142.5 28 142.5-28 115.5-76.5 77-115 28-143.5-28-143.5-77-115.5-115.5-76.5-142.5-27.5zM409 79q58 0 107.5 21t85.5 58.5 56.5 87.5 20.5 109q0 58-20.5 108.5t-56.5 88-85.5 58.5-107.5 21-107.5-21-85.5-58.5-56.5-88-20.5-108.5q0-59 20.5-109t56.5-87.5 85.5-58.5 107.5-21zM410-189q-24 0-42.5 16.5t-18.5 43.5q0 25 17.5 42t43.5 17q25 0 42-17t17-42q0-26-17.5-43t-41.5-17z" glyph-name="uni1ECC" horiz-adv-x="818" unicode="&#x1ecc;"/><glyph d="M95 710h211q52 0 94-14t72-40.5 46-63.5 16-82q0-31-9-62t-29-57-52.5-46-78.5-29l246-316h-110l-237 310h-78v-310h-91v710zM300 391q70 0 105 31t35 86q0 56-35 87t-105 31h-114v-235h114zM450.973 913h-108.993l-76.9961-145h72.9961z" glyph-name="Racute" horiz-adv-x="619" unicode="&#x154;"/><glyph d="M95 710h211q52 0 94-14t72-40.5 46-63.5 16-82q0-31-9-62t-29-57-52.5-46-78.5-29l246-316h-110l-237 310h-78v-310h-91v710zM300 391q70 0 105 31t35 86q0 56-35 87t-105 31h-114v-235h114zM472.971 865.947l-172.989-99.9941-172.989 99.9941 34.998 59.9961 137.991-81.9951 137.992 81.9951z" glyph-name="Rcaron" horiz-adv-x="619" unicode="&#x158;"/><glyph d="M95 710h211q52 0 94-14t72-40.5 46-63.5 16-82q0-31-9-62t-29-57-52.5-46-78.5-29l246-316h-110l-237 310h-78v-310h-91v710zM300 391q70 0 105 31t35 86q0 56-35 87t-105 31h-114v-235h114zM282-50h100l-104-165h-65z" glyph-name="uni0156" horiz-adv-x="619" unicode="&#x156;"/><glyph d="M263-8q-78 0-138.5 32.5t-92.5 77.5l69 60q26-33 67.5-58t93.5-25q62 0 98 26.5t36 73.5q0 49-29.5 78t-86.5 54l-65 28q-81 35-118 84.5t-37 116.5q0 40 17.5 73t46.5 56.5 66.5 36 76.5 12.5q63 0 113-23.5t86-67.5l-64-64q-28 33-59.5 50.5t-78.5 17.5q-23 0-43-6t-36-18-25-29.5-9-39.5q0-39 24-67t81-53l65-28q36-16 66.5-35t53-43.5 35-55 12.5-67.5q0-44-15.5-80t-45-62-71-40.5-93.5-14.5zM417.975 913h-108.993l-76.9951-145h72.9951z" glyph-name="Sacute" horiz-adv-x="528" unicode="&#x15a;"/><glyph d="M263-8q-78 0-138.5 32.5t-92.5 77.5l69 60q26-33 67.5-58t93.5-25q62 0 98 26.5t36 73.5q0 49-29.5 78t-86.5 54l-65 28q-81 35-118 84.5t-37 116.5q0 40 17.5 73t46.5 56.5 66.5 36 76.5 12.5q63 0 113-23.5t86-67.5l-64-64q-28 33-59.5 50.5t-78.5 17.5q-23 0-43-6t-36-18-25-29.5-9-39.5q0-39 24-67t81-53l65-28q36-16 66.5-35t53-43.5 35-55 12.5-67.5q0-44-15.5-80t-45-62-71-40.5-93.5-14.5zM439.973 865.947l-172.989-99.9941-172.989 99.9941 34.998 59.9961 137.991-81.9951 137.992 81.9951z" glyph-name="Scaron" horiz-adv-x="528" unicode="&#x160;"/><glyph d="M263-8q-78 0-138.5 32.5t-92.5 77.5l69 60q26-33 67.5-58t93.5-25q62 0 98 26.5t36 73.5q0 49-29.5 78t-86.5 54l-65 28q-81 35-118 84.5t-37 116.5q0 40 17.5 73t46.5 56.5 66.5 36 76.5 12.5q63 0 113-23.5t86-67.5l-64-64q-28 33-59.5 50.5t-78.5 17.5q-23 0-43-6t-36-18-25-29.5-9-39.5q0-39 24-67t81-53l65-28q36-16 66.5-35t53-43.5 35-55 12.5-67.5q0-44-15.5-80t-45-62-71-40.5-93.5-14.5zM272 0h59l-54-165h-98z" glyph-name="Scedilla" horiz-adv-x="528" unicode="&#x15e;"/><glyph d="M263-8q-78 0-138.5 32.5t-92.5 77.5l69 60q26-33 67.5-58t93.5-25q62 0 98 26.5t36 73.5q0 49-29.5 78t-86.5 54l-65 28q-81 35-118 84.5t-37 116.5q0 40 17.5 73t46.5 56.5 66.5 36 76.5 12.5q63 0 113-23.5t86-67.5l-64-64q-28 33-59.5 50.5t-78.5 17.5q-23 0-43-6t-36-18-25-29.5-9-39.5q0-39 24-67t81-53l65-28q36-16 66.5-35t53-43.5 35-55 12.5-67.5q0-44-15.5-80t-45-62-71-40.5-93.5-14.5zM94 826l173 100 173-100-35-60-138 82-138-82z" glyph-name="Scircumflex" horiz-adv-x="528" unicode="&#x15c;"/><glyph d="M263-8q-78 0-138.5 32.5t-92.5 77.5l69 60q26-33 67.5-58t93.5-25q62 0 98 26.5t36 73.5q0 49-29.5 78t-86.5 54l-65 28q-81 35-118 84.5t-37 116.5q0 40 17.5 73t46.5 56.5 66.5 36 76.5 12.5q63 0 113-23.5t86-67.5l-64-64q-28 33-59.5 50.5t-78.5 17.5q-23 0-43-6t-36-18-25-29.5-9-39.5q0-39 24-67t81-53l65-28q36-16 66.5-35t53-43.5 35-55 12.5-67.5q0-44-15.5-80t-45-62-71-40.5-93.5-14.5zM206-50h100l-104-165h-65z" glyph-name="uni0218" horiz-adv-x="528" unicode="&#x218;"/><glyph d="M217 622h-201v88h494v-88h-202v-622h-91v622zM434.974 865.947l-172.989-99.9941-172.99 99.9941 34.998 59.9961 137.992-81.9951 137.991 81.9951z" glyph-name="Tcaron" horiz-adv-x="526" unicode="&#x164;"/><glyph d="M217 622h-201v88h494v-88h-202v-622h-91v622zM209-50h100l-104-165h-65z" glyph-name="uni0162" horiz-adv-x="526" unicode="&#x162;"/><glyph d="M217 622h-201v88h494v-88h-202v-622h-91v622zM209-50h100l-104-165h-65z" glyph-name="uni021A" horiz-adv-x="526" unicode="&#x21a;"/><glyph d="M369-8q-62 0-114 19t-89.5 55-58.5 87.5-21 116.5v440h91v-444q0-46 14-81t39.5-58.5 60.5-35.5 78-12 78 12 60.5 35.5 39.5 58.5 14 81v444h91v-440q0-65-21-116.5t-58.5-87.5-89.5-55-114-19zM366 772q-35 0-63 11t-48.5 29.5-32 43.5-12.5 53h64q2-31 26-55t67-24 67.5 24 26.5 55h64q-2-28-13.5-53t-32-43.5-49-29.5-64.5-11z" glyph-name="Ubreve" horiz-adv-x="738" unicode="&#x16c;"/><glyph d="M369-8q-62 0-114 19t-89.5 55-58.5 87.5-21 116.5v440h91v-444q0-46 14-81t39.5-58.5 60.5-35.5 78-12 78 12 60.5 35.5 39.5 58.5 14 81v444h91v-440q0-65-21-116.5t-58.5-87.5-89.5-55-114-19zM316 913h104l-113-145h-68zM516 913h104l-113-145h-68z" glyph-name="Uhungarumlaut" horiz-adv-x="738" unicode="&#x170;"/><glyph d="M369-8q-62 0-114 19t-89.5 55-58.5 87.5-21 116.5v440h91v-444q0-46 14-81t39.5-58.5 60.5-35.5 78-12 78 12 60.5 35.5 39.5 58.5 14 81v444h91v-440q0-65-21-116.5t-58.5-87.5-89.5-55-114-19zM221 868h292v-65h-292v65z" glyph-name="Umacron" horiz-adv-x="738" unicode="&#x16a;"/><glyph d="M369-8q-62 0-114 19t-89.5 55-58.5 87.5-21 116.5v440h91v-444q0-46 14-81t39.5-58.5 60.5-35.5 78-12 78 12 60.5 35.5 39.5 58.5 14 81v444h91v-440q0-65-21-116.5t-58.5-87.5-89.5-55-114-19zM378-192q-21 0-40.5 5.5t-34.5 16-24.5 27-9.5 37.5q0 18 7.5 35t18.5 30.5 25 24 28 16.5h91q-41-18-61.5-40.5t-20.5-45.5q0-19 12.5-30t37.5-11q11 0 19 2.5t14 4.5v-59q-14-8-29.5-10.5t-32.5-2.5z" glyph-name="Uogonek" horiz-adv-x="738" unicode="&#x172;"/><glyph d="M369-8q-62 0-114 19t-89.5 55-58.5 87.5-21 116.5v440h91v-444q0-46 14-81t39.5-58.5 60.5-35.5 78-12 78 12 60.5 35.5 39.5 58.5 14 81v444h91v-440q0-65-21-116.5t-58.5-87.5-89.5-55-114-19zM367 751q-21 0-39 7t-31.5 20-21 30-7.5 37q0 42 29 68.5t70 26.5 70-26.5 29-68.5q0-20-7.5-37t-21-30-31.5-20-39-7zM367 798q20 0 34 13t14 34q0 22-14 35t-34 13-34-13-14-35q0-21 14-34t34-13z" glyph-name="Uring" horiz-adv-x="738" unicode="&#x16e;"/><glyph d="M369-8q-62 0-114 19t-89.5 55-58.5 87.5-21 116.5v440h91v-444q0-46 14-81t39.5-58.5 60.5-35.5 78-12 78 12 60.5 35.5 39.5 58.5 14 81v444h91v-440q0-65-21-116.5t-58.5-87.5-89.5-55-114-19zM197 803q9 45 38.5 69.5t64.5 24.5q21 0 38.5-7t33-15 29-15 25.5-7q21 0 32 11t16 33h66l-3-18q-8-42-36.5-68t-66.5-26q-21 0-39 7t-33.5 15-29 15-26.5 7q-20 0-30.5-11t-15.5-34h-66z" glyph-name="Utilde" horiz-adv-x="738" unicode="&#x168;"/><glyph d="M369-8q-62 0-114 19t-89.5 55-58.5 87.5-21 116.5v440h91v-444q0-46 14-81t39.5-58.5 60.5-35.5 78-12 78 12 60.5 35.5 39.5 58.5 14 81v444h91v-440q0-65-21-116.5t-58.5-87.5-89.5-55-114-19zM370-189q-24 0-42.5 16.5t-18.5 43.5q0 25 17.5 42t43.5 17q25 0 42-17t17-42q0-26-17.5-43t-41.5-17z" glyph-name="uni1EE4" horiz-adv-x="738" unicode="&#x1ee4;"/><glyph d="M8 710h94l157-474 185 482 186-482 157 474h94l-244-718-193 500-192-500zM594.964 913h-108.993l-76.9961-145h72.9961z" glyph-name="Wacute" horiz-adv-x="889" unicode="&#x1e82;"/><glyph d="M8 710h94l157-474 185 482 186-482 157 474h94l-244-718-193 500-192-500zM271 826l173 100 173-100-35-60-138 82-138-82z" glyph-name="Wcircumflex" horiz-adv-x="889" unicode="&#x174;"/><glyph d="M8 710h94l157-474 185 482 186-482 157 474h94l-244-718-193 500-192-500zM558 785q-25 0-43 17t-18 43q0 25 17.5 42t43.5 17q25 0 42.5-17t17.5-42q0-27-18.5-43.5t-41.5-16.5zM333 785q-25 0-43 17t-18 43q0 25 17.5 42t43.5 17q25 0 42.5-17t17.5-42q0-27-18.5-43.5t-41.5-16.5z" glyph-name="Wdieresis" horiz-adv-x="889" unicode="&#x1e84;"/><glyph d="M8 710h94l157-474 185 482 186-482 157 474h94l-244-718-193 500-192-500zM289 913h109l77-145h-73z" glyph-name="Wgrave" horiz-adv-x="889" unicode="&#x1e80;"/><glyph d="M268 301l-260 409h106l200-319 200 319h106l-260-409v-301h-92v301zM142 826l173 100 173-100-35-60-138 82-138-82z" glyph-name="Ycircumflex" horiz-adv-x="628" unicode="&#x176;"/><glyph d="M268 301l-260 409h106l200-319 200 319h106l-260-409v-301h-92v301zM429 785q-25 0-43 17t-18 43q0 25 17.5 42t43.5 17q25 0 42.5-17t17.5-42q0-27-18.5-43.5t-41.5-16.5zM204 785q-25 0-43 17t-18 43q0 25 17.5 42t43.5 17q25 0 42.5-17t17.5-42q0-27-18.5-43.5t-41.5-16.5z" glyph-name="Ydieresis" horiz-adv-x="628" unicode="&#x178;"/><glyph d="M268 301l-260 409h106l200-319 200 319h106l-260-409v-301h-92v301zM160 913h109l77-145h-73z" glyph-name="Ygrave" horiz-adv-x="628" unicode="&#x1ef2;"/><glyph d="M268 301l-260 409h106l200-319 200 319h106l-260-409v-301h-92v301zM169 868h292v-65h-292v65z" glyph-name="uni0232" horiz-adv-x="628" unicode="&#x232;"/><glyph d="M404 622h-352v88h508l-395-622h397v-88h-553zM459.972 913h-108.993l-76.9951-145h72.9951z" glyph-name="Zacute" horiz-adv-x="593" unicode="&#x179;"/><glyph d="M404 622h-352v88h508l-395-622h397v-88h-553zM481.971 865.947l-172.989-99.9941-172.989 99.9941 34.9971 59.9961 137.992-81.9951 137.991 81.9951z" glyph-name="Zcaron" horiz-adv-x="593" unicode="&#x17d;"/><glyph d="M404 622h-352v88h508l-395-622h397v-88h-553zM309 785q-24 0-42.5 16.5t-18.5 43.5q0 25 17.5 42t43.5 17q25 0 42-17t17-42q0-26-17.5-43t-41.5-17z" glyph-name="Zdotaccent" horiz-adv-x="593" unicode="&#x17b;"/><glyph d="M95 710h441l-138-264q91-14 141-68t50-150q0-56-19-99t-52.5-71.5-80.5-43-103-14.5h-37v88h44q34 0 62.5 9t49.5 26.5 32.5 43.5 11.5 61-11.5 61-32.5 43.5-49.5 26.5-62.5 9h-44v77l94 181h-203v-626h-93v710z" glyph-name="uni1E9E" horiz-adv-x="634" unicode="&#x1e9e;"/><glyph d="M456 50q-32-29-72.5-43.5t-86.5-14.5q-55 0-102 20t-81 54.5-53 82-19 101.5 19 101.5 53 82 81 54.5 102 20q46 0 86.5-14.5t72.5-43.5v50h86v-500h-86v50zM299 73q54 0 94.5 23t62.5 58v192q-22 35-62.5 58t-94.5 23q-37 0-67.5-13.5t-53-37.5-35-56.5-12.5-69.5 12.5-69.5 35-56.5 53-37.5 67.5-13.5zM313 573q-74 0-114 39.5t-44 97.5h67q2-31 25-54.5t66-23.5 66 23.5 25 54.5h67q-4-58-44-97.5t-114-39.5z" glyph-name="abreve" horiz-adv-x="617" unicode="&#x103;"/><glyph d="M456 50q-32-29-72.5-43.5t-86.5-14.5q-55 0-102 20t-81 54.5-53 82-19 101.5 19 101.5 53 82 81 54.5 102 20q46 0 86.5-14.5t72.5-43.5v50h86v-500h-86v50zM299 73q54 0 94.5 23t62.5 58v192q-22 35-62.5 58t-94.5 23q-37 0-67.5-13.5t-53-37.5-35-56.5-12.5-69.5 12.5-69.5 35-56.5 53-37.5 67.5-13.5zM167 679h292v-65h-292v65z" glyph-name="amacron" horiz-adv-x="617" unicode="&#x101;"/><glyph d="M456 50q-32-29-72.5-43.5t-86.5-14.5q-55 0-102 20t-81 54.5-53 82-19 101.5 19 101.5 53 82 81 54.5 102 20q46 0 86.5-14.5t72.5-43.5v50h86v-500h-86v50zM299 73q54 0 94.5 23t62.5 58v192q-22 35-62.5 58t-94.5 23q-37 0-67.5-13.5t-53-37.5-35-56.5-12.5-69.5 12.5-69.5 35-56.5 53-37.5 67.5-13.5zM481-192q-21 0-40 5.5t-33.5 16-23 27-8.5 37.5q0 18 7.5 35t19 30.5 25.5 24 28 16.5h86q-41-18-61.5-40.5t-20.5-45.5q0-19 12.5-30t37.5-11q11 0 19 2.5t14 4.5v-59q-14-8-29.5-10.5t-32.5-2.5z" glyph-name="aogonek" horiz-adv-x="617" unicode="&#x105;"/><glyph d="M298-8q-56 0-103 20t-81 55-53.5 82-19.5 101 19.5 101 53.5 82 81 55 103 20q63 0 110.5-22.5t80.5-56.5l-55-60q-24 24-57.5 41t-78.5 17q-37 0-67.5-13.5t-53-37.5-35-56.5-12.5-69.5 12.5-69.5 35-56.5 53-37.5 67.5-13.5q45 0 78.5 17t57.5 41l55-60q-33-34-80.5-56.5t-110.5-22.5zM449.973 710h-108.993l-84.9951-160h70.9961z" glyph-name="cacute" horiz-adv-x="517" unicode="&#x107;"/><glyph d="M298-8q-56 0-103 20t-81 55-53.5 82-19.5 101 19.5 101 53.5 82 81 55 103 20q63 0 110.5-22.5t80.5-56.5l-55-60q-24 24-57.5 41t-78.5 17q-37 0-67.5-13.5t-53-37.5-35-56.5-12.5-69.5 12.5-69.5 35-56.5 53-37.5 67.5-13.5q45 0 78.5 17t57.5 41l55-60q-33-34-80.5-56.5t-110.5-22.5zM135.992 661.96l37.9971 54.9961 122.992-82.9951 122.993 82.9951 37.9971-54.9961-160.99-108.994z" glyph-name="ccaron" horiz-adv-x="517" unicode="&#x10d;"/><glyph d="M298-8q-56 0-103 20t-81 55-53.5 82-19.5 101 19.5 101 53.5 82 81 55 103 20q63 0 110.5-22.5t80.5-56.5l-55-60q-24 24-57.5 41t-78.5 17q-37 0-67.5-13.5t-53-37.5-35-56.5-12.5-69.5 12.5-69.5 35-56.5 53-37.5 67.5-13.5q45 0 78.5 17t57.5 41l55-60q-33-34-80.5-56.5t-110.5-22.5zM459 609l-38-55-123 83-123-83-38 55 161 109z" glyph-name="ccircumflex" horiz-adv-x="517" unicode="&#x109;"/><glyph d="M298-8q-56 0-103 20t-81 55-53.5 82-19.5 101 19.5 101 53.5 82 81 55 103 20q63 0 110.5-22.5t80.5-56.5l-55-60q-24 24-57.5 41t-78.5 17q-37 0-67.5-13.5t-53-37.5-35-56.5-12.5-69.5 12.5-69.5 35-56.5 53-37.5 67.5-13.5q45 0 78.5 17t57.5 41l55-60q-33-34-80.5-56.5t-110.5-22.5zM299 571q-24 0-42.5 16.5t-18.5 43.5q0 25 17.5 42t43.5 17q25 0 42-17t17-42q0-26-17.5-43t-41.5-17z" glyph-name="cdotaccent" horiz-adv-x="517" unicode="&#x10b;"/><glyph d="M456 0v50q-31-29-71.5-43.5t-87.5-14.5q-55 0-102 20t-81 54.5-53 82-19 101.5 19 101.5 53 82 81 54.5 102 20q47 0 87.5-14.5t71.5-43.5v260h86v-710h-86zM299 427q-37 0-67.5-13.5t-53-37.5-35-56.5-12.5-69.5 12.5-69.5 35-56.5 53-37.5 67.5-13.5q54 0 95 23t62 58v192q-21 35-62 58t-95 23zM628 710h87l-51-165h-61z" glyph-name="dcaron" horiz-adv-x="641" unicode="&#x10f;"/><glyph d="M456 0v50q-31-29-71.5-43.5t-87.5-14.5q-55 0-102 20t-81 54.5-53 82-19 101.5 19 101.5 53 82 81 54.5 102 20q47 0 87.5-14.5t71.5-43.5v260h86v-710h-86zM299 427q-37 0-67.5-13.5t-53-37.5-35-56.5-12.5-69.5 12.5-69.5 35-56.5 53-37.5 67.5-13.5q54 0 95 23t62 58v192q-21 35-62 58t-95 23zM285 638h327v-65h-327v65z" glyph-name="dcroat" horiz-adv-x="617" unicode="&#x111;"/><glyph d="M298-8q-56 0-103 20t-81 55-53.5 82-19.5 101 19.5 101.5 53.5 82 79.5 54.5 98.5 20q56 0 101.5-20.5t77-57.5 48.5-88.5 17-112.5h-406q3-36 18-65t37.5-49 51.5-31 61-11q48 0 85 18t61 42l55-60q-32-34-83.5-57.5t-117.5-23.5zM287 429q-23 0-47-7t-45-22.5-37-39-23-56.5h304q-9 62-52 94t-100 31zM292 573q-74 0-114 39.5t-44 97.5h67q2-31 25-54.5t66-23.5 66 23.5 25 54.5h67q-4-58-44-97.5t-114-39.5z" glyph-name="ebreve" horiz-adv-x="569" unicode="&#x115;"/><glyph d="M298-8q-56 0-103 20t-81 55-53.5 82-19.5 101 19.5 101.5 53.5 82 79.5 54.5 98.5 20q56 0 101.5-20.5t77-57.5 48.5-88.5 17-112.5h-406q3-36 18-65t37.5-49 51.5-31 61-11q48 0 85 18t61 42l55-60q-32-34-83.5-57.5t-117.5-23.5zM287 429q-23 0-47-7t-45-22.5-37-39-23-56.5h304q-9 62-52 94t-100 31zM129.992 661.96l37.998 54.9961 122.992-82.9951 122.992 82.9951 37.998-54.9961-160.99-108.994z" glyph-name="ecaron" horiz-adv-x="569" unicode="&#x11b;"/><glyph d="M298-8q-56 0-103 20t-81 55-53.5 82-19.5 101 19.5 101.5 53.5 82 79.5 54.5 98.5 20q56 0 101.5-20.5t77-57.5 48.5-88.5 17-112.5h-406q3-36 18-65t37.5-49 51.5-31 61-11q48 0 85 18t61 42l55-60q-32-34-83.5-57.5t-117.5-23.5zM287 429q-23 0-47-7t-45-22.5-37-39-23-56.5h304q-9 62-52 94t-100 31zM146 679h292v-65h-292v65z" glyph-name="emacron" horiz-adv-x="569" unicode="&#x113;"/><glyph d="M491-179q-14-8-29.5-10.5t-32.5-2.5q-23 0-43.5 6t-36 18-24.5 30-9 41q0 29 10.5 51.5t25.5 41.5q-23-4-54-4-56 0-103 20t-81 55-53.5 82-19.5 101 19.5 101.5 53.5 82 79.5 54.5 98.5 20q52 0 96.5-19t77-54.5 51.5-87.5 19-118h-406q3-38 19-67.5t39-49 52-29.5 58-10q48 0 85 18t61 42l55-60q-17-16-34.5-34t-31.5-37.5-23-39.5-9-40q0-26 16-37.5t41-11.5q11 0 19 2.5t14 4.5v-59zM287 429q-51 0-94.5-31.5t-57.5-93.5h304q-9 62-52 93.5t-100 31.5z" glyph-name="eogonek" horiz-adv-x="567" unicode="&#x119;"/><glyph d="M298-8q-56 0-103 20t-81 55-53.5 82-19.5 101 19.5 101.5 53.5 82 79.5 54.5 98.5 20q56 0 101.5-20.5t77-57.5 48.5-88.5 17-112.5h-406q3-36 18-65t37.5-49 51.5-31 61-11q48 0 85 18t61 42l55-60q-32-34-83.5-57.5t-117.5-23.5zM287 429q-23 0-47-7t-45-22.5-37-39-23-56.5h304q-9 62-52 94t-100 31zM293 571q-24 0-42.5 16.5t-18.5 43.5q0 25 17.5 42t43.5 17q25 0 42-17t17-42q0-26-17.5-43t-41.5-17z" glyph-name="edotaccent" horiz-adv-x="569" unicode="&#x117;"/><glyph d="M291-194q-54 0-111 15t-102 44l45 73q32-23 76.5-37.5t94.5-14.5q33 0 63 6.5t53.5 21.5 37.5 39 14 59q0 13-3 31t-10 32q-62-60-159-60-56 0-101.5 19t-77.5 52-50 78-18 97 18 97.5 50 78.5 77.5 52 101.5 19q48 0 86.5-15t69.5-44v51h86v-398q10-26 14.5-51t4.5-47q0-54-22.5-91.5t-59.5-61.5-83.5-34.5-94.5-10.5zM292 95q54 0 94 23.5t60 58.5v169q-20 35-60 58t-94 23q-36 0-65.5-12.5t-50.5-35-32.5-52.5-11.5-66q0-35 11.5-65.5t32.5-53 50.5-35 65.5-12.5zM290 573q-74 0-114 39.5t-44 97.5h67q2-31 25-54.5t66-23.5 66 23.5 25 54.5h67q-4-58-44-97.5t-114-39.5z" glyph-name="gbreve" horiz-adv-x="611" unicode="&#x11f;"/><glyph d="M291-194q-54 0-111 15t-102 44l45 73q32-23 76.5-37.5t94.5-14.5q33 0 63 6.5t53.5 21.5 37.5 39 14 59q0 13-3 31t-10 32q-62-60-159-60-56 0-101.5 19t-77.5 52-50 78-18 97 18 97.5 50 78.5 77.5 52 101.5 19q48 0 86.5-15t69.5-44v51h86v-398q10-26 14.5-51t4.5-47q0-54-22.5-91.5t-59.5-61.5-83.5-34.5-94.5-10.5zM292 95q54 0 94 23.5t60 58.5v169q-20 35-60 58t-94 23q-36 0-65.5-12.5t-50.5-35-32.5-52.5-11.5-66q0-35 11.5-65.5t32.5-53 50.5-35 65.5-12.5zM451 609l-38-55-123 83-123-83-38 55 161 109z" glyph-name="gcircumflex" horiz-adv-x="611" unicode="&#x11d;"/><glyph d="M291-194q-54 0-111 15t-102 44l45 73q32-23 76.5-37.5t94.5-14.5q33 0 63 6.5t53.5 21.5 37.5 39 14 59q0 13-3 31t-10 32q-62-60-159-60-56 0-101.5 19t-77.5 52-50 78-18 97 18 97.5 50 78.5 77.5 52 101.5 19q48 0 86.5-15t69.5-44v51h86v-398q10-26 14.5-51t4.5-47q0-54-22.5-91.5t-59.5-61.5-83.5-34.5-94.5-10.5zM292 95q54 0 94 23.5t60 58.5v169q-20 35-60 58t-94 23q-36 0-65.5-12.5t-50.5-35-32.5-52.5-11.5-66q0-35 11.5-65.5t32.5-53 50.5-35 65.5-12.5zM344.979 544.967h-99.9932l103.993 164.99h64.9961z" glyph-name="uni0123" horiz-adv-x="611" unicode="&#x123;"/><glyph d="M291-194q-54 0-111 15t-102 44l45 73q32-23 76.5-37.5t94.5-14.5q33 0 63 6.5t53.5 21.5 37.5 39 14 59q0 13-3 31t-10 32q-62-60-159-60-56 0-101.5 19t-77.5 52-50 78-18 97 18 97.5 50 78.5 77.5 52 101.5 19q48 0 86.5-15t69.5-44v51h86v-398q10-26 14.5-51t4.5-47q0-54-22.5-91.5t-59.5-61.5-83.5-34.5-94.5-10.5zM292 95q54 0 94 23.5t60 58.5v169q-20 35-60 58t-94 23q-36 0-65.5-12.5t-50.5-35-32.5-52.5-11.5-66q0-35 11.5-65.5t32.5-53 50.5-35 65.5-12.5zM291 571q-24 0-42.5 16.5t-18.5 43.5q0 25 17.5 42t43.5 17q25 0 42-17t17-42q0-26-17.5-43t-41.5-17z" glyph-name="gdotaccent" horiz-adv-x="611" unicode="&#x121;"/><glyph d="M75 710h86v-267q29 36 70 50.5t85 14.5q42 0 77.5-14.5t61-40.5 40-64 14.5-84v-305h-86v300q0 55-33.5 91t-92.5 36q-53 0-87.5-27.5t-48.5-76.5v-323h-86v710zM5 638h327v-65h-327v65z" glyph-name="hbar" horiz-adv-x="578" unicode="&#x127;"/><glyph d="M75 710h86v-267q29 36 70 50.5t85 14.5q42 0 77.5-14.5t61-40.5 40-64 14.5-84v-305h-86v300q0 55-33.5 91t-92.5 36q-53 0-87.5-27.5t-48.5-76.5v-323h-86v710zM144 826l173 100 173-100-35-60-138 82-138-82z" glyph-name="hcircumflex" horiz-adv-x="578" unicode="&#x125;"/><glyph d="M75 500h86v-500h-86v500z" glyph-name="dotlessi" horiz-adv-x="236" unicode="&#x131;"/><glyph d="M75 500h86v-500h-86v500zM118 573q-74 0-114 39.5t-44 97.5h67q2-31 25-54.5t66-23.5 66 23.5 25 54.5h67q-4-58-44-97.5t-114-39.5z" glyph-name="ibreve" horiz-adv-x="236" unicode="&#x12d;"/><glyph d="M75 500h86v-500h-86v500zM-28 679h292v-65h-292v65z" glyph-name="imacron" horiz-adv-x="236" unicode="&#x12b;"/><glyph d="M75 500h86v-500h-86v500zM75 609q-19 17-19 46 0 26 18 44.5t44 18.5 44-18.5 18-44.5q0-29-19-46h-86zM100-192q-21 0-40 5.5t-33.5 16-23 27-8.5 37.5q0 18 7.5 35t19 30.5 25.5 24 28 16.5h86q-41-18-61.5-40.5t-20.5-45.5q0-19 12.5-30t37.5-11q11 0 19 2.5t14 4.5v-59q-14-8-29.5-10.5t-32.5-2.5z" glyph-name="iogonek" horiz-adv-x="236" unicode="&#x12f;"/><glyph d="M75 500h86v-500h-86v500zM-51 585q9 45 38.5 69.5t64.5 24.5q21 0 38.5-7t33-15 29-15 25.5-7q21 0 32 11t16 33h66l-3-18q-8-42-36.5-68t-66.5-26q-21 0-39 7t-33.5 15-29 15-26.5 7q-20 0-30.5-11t-15.5-34h-66z" glyph-name="itilde" horiz-adv-x="236" unicode="&#x129;"/><glyph d="M75 500h86v-500h-86v500zM75 609q-19 17-19 46 0 26 18 44.5t44 18.5 44-18.5 18-44.5q0-29-19-46h-86zM119-189q-24 0-42.5 16.5t-18.5 43.5q0 25 17.5 42t43.5 17q25 0 42-17t17-42q0-26-17.5-43t-41.5-17z" glyph-name="uni1ECB" horiz-adv-x="236" unicode="&#x1ecb;"/><glyph d="M-21-106h30q42 0 58 21t16 59v526h86v-539q0-72-39.5-108.5t-111.5-36.5h-39v78z" glyph-name="uni0237" horiz-adv-x="244" unicode="&#x237;"/><glyph d="M-21-106h30q42 0 58 21t16 59v526h86v-539q0-72-39.5-108.5t-111.5-36.5h-39v78zM287 609l-38-55-123 83-123-83-38 55 161 109z" glyph-name="jcircumflex" horiz-adv-x="244" unicode="&#x135;"/><glyph d="M75 710h86v-436l221 226h113l-232-235 255-265h-116l-241 250v-250h-86v710zM232-50h100l-104-165h-65z" glyph-name="uni0137" horiz-adv-x="512" unicode="&#x137;"/><glyph d="M75 710h86v-710h-86v710zM269.983 920h-108.993l-84.9951-160h70.9961z" glyph-name="lacute" horiz-adv-x="236" unicode="&#x13a;"/><glyph d="M75 710h86v-710h-86v710zM247 710h87l-51-165h-61z" glyph-name="lcaron" horiz-adv-x="260" unicode="&#x13e;"/><glyph d="M75 710h86v-710h-86v710zM68-50h100l-104-165h-65z" glyph-name="uni013C" horiz-adv-x="236" unicode="&#x13c;"/><glyph d="M75 710h86v-710h-86v710zM301 302q-24 0-42.5 16.5t-18.5 43.5q0 25 17.5 42t43.5 17q25 0 42-17t17-42q0-26-17.5-43t-41.5-17z" glyph-name="ldot" horiz-adv-x="364" unicode="&#x140;"/><glyph d="M141 710h86v-710h-86v710zM24 311l284 184 37-57-284-184z" glyph-name="lslash" horiz-adv-x="352" unicode="&#x142;"/><glyph d="M75 500h86v-57q29 36 70 50.5t85 14.5q42 0 77.5-14.5t61-40.5 40-64 14.5-84v-305h-86v300q0 55-33.5 91t-92.5 36q-53 0-87.5-27.5t-48.5-76.5v-323h-86v500zM461.972 710h-108.993l-84.9951-160h70.9961z" glyph-name="nacute" horiz-adv-x="578" unicode="&#x144;"/><glyph d="M75 500h86v-57q29 36 70 50.5t85 14.5q42 0 77.5-14.5t61-40.5 40-64 14.5-84v-305h-86v300q0 55-33.5 91t-92.5 36q-53 0-87.5-27.5t-48.5-76.5v-323h-86v500zM147.991 661.96l37.9971 54.9961 122.993-82.9951 122.992 82.9951 37.998-54.9961-160.99-108.994z" glyph-name="ncaron" horiz-adv-x="578" unicode="&#x148;"/><glyph d="M75 500h86v-57q29 36 70 50.5t85 14.5q42 0 77.5-14.5t61-40.5 40-64 14.5-84v-305h-86v300q0 55-33.5 91t-92.5 36q-53 0-87.5-27.5t-48.5-76.5v-323h-86v500zM245-50h100l-104-165h-65z" glyph-name="uni0146" horiz-adv-x="578" unicode="&#x146;"/><glyph d="M930 73q-32-34-83.5-57.5t-117.5-23.5q-62 0-117 26.5t-96 83.5q-41-57-96.5-83.5t-118.5-26.5q-57 0-104.5 20t-82 55-54 82-19.5 101 19.5 101 54 82 82 55 104.5 20q63 0 119-26.5t96-82.5q39 55 93.5 82t113.5 27q52 0 96.5-18.5t77-54.5 51.5-88 19-118h-408q4-35 19-64t38-49.5 52-31.5 61-11q48 0 85 18t61 42zM718 429q-23 0-47-7t-45-22.5-37.5-39-24.5-56.5h306q-9 62-52 94t-100 31zM301 73q38 0 69.5 13.5t54 37.5 35 56.5 12.5 69.5-12.5 69.5-35 56.5-54 37.5-69.5 13.5-69.5-13.5-54-37.5-35-56.5-12.5-69.5 12.5-69.5 35-56.5 54-37.5 69.5-13.5z" glyph-name="oe" horiz-adv-x="1000" unicode="&#x153;"/><glyph d="M301-8q-57 0-104.5 20t-82 55-54 82-19.5 101 19.5 101 54 82 82 55 104.5 20q56 0 103.5-20t82-55 54-82 19.5-101-19.5-101-54-82-82-55-103.5-20zM301 73q38 0 69.5 13.5t54 37.5 34.5 56.5 12 69.5-12 69.5-34.5 56.5-54 37.5-69.5 13.5-69.5-13.5-54-37.5-35-56.5-12.5-69.5 12.5-69.5 35-56.5 54-37.5 69.5-13.5zM301 573q-74 0-114 39.5t-44 97.5h67q2-31 25-54.5t66-23.5 66 23.5 25 54.5h67q-4-58-44-97.5t-114-39.5z" glyph-name="obreve" horiz-adv-x="602" unicode="&#x14f;"/><glyph d="M301-8q-57 0-104.5 20t-82 55-54 82-19.5 101 19.5 101 54 82 82 55 104.5 20q56 0 103.5-20t82-55 54-82 19.5-101-19.5-101-54-82-82-55-103.5-20zM301 73q38 0 69.5 13.5t54 37.5 34.5 56.5 12 69.5-12 69.5-34.5 56.5-54 37.5-69.5 13.5-69.5-13.5-54-37.5-35-56.5-12.5-69.5 12.5-69.5 35-56.5 54-37.5 69.5-13.5zM268 710h101l-123-161h-63zM437 710h101l-123-161h-63z" glyph-name="ohungarumlaut" horiz-adv-x="602" unicode="&#x151;"/><glyph d="M301-8q-57 0-104.5 20t-82 55-54 82-19.5 101 19.5 101 54 82 82 55 104.5 20q56 0 103.5-20t82-55 54-82 19.5-101-19.5-101-54-82-82-55-103.5-20zM301 73q38 0 69.5 13.5t54 37.5 34.5 56.5 12 69.5-12 69.5-34.5 56.5-54 37.5-69.5 13.5-69.5-13.5-54-37.5-35-56.5-12.5-69.5 12.5-69.5 35-56.5 54-37.5 69.5-13.5zM155 679h292v-65h-292v65z" glyph-name="omacron" horiz-adv-x="602" unicode="&#x14d;"/><glyph d="M301-8q-57 0-104.5 20t-82 55-54 82-19.5 101 19.5 101 54 82 82 55 104.5 20q56 0 103.5-20t82-55 54-82 19.5-101-19.5-101-54-82-82-55-103.5-20zM301 73q38 0 69.5 13.5t54 37.5 34.5 56.5 12 69.5-12 69.5-34.5 56.5-54 37.5-69.5 13.5-69.5-13.5-54-37.5-35-56.5-12.5-69.5 12.5-69.5 35-56.5 54-37.5 69.5-13.5zM302-189q-24 0-42.5 16.5t-18.5 43.5q0 25 17.5 42t43.5 17q25 0 42-17t17-42q0-26-17.5-43t-41.5-17z" glyph-name="uni1ECD" horiz-adv-x="602" unicode="&#x1ecd;"/><glyph d="M75 500h86v-59q26 32 61 48t77 16q18 0 35-3v-89q-21 6-48 6-41 0-74.5-20t-50.5-59v-340h-86v500zM363.978 710h-108.993l-84.9951-160h70.9961z" glyph-name="racute" horiz-adv-x="351" unicode="&#x155;"/><glyph d="M75 500h86v-59q26 32 61 48t77 16q18 0 35-3v-89q-21 6-48 6-41 0-74.5-20t-50.5-59v-340h-86v500zM49.9971 661.96l37.9971 54.9961 122.993-82.9951 122.992 82.9951 37.998-54.9961-160.99-108.994z" glyph-name="rcaron" horiz-adv-x="351" unicode="&#x159;"/><glyph d="M75 500h86v-59q26 32 61 48t77 16q18 0 35-3v-89q-21 6-48 6-41 0-74.5-20t-50.5-59v-340h-86v500zM67-50h100l-104-165h-65z" glyph-name="uni0157" horiz-adv-x="351" unicode="&#x157;"/><glyph d="M207-8q-56 0-101.5 24.5t-75.5 75.5l68 46q20-33 45.5-51t65.5-18q37 0 63 17t26 46-20 46.5-65 33.5l-39 15q-66 25-92.5 64t-26.5 84q0 28 11.5 52.5t32.5 42.5 49.5 28 62.5 10q48 0 87.5-22t62.5-68l-67-39q-25 52-83 52-29 0-50-14.5t-21-40.5q0-23 14.5-41.5t58.5-34.5l41-15q64-23 97-58.5t33-91.5q0-30-12.5-56t-35.5-45.5-55.5-30.5-73.5-11zM367.978 710h-108.993l-84.9951-160h70.9961z" glyph-name="sacute" horiz-adv-x="420" unicode="&#x15b;"/><glyph d="M207-8q-56 0-101.5 24.5t-75.5 75.5l68 46q20-33 45.5-51t65.5-18q37 0 63 17t26 46-20 46.5-65 33.5l-39 15q-66 25-92.5 64t-26.5 84q0 28 11.5 52.5t32.5 42.5 49.5 28 62.5 10q48 0 87.5-22t62.5-68l-67-39q-25 52-83 52-29 0-50-14.5t-21-40.5q0-23 14.5-41.5t58.5-34.5l41-15q64-23 97-58.5t33-91.5q0-30-12.5-56t-35.5-45.5-55.5-30.5-73.5-11zM53.9971 661.96l37.9971 54.9961 122.993-82.9951 122.992 82.9951 37.9971-54.9961-160.989-108.994z" glyph-name="scaron" horiz-adv-x="420" unicode="&#x161;"/><glyph d="M207-8q-56 0-101.5 24.5t-75.5 75.5l68 46q20-33 45.5-51t65.5-18q37 0 63 17t26 46-20 46.5-65 33.5l-39 15q-66 25-92.5 64t-26.5 84q0 28 11.5 52.5t32.5 42.5 49.5 28 62.5 10q48 0 87.5-22t62.5-68l-67-39q-25 52-83 52-29 0-50-14.5t-21-40.5q0-23 14.5-41.5t58.5-34.5l41-15q64-23 97-58.5t33-91.5q0-30-12.5-56t-35.5-45.5-55.5-30.5-73.5-11zM190 0h59l-54-165h-98z" glyph-name="scedilla" horiz-adv-x="420" unicode="&#x15f;"/><glyph d="M207-8q-56 0-101.5 24.5t-75.5 75.5l68 46q20-33 45.5-51t65.5-18q37 0 63 17t26 46-20 46.5-65 33.5l-39 15q-66 25-92.5 64t-26.5 84q0 28 11.5 52.5t32.5 42.5 49.5 28 62.5 10q48 0 87.5-22t62.5-68l-67-39q-25 52-83 52-29 0-50-14.5t-21-40.5q0-23 14.5-41.5t58.5-34.5l41-15q64-23 97-58.5t33-91.5q0-30-12.5-56t-35.5-45.5-55.5-30.5-73.5-11zM377 609l-38-55-123 83-123-83-38 55 161 109z" glyph-name="scircumflex" horiz-adv-x="420" unicode="&#x15d;"/><glyph d="M207-8q-56 0-101.5 24.5t-75.5 75.5l68 46q20-33 45.5-51t65.5-18q37 0 63 17t26 46-20 46.5-65 33.5l-39 15q-66 25-92.5 64t-26.5 84q0 28 11.5 52.5t32.5 42.5 49.5 28 62.5 10q48 0 87.5-22t62.5-68l-67-39q-25 52-83 52-29 0-50-14.5t-21-40.5q0-23 14.5-41.5t58.5-34.5l41-15q64-23 97-58.5t33-91.5q0-30-12.5-56t-35.5-45.5-55.5-30.5-73.5-11zM162-50h100l-104-165h-65z" glyph-name="uni0219" horiz-adv-x="420" unicode="&#x219;"/><glyph d="M258 0q-72 0-111.5 36.5t-39.5 108.5v277h-80l-19 78h99v107l86 43v-150h151l-19-78h-132v-264q0-38 16-59t58-21h67v-78h-76zM283 710h87l-51-165h-61z" glyph-name="tcaron" horiz-adv-x="364" unicode="&#x165;"/><glyph d="M258 0q-72 0-111.5 36.5t-39.5 108.5v277h-80l-19 78h99v107l86 43v-150h151l-19-78h-132v-264q0-38 16-59t58-21h67v-78h-76zM170-50h100l-104-165h-65z" glyph-name="uni0163" horiz-adv-x="364" unicode="&#x163;"/><glyph d="M258 0q-72 0-111.5 36.5t-39.5 108.5v277h-80l-19 78h99v107l86 43v-150h151l-19-78h-132v-264q0-38 16-59t58-21h67v-78h-76zM170-50h100l-104-165h-65z" glyph-name="uni021B" horiz-adv-x="364" unicode="&#x21b;"/><glyph d="M416 56q-29-36-69.5-50t-84.5-14q-43 0-78.5 14.5t-61 40.5-39.5 63.5-14 84.5v305h86v-300q0-55 33.5-91t91.5-36q52 0 86.5 26t49.5 74v327h86v-500h-86v56zM285 573q-74 0-114 39.5t-44 97.5h67q2-31 25-54.5t66-23.5 66 23.5 25 54.5h67q-4-58-44-97.5t-114-39.5z" glyph-name="ubreve" horiz-adv-x="577" unicode="&#x16d;"/><glyph d="M416 56q-29-36-69.5-50t-84.5-14q-43 0-78.5 14.5t-61 40.5-39.5 63.5-14 84.5v305h86v-300q0-55 33.5-91t91.5-36q52 0 86.5 26t49.5 74v327h86v-500h-86v56zM252 710h101l-123-161h-63zM421 710h101l-123-161h-63z" glyph-name="uhungarumlaut" horiz-adv-x="577" unicode="&#x171;"/><glyph d="M416 56q-29-36-69.5-50t-84.5-14q-43 0-78.5 14.5t-61 40.5-39.5 63.5-14 84.5v305h86v-300q0-55 33.5-91t91.5-36q52 0 86.5 26t49.5 74v327h86v-500h-86v56zM139 679h292v-65h-292v65z" glyph-name="umacron" horiz-adv-x="577" unicode="&#x16b;"/><glyph d="M416 56q-29-36-69.5-50t-84.5-14q-43 0-78.5 14.5t-61 40.5-39.5 63.5-14 84.5v305h86v-300q0-55 33.5-91t91.5-36q52 0 86.5 26t49.5 74v327h86v-500h-86v56zM441-192q-21 0-40 5.5t-33.5 16-23 27-8.5 37.5q0 18 7.5 35t19 30.5 25.5 24 28 16.5h86q-41-18-61.5-40.5t-20.5-45.5q0-19 12.5-30t37.5-11q11 0 19 2.5t14 4.5v-59q-14-8-29.5-10.5t-32.5-2.5z" glyph-name="uogonek" horiz-adv-x="577" unicode="&#x173;"/><glyph d="M416 56q-29-36-69.5-50t-84.5-14q-43 0-78.5 14.5t-61 40.5-39.5 63.5-14 84.5v305h86v-300q0-55 33.5-91t91.5-36q52 0 86.5 26t49.5 74v327h86v-500h-86v56zM285 566q-21 0-39 7t-31.5 20-21 30-7.5 37q0 42 29 68.5t70 26.5 70-26.5 29-68.5q0-20-7.5-37t-21-30-31.5-20-39-7zM285 613q20 0 34 13t14 34q0 22-14 35t-34 13-34-13-14-35q0-21 14-34t34-13z" glyph-name="uring" horiz-adv-x="577" unicode="&#x16f;"/><glyph d="M416 56q-29-36-69.5-50t-84.5-14q-43 0-78.5 14.5t-61 40.5-39.5 63.5-14 84.5v305h86v-300q0-55 33.5-91t91.5-36q52 0 86.5 26t49.5 74v327h86v-500h-86v56zM116 585q9 45 38.5 69.5t64.5 24.5q21 0 38.5-7t33-15 29-15 25.5-7q21 0 32 11t16 33h66l-3-18q-8-42-36.5-68t-66.5-26q-21 0-39 7t-33.5 15-29 15-26.5 7q-20 0-30.5-11t-15.5-34h-66z" glyph-name="utilde" horiz-adv-x="577" unicode="&#x169;"/><glyph d="M416 56q-29-36-69.5-50t-84.5-14q-43 0-78.5 14.5t-61 40.5-39.5 63.5-14 84.5v305h86v-300q0-55 33.5-91t91.5-36q52 0 86.5 26t49.5 74v327h86v-500h-86v56zM279-189q-24 0-42.5 16.5t-18.5 43.5q0 25 17.5 42t43.5 17q25 0 42-17t17-42q0-26-17.5-43t-41.5-17z" glyph-name="uni1EE5" horiz-adv-x="577" unicode="&#x1ee5;"/><glyph d="M11 500h89l112-364 138 372 138-372 112 364h89l-158-500h-69l-112 304-111-304h-70zM501.97 710h-108.994l-84.9941-160h70.9951z" glyph-name="wacute" horiz-adv-x="700" unicode="&#x1e83;"/><glyph d="M11 500h89l112-364 138 372 138-372 112 364h89l-158-500h-69l-112 304-111-304h-70zM511 609l-38-55-123 83-123-83-38 55 161 109z" glyph-name="wcircumflex" horiz-adv-x="700" unicode="&#x175;"/><glyph d="M11 500h89l112-364 138 372 138-372 112 364h89l-158-500h-69l-112 304-111-304h-70zM464 571q-25 0-43 17t-18 43q0 25 17.5 42t43.5 17q25 0 42.5-17t17.5-42q0-27-18.5-43.5t-41.5-16.5zM239 571q-25 0-43 17t-18 43q0 25 17.5 42t43.5 17q25 0 42.5-17t17.5-42q0-27-18.5-43.5t-41.5-16.5z" glyph-name="wdieresis" horiz-adv-x="700" unicode="&#x1e85;"/><glyph d="M11 500h89l112-364 138 372 138-372 112 364h89l-158-500h-69l-112 304-111-304h-70zM204 710h109l85-160h-71z" glyph-name="wgrave" horiz-adv-x="700" unicode="&#x1e81;"/><glyph d="M210 42l-204 458h93l156-364 157 364h93l-307-684h-91zM418 609l-38-55-123 83-123-83-38 55 161 109z" glyph-name="ycircumflex" horiz-adv-x="507" unicode="&#x177;"/><glyph d="M210 42l-204 458h93l156-364 157 364h93l-307-684h-91zM111 710h109l85-160h-71z" glyph-name="ygrave" horiz-adv-x="507" unicode="&#x1ef3;"/><glyph d="M210 42l-204 458h93l156-364 157 364h93l-307-684h-91zM111 679h292v-65h-292v65z" glyph-name="uni0233" horiz-adv-x="507" unicode="&#x233;"/><glyph d="M308 422h-260v78h411l-291-422h281v-78h-433zM404.976 710h-108.993l-84.9951-160h70.9951z" glyph-name="zacute" horiz-adv-x="486" unicode="&#x17a;"/><glyph d="M308 422h-260v78h411l-291-422h281v-78h-433zM90.9941 661.96l37.998 54.9961 122.992-82.9951 122.993 82.9951 37.9971-54.9961-160.99-108.994z" glyph-name="zcaron" horiz-adv-x="486" unicode="&#x17e;"/><glyph d="M308 422h-260v78h411l-291-422h281v-78h-433zM254 571q-24 0-42.5 16.5t-18.5 43.5q0 25 17.5 42t43.5 17q25 0 42-17t17-42q0-26-17.5-43t-41.5-17z" glyph-name="zdotaccent" horiz-adv-x="486" unicode="&#x17c;"/><glyph d="M125-8q-30 0-52 21.5t-22 52.5q0 32 22.5 53t51.5 21 51.5-21 22.5-53q0-31-22-52.5t-52-21.5zM374-8q-30 0-52 21.5t-22 52.5q0 32 22.5 53t51.5 21 51.5-21 22.5-53q0-31-22-52.5t-52-21.5zM623-8q-30 0-52 21.5t-22 52.5q0 32 22.5 53t51.5 21 51.5-21 22.5-53q0-31-22-52.5t-52-21.5z" glyph-name="ellipsis" horiz-adv-x="748" unicode="&#x2026;"/><glyph d="M68 314h434v-81h-434v81z" glyph-name="endash" horiz-adv-x="570" unicode="&#x2013;"/><glyph d="M68 314h731v-81h-731v81z" glyph-name="emdash" horiz-adv-x="867" unicode="&#x2014;"/><glyph d="M42 250l152 221 62-42-123-179 123-179-62-42z" glyph-name="guilsinglleft" horiz-adv-x="307" unicode="&#x2039;"/><glyph d="M51 71l123 179-123 179 62 42 152-221-152-221z" glyph-name="guilsinglright" horiz-adv-x="307" unicode="&#x203a;"/><glyph d="M131 568h51v-123h-122v124l57 141h57z" glyph-name="quoteleft" horiz-adv-x="244" unicode="&#x2018;"/><glyph d="M113 587h-51v123h122v-124l-57-141h-57z" glyph-name="quoteright" horiz-adv-x="234" unicode="&#x2019;"/><glyph d="M131 568h51v-123h-122v124l57 141h57zM326 568h51v-123h-122v124l57 141h57z" glyph-name="quotedblleft" horiz-adv-x="439" unicode="&#x201c;"/><glyph d="M113 587h-51v123h122v-124l-57-141h-57zM308 587h-51v123h122v-124l-57-141h-57z" glyph-name="quotedblright" horiz-adv-x="429" unicode="&#x201d;"/><glyph d="M119 0h-51v123h122v-124l-57-141h-57z" glyph-name="quotesinglbase" horiz-adv-x="258" unicode="&#x201a;"/><glyph d="M119 0h-51v123h122v-124l-57-141h-57zM314 0h-51v123h122v-124l-57-141h-57z" glyph-name="quotedblbase" horiz-adv-x="453" unicode="&#x201e;"/><glyph d="M210 166q-28 0-53 10.5t-43.5 29-29 43.5-10.5 53 10.5 53 29 43.5 43.5 29 53 10.5 53-10.5 43.5-29 29-43.5 10.5-53-10.5-53-29-43.5-43.5-29-53-10.5z" glyph-name="bullet" horiz-adv-x="420" unicode="&#x2022;"/><glyph d="M76 310h438v-70h-438v70z" glyph-name="minus" horiz-adv-x="590" unicode="&#x2212;"/><glyph d="M60 306h102q-3 24-3 49v15q0 7 1 14h-125l25 74h113q15 58 47 105.5t77 82 101 53.5 119 19q66 0 115-16t93-45l-33-76q-33 25-75.5 41.5t-99.5 16.5q-51 0-92-14.5t-73.5-39-55-57.5-35.5-70h397l-26-74h-387q-1-8-1-15v-14q0-13 1-25t3-24h358l-25-74h-312q31-72 95-116.5t153-44.5q48 0 93 13.5t82 40.5v-86q-29-19-74-33t-101-14q-60 0-113.5 17.5t-97.5 49-76.5 75.5-50.5 98h-144z" glyph-name="Euro" horiz-adv-x="760" unicode="&#x20ac;"/><glyph d="M113 422h-86v78h84q-17 17-27 39.5t-10 48.5 10.5 48.5 29.5 39 46 25.5 60 9h118v-78h-104q-32 0-54-15.5t-22-47.5q0-33 22-50t47-19h111v-78h-139v-422h-86v422zM427 500h86v-500h-86v500zM427 609q-19 17-19 46 0 26 18 44.5t44 18.5 44-18.5 18-44.5q0-29-19-46h-86z" glyph-name="uniFB01" horiz-adv-x="588" unicode="&#xfb01;"/><glyph d="M113 422h-86v78h84q-17 17-27 39.5t-10 48.5 10.5 48.5 29.5 39 46 25.5 60 9h118v-78h-104q-32 0-54-15.5t-22-47.5q0-33 22-50t47-19h111v-78h-139v-422h-86v422zM427 710h86v-710h-86v710z" glyph-name="uniFB02" horiz-adv-x="588" unicode="&#xfb02;"/><glyph d="M66 609q-19 17-19 46 0 26 18 44.5t44 18.5 44-18.5 18-44.5q0-29-19-46h-86z" glyph-name="glyph329" horiz-adv-x="218"/><glyph d="M0 573q-74 0-114 39.5t-44 97.5h67q2-31 25-54.5t66-23.5 66 23.5 25 54.5h67q-4-58-44-97.5t-114-39.5z" glyph-name="breve" unicode="&#x2d8;"/><glyph d="M-160.99 661.96l37.998 54.9961 122.992-82.9951 122.992 82.9951 37.998-54.9961-160.99-108.994z" glyph-name="caron" unicode="&#x2c7;"/><glyph d="M161 609l-38-55-123 83-123-83-38 55 161 109z" glyph-name="circumflex" unicode="&#x2c6;"/><glyph d="M1 571q-24 0-42.5 16.5t-18.5 43.5q0 25 17.5 42t43.5 17q25 0 42-17t17-42q0-26-17.5-43t-41.5-17z" glyph-name="dotaccent" unicode="&#x2d9;"/><glyph d="M-92 710h101l-123-161h-63zM77 710h101l-123-161h-63z" glyph-name="hungarumlaut" unicode="&#x2dd;"/><glyph d="M-13-50h100l-104-165h-65z" glyph-name="glyph335"/><glyph d="M22-192q-21 0-40 5.5t-33.5 16-23 27-8.5 37.5q0 18 7.5 35t19 30.5 25.5 24 28 16.5h86q-41-18-61.5-40.5t-20.5-45.5q0-19 12.5-30t37.5-11q11 0 19 2.5t14 4.5v-59q-14-8-29.5-10.5t-32.5-2.5z" glyph-name="ogonek" unicode="&#x2db;"/><glyph d="M0 566q-21 0-39 7t-31.5 20-21 30-7.5 37q0 42 29 68.5t70 26.5 70-26.5 29-68.5q0-20-7.5-37t-21-30-31.5-20-39-7zM0 613q20 0 34 13t14 34q0 22-14 35t-34 13-34-13-14-35q0-21 14-34t34-13z" glyph-name="ring" unicode="&#x2da;"/><glyph d="M-169 585q9 45 38.5 69.5t64.5 24.5q21 0 38.5-7t33-15 29-15 25.5-7q21 0 32 11t16 33h66l-3-18q-8-42-36.5-68t-66.5-26q-21 0-39 7t-33.5 15-29 15-26.5 7q-20 0-30.5-11t-15.5-34h-66z" glyph-name="tilde" unicode="&#x2dc;"/><glyph d="M-31 710h87l-51-165h-61z" glyph-name="glyph339"/><glyph d="M-101 571q-25 0-43 17t-18 43q0 24 17.5 41.5t43.5 17.5q25 0 42.5-17.5t17.5-41.5q0-26-18-43t-42-17zM102 571q-25 0-43 17t-18 43q0 24 17.5 41.5t43.5 17.5q25 0 42.5-17.5t17.5-41.5q0-26-18-43t-42-17z" glyph-name="glyph340"/><glyph d="M-163 638h327v-65h-327v65z" glyph-name="glyph341"/><glyph d="M-160 311l284 184 37-57-284-184z" glyph-name="glyph342"/><glyph d="M-1 772q-35 0-63 11t-48.5 29.5-32 43.5-12.5 53h64q2-31 26-55t67-24 67.5 24 26.5 55h64q-2-28-13.5-53t-32-43.5-49-29.5-64.5-11z" glyph-name="glyph343"/><glyph d="M-173 826l173 100 173-100-35-60-138 82-138-82z" glyph-name="glyph344"/><glyph d="M-94 913h109l77-145h-73z" glyph-name="glyph345"/><glyph d="M-113 913h104l-113-145h-68zM87 913h104l-113-145h-68z" glyph-name="glyph346"/><glyph d="M-146 868h292v-65h-292v65z" glyph-name="glyph347"/><glyph d="M24-192q-21 0-40.5 5.5t-34.5 16-24.5 27-9.5 37.5q0 18 7.5 35t18.5 30.5 25 24 28 16.5h91q-41-18-61.5-40.5t-20.5-45.5q0-19 12.5-30t37.5-11q11 0 19 2.5t14 4.5v-59q-14-8-29.5-10.5t-32.5-2.5z" glyph-name="glyph348"/><glyph d="M-166 393h333v-74h-333v74z" glyph-name="glyph349"/><glyph d="M-214 264l386 252 42-63-386-252z" glyph-name="glyph350"/><glyph d="M-350 596h700v-74h-700v74z" glyph-name="glyph351"/></font>
</defs>
</svg>
