<svg xmlns="http://www.w3.org/2000/svg"><defs><font horiz-adv-x="0"><font-face ascent="800" bbox="-258 -215 1136 961" cap-height="710" descent="-200" panose-1="2 11 6 4 0 0 0 0 0 0" slope="-12" underline-position="-134" underline-thickness="88" unicode-range="U+000D-FB02" x-height="500"/><missing-glyph d="M4 19l147 691h496l-4-19-147-691h-496zM325 370l281 321h-429zM25 29l288 328-149 325zM483 28l139 653-289-329zM40 19h429l-147 320z" horiz-adv-x="496"/><glyph d="M4 19l147 691h496l-4-19-147-691h-496zM325 370l281 321h-429zM25 29l288 328-149 325zM483 28l139 653-289-329zM40 19h429l-147 320z" glyph-name=".notdef" horiz-adv-x="496"/><glyph glyph-name="glyph1"/><glyph glyph-name="uni000D" horiz-adv-x="242" unicode="&#xd;"/><glyph glyph-name="space" horiz-adv-x="242" unicode="&#x20;"/><glyph d="M123 443l57 267h112l-57-267-67-213h-68zM95-8q-15 0-29 5.5t-24.5 15.5-17 22.5-6.5 27.5q0 26 11.5 46t31.5 35h114q8-9 13-24.5t5-30.5q-1-45-28.5-71t-69.5-26z" glyph-name="exclam" horiz-adv-x="281" unicode="&#x21;"/><glyph d="M128 710h95v-270h-95v270zM330 710h95v-270h-95v270z" glyph-name="quotedbl" horiz-adv-x="428" unicode="&#x22;"/><glyph d="M86 0l61 194h-106v86h133l47 153h-107v87h135l59 190h96l-59-190h162l59 190h95l-59-190h105v-87h-133l-47-153h106v-86h-133l-61-194h-95l61 194h-162l-61-194h-96zM432 280l47 153h-162l-47-153h162z" glyph-name="numbersign" horiz-adv-x="702" unicode="&#x23;"/><glyph d="M181-1q-35 8-62.5 24t-48.5 35.5-35.5 42-23.5 43.5l101 53q19-47 53.5-75t91.5-28q59 0 89 28t30 65q-1 33-19 59t-62 55l-56 37q-57 43-88 88t-31 106q0 41 15.5 75t44 58 67.5 37.5 87 15.5l18 80h83l-20-90q49-15 82-45.5t50-63.5l-98-52q-21 37-51.5 53.5t-67.5 16.5q-19 0-37-5t-32-15-22.5-25.5-7.5-37.5q1-32 19-56.5t60-56.5l56-37q25-19 47.5-39t39-43 26-49.5 9.5-58.5q0-39-14-75t-41.5-63.5-70-44.5-99.5-19l-18-80h-83z" glyph-name="dollar" horiz-adv-x="539" unicode="&#x24;"/><glyph d="M415 592q0-30-11.5-57t-31.5-48-48-33-61-12q-30 0-53.5 10.5t-39.5 27.5-24.5 40-8.5 47q0 30 11 57.5t31 48 48 32.5 62 12q30 0 53.5-10.5t39.5-27.5 24.5-40 8.5-47zM211 574q0-27 17-43t42-16q30 0 50 19.5t20 50.5q0 27-17 43.5t-41 16.5q-31 0-51-20.5t-20-50.5zM93 398h291l-18-86h-291zM319 141q0-30-11.5-57t-31.5-47.5-48-32.5-61-12q-30 0-53.5 10.5t-39.5 27.5-24.5 40-8.5 47q0 30 11 57t31 47.5 48 32.5 62 12q30 0 53.5-10.5t39.5-27.5 24.5-40 8.5-47zM115 123q0-26 17-42.5t42-16.5q30 0 50 20.5t20 50.5q0 27-17 43t-41 16q-31 0-51-20.5t-20-50.5z" glyph-name="percent" horiz-adv-x="413" unicode="&#x25;"/><glyph d="M422 81q-34-45-81.5-67t-105.5-22q-50 0-88.5 17.5t-64.5 46-40 66-14 78.5q0 45 15.5 87t45 76 72.5 56 99 25q13 1 27 .5t31-2.5l-79 268h380l-21-98h-219l179-612h-112zM137 210q0-24 7.5-44.5t21.5-36.5 34-25 45-9q30 0 54.5 11t42.5 29 27.5 42.5 9.5 51.5q0 24-7.5 44.5t-21.5 36-34 24.5-45 9q-30 0-54.5-10.5t-42.5-29-27.5-42.5-9.5-51z" glyph-name="ampersand" horiz-adv-x="604" unicode="&#x26;"/><glyph d="M128 710h95v-270h-95v270z" glyph-name="quotesingle" horiz-adv-x="226" unicode="&#x27;"/><glyph d="M75-150q-18 61-27 134t-9 137q0 164 55.5 320t172.5 310l88-42q-108-147-163-285t-55-288q0-57 7.5-124t21.5-126z" glyph-name="parenleft" horiz-adv-x="282" unicode="&#x28;"/><glyph d="M229 751q18-61 27-134t9-137q0-164-55.5-320t-172.5-310l-88 42q108 147 163 285t55 288q0 57-7.5 124t-21.5 126z" glyph-name="parenright" horiz-adv-x="282" unicode="&#x29;"/><glyph d="M147 380l84 114-136 46 24 75 137-46v141h77v-140l136 45 24-74-135-46 85-115-64-45-84 114-85-114z" glyph-name="asterisk" horiz-adv-x="476" unicode="&#x2a;"/><glyph d="M83 321h175v171h87v-171h175v-87h-175v-174h-87v174h-175v87z" glyph-name="plus" horiz-adv-x="590" unicode="&#x2b;"/><glyph d="M76 0h-57l30 142h141l-31-143-90-145h-68z" glyph-name="comma" horiz-adv-x="269" unicode="&#x2c;"/><glyph d="M80 331h258l-23-109h-259z" glyph-name="hyphen" horiz-adv-x="383" unicode="&#x2d;"/><glyph d="M106-8q-36 0-61.5 25.5t-25.5 61.5 25.5 61 61.5 25 61-25 25-61-25-61.5-61-25.5z" glyph-name="period" horiz-adv-x="263" unicode="&#x2e;"/><glyph d="M327 710h101l-338-710h-101z" glyph-name="slash" horiz-adv-x="371" unicode="&#x2f;"/><glyph d="M808 385q0-75-27.5-146t-79.5-125.5-128-88-172-33.5q-78 0-139.5 27.5t-104.5 74-65.5 106.5-22.5 125q0 75 27.5 146t80 125.5 128 88 172.5 33.5q78 0 139.5-27.5t104-74 65-106.5 22.5-125zM182 335q0-47 14.5-90.5t43.5-76.5 71.5-52.5 98.5-19.5q66 0 119 22.5t90 60.5 57 88.5 20 107.5q0 48-14.5 91t-43.5 76-71.5 52.5-98.5 19.5q-66 0-119-22t-90-60.5-57-89-20-107.5z" glyph-name="zero" horiz-adv-x="832" unicode="&#x30;"/><glyph d="M159 607l134 111-153-718h-110z" glyph-name="one" horiz-adv-x="282" unicode="&#x31;"/><glyph d="M285 289l-6 1q-39 5-69.5 22t-51 42.5-31.5 58-11 68.5q0 46 17 88.5t49 75.5 77.5 53 101.5 20q48 0 85-16.5t62.5-44.5 39-64.5 13.5-75.5q0-54-27.5-106t-75.5-97l-227-211h261l-22-103h-494zM224 491q0-45 27.5-76t75.5-31q28 0 51.5 10t40 27 25.5 39.5 9 48.5q0 45-27 75t-75 30q-29 0-52-9.5t-40-26.5-26-39.5-9-47.5z" glyph-name="two" horiz-adv-x="570" unicode="&#x32;"/><glyph d="M469 245q0-49-16-94.5t-48-81-81.5-56.5-115.5-21q-74 0-124.5 32t-74.5 83l96 55q14-31 42.5-48.5t70.5-17.5q32 0 58 11t44.5 29.5 28.5 44 10 54.5q0 51-33.5 86.5t-103.5 35.5h-59l187 250h-231l22 103h403l-206-275q34-12 59-32t41-45.5 23.5-54.5 7.5-58z" glyph-name="three" horiz-adv-x="521" unicode="&#x33;"/><glyph d="M374 183h-384l608 535-92-436h82l-21-99h-82l-39-183h-111zM395 282l38 177-201-177h163z" glyph-name="four" horiz-adv-x="621" unicode="&#x34;"/><glyph d="M485 245q0-52-17-98t-50-80.5-82.5-54.5-114.5-20q-71 0-122.5 31.5t-77.5 81.5l95 59q14-31 45-49.5t70-18.5q33 0 60 11t45.5 30 28.5 44.5 10 54.5q0 25-8 47t-23 38.5-36 26-48 9.5q-35 0-62-12.5t-46-34.5l-71 33 85 367h363l-21-103h-258l-35-155q17 5 30.5 6t24.5 1q51 0 91-18t67.5-47.5 42-68 14.5-80.5z" glyph-name="five" horiz-adv-x="527" unicode="&#x35;"/><glyph d="M516 245q0-51-17-96.5t-50.5-80.5-83-55.5-113.5-20.5q-51 0-91 17.5t-67.5 47.5-42 68.5-14.5 80.5q0 48 17 92.5t59 96.5l250 315h132l-201-252q7 0 13.5-.5t14.5-1.5q47-3 83-22t61-48 37.5-65.5 12.5-75.5zM147 215q0-51 30.5-85t84.5-34q33 0 60 11t45.5 30 28.5 44.5 10 54.5q0 51-30.5 85.5t-84.5 34.5q-33 0-59.5-11t-45.5-30-29-45-10-55z" glyph-name="six" horiz-adv-x="550" unicode="&#x36;"/><glyph d="M417 607h-306l22 103h478l-487-710h-125z" glyph-name="seven" horiz-adv-x="518" unicode="&#x37;"/><glyph d="M513 555q0-41-15-80t-53-71q38-32 55.5-73.5t17.5-80.5q0-52-17-98.5t-49.5-82-80-56.5-107.5-21q-51 0-92 17t-70 45.5-45 66-16 79.5q0 34 8 67t24.5 63 41.5 55.5 60 43.5q-17 26-23.5 48.5t-6.5 43.5q0 38 12.5 73.5t37.5 63 61.5 44 83.5 16.5q40 0 72-13.5t54.5-36 34.5-52 12-61.5zM251 529q0-29 18.5-50t52.5-21q42 0 63.5 26.5t21.5 61.5q0 32-19.5 51.5t-53.5 19.5q-19 0-34.5-7.5t-26-19.5-16.5-28-6-33zM150 212q0-51 32.5-83.5t87.5-32.5q32 0 58 11.5t44 31 27.5 45.5 9.5 55q0 51-32 84t-87 33q-32 0-58-11.5t-44-31-28-46-10-55.5z" glyph-name="eight" horiz-adv-x="566" unicode="&#x38;"/><glyph d="M79 465q0 51 17 96.5t50.5 80.5 83 55.5 113.5 20.5q51 0 91-17.5t67.5-47.5 42-68.5 14.5-80.5q0-48-17-92.5t-59-96.5l-250-315h-132l201 252q-7 0-13.5.5t-14.5 1.5q-47 3-83 22t-61 48-37.5 65.5-12.5 75.5zM448 495q0 51-30.5 85t-84.5 34q-33 0-60-11t-45.5-30-28.5-44.5-10-54.5q0-51 30.5-85.5t84.5-34.5q33 0 59.5 11t45.5 30 29 45 10 55z" glyph-name="nine" horiz-adv-x="550" unicode="&#x39;"/><glyph d="M112-8q-36 0-61.5 25.5t-25.5 61.5 25.5 61 61.5 25 61-25 25-61-25-61.5-61-25.5zM185 335q-36 0-61.5 25.5t-25.5 61.5 25.5 61 61.5 25 61-25 25-61-25-61.5-61-25.5z" glyph-name="colon" horiz-adv-x="296" unicode="&#x3a;"/><glyph d="M185 335q-36 0-61.5 25.5t-25.5 61.5 25.5 61 61.5 25 61-25 25-61-25-61.5-61-25.5zM81 0h-57l30 142h141l-31-143-90-145h-68z" glyph-name="semicolon" horiz-adv-x="296" unicode="&#x3b;"/><glyph d="M79 428h441v-86h-441v86zM79 214h441v-86h-441v86z" glyph-name="equal" horiz-adv-x="590" unicode="&#x3d;"/><glyph d="M229 380h47q36 0 63.5 10.5t46 27.5 28 40 9.5 49q0 22-7 41.5t-20.5 34.5-32 23.5-42.5 8.5q-29 0-51.5-9.5t-39-25.5-26-37.5-10.5-46.5h-107q3 44 21 84t49.5 71 75.5 49 98 18q48 0 85-17t62.5-45.5 39-65 13.5-75.5q0-46-17-88.5t-50-75.5-81-53-109-20h-66zM304 144q8-9 12.5-24.5t4.5-30.5q0-23-8-40.5t-22-30.5-32.5-19.5-38.5-6.5q-32 0-53 21t-21 50q0 26 12 46t32 35h114z" glyph-name="question" horiz-adv-x="527" unicode="&#x3f;"/><glyph d="M415-8q-81 0-145.5 27t-110 73.5-69.5 109.5-24 135q0 85 32 155.5t85 120.5 123 77.5 147 27.5q73 0 136-22t109-62.5 72-98 26-129.5q0-65-15.5-111.5t-41.5-75.5-59-42.5-67-13.5q-32 0-57.5 13.5t-41.5 36.5q-25-23-57.5-35.5t-70.5-12.5-68 13.5-50.5 37-31.5 55-11 66.5q0 45 16 85t45 70 68.5 47 87.5 17q33 0 58-9t44-25l6 24h80l-50-232q-7-33 3.5-56t42.5-23q40 0 68 42.5t28 130.5q0 58-21 103t-58 75.5-86 46-105 15.5q-62 0-118-21.5t-98.5-61.5-67.5-98-25-130q0-59 18.5-109t53.5-86 85.5-56.5 114.5-20.5q45 0 92.5 10t88.5 31l28-70q-47-21-103.5-32.5t-105.5-11.5zM312 344q0-48 24-75.5t66-27.5q26 0 50.5 10.5t41.5 35.5l2 12 31 142q-16 20-40 29.5t-48 9.5q-26 0-49-10t-40.5-28-27.5-43-10-55z" glyph-name="at" horiz-adv-x="796" unicode="&#x40;"/><glyph d="M467 158h-292l-108-158h-131l498 718 193-718h-119zM442 259l-55 211-144-211h199z" glyph-name="A" horiz-adv-x="669" unicode="&#x41;"/><glyph d="M186 710h213q51 0 89.5-15t64.5-39.5 39-56.5 13-65q0-55-26.5-99.5t-74.5-70.5q38-19 62.5-54t24.5-86-19-92.5-55-70.5-88.5-45-120.5-16h-273zM356 410q63 0 97.5 31t34.5 77q0 35-24.5 60t-72.5 25h-112l-42-193h119zM323 108q72 0 111.5 32t39.5 81q0 37-27.5 63.5t-82.5 26.5h-148l-43-203h150z" glyph-name="B" horiz-adv-x="643" unicode="&#x42;"/><glyph d="M666 86q-50-46-117-70t-148-24q-79 0-141 27.5t-105 74-65.5 106.5-22.5 126q0 75 27 145.5t79 125.5 128 88 174 33q91 0 157-35t108-92l-93-72q-29 39-75.5 63t-106.5 24q-63 0-114.5-22t-88-58.5-56.5-85.5-20-103q0-46 14-88t41.5-74.5 69-51.5 97.5-19q59 0 105 19t81 51z" glyph-name="C" horiz-adv-x="705" unicode="&#x43;"/><glyph d="M186 710h209q76 0 136-23.5t101.5-64 63.5-94.5 22-114q0-95-34-171.5t-94-130.5-142-83-179-29h-234zM275 108q71 0 130.5 22.5t102 62 66.5 92.5 24 114q0 43-14 80t-40.5 64.5-65.5 43-88 15.5h-111l-105-494h101z" glyph-name="D" horiz-adv-x="735" unicode="&#x44;"/><glyph d="M186 710h423l-25-114h-307l-38-180h247l-24-112h-247l-40-190h307l-24-114h-423z" glyph-name="E" horiz-adv-x="559" unicode="&#x45;"/><glyph d="M186 710h411l-25-114h-295l-38-180h231l-24-112h-230l-65-304h-116z" glyph-name="F" horiz-adv-x="530" unicode="&#x46;"/><glyph d="M680 78q-54-40-126-63t-155-23q-78 0-140 27.5t-104.5 73-65 105-22.5 124.5q0 76 26.5 147.5t78 127 127.5 88.5 176 33q90 0 160.5-34t112.5-93l-92-72q-29 40-80 63.5t-111 23.5q-64 0-115.5-22t-88-59-56-87-19.5-105q0-45 14-86.5t42-73 69.5-50.5 96.5-19q53 0 96 11t76 35l34 155h-190l74 110h254z" glyph-name="G" horiz-adv-x="769" unicode="&#x47;"/><glyph d="M186 710h116l-63-294h353l62 294h117l-151-710h-117l65 304h-352l-65-304h-116z" glyph-name="H" horiz-adv-x="761" unicode="&#x48;"/><glyph d="M186 710h117l-151-710h-117z" glyph-name="I" horiz-adv-x="293" unicode="&#x49;"/><glyph d="M436 202q-12-57-32.5-97t-50.5-65-69.5-36.5-89.5-11.5q-46 0-85 16t-65 45-36.5 69-.5 89h117q-11-57 12-84t68-27q44 0 74 24.5t42 81.5l107 504h117z" glyph-name="J" horiz-adv-x="528" unicode="&#x4a;"/><glyph d="M186 710h116l-75-354 365 354h143l-382-371 248-339h-130l-248 337-72-337h-116z" glyph-name="K" horiz-adv-x="646" unicode="&#x4b;"/><glyph d="M186 710h117l-127-595h303l-25-115h-419z" glyph-name="L" horiz-adv-x="524" unicode="&#x4c;"/><glyph d="M188 718l257-375 437 375-153-718h-116l92 431-283-244-176 260-95-447h-116z" glyph-name="M" horiz-adv-x="870" unicode="&#x4d;"/><glyph d="M250 465l-99-465h-116l153 718 380-476 100 468h116l-153-718z" glyph-name="N" horiz-adv-x="774" unicode="&#x4e;"/><glyph d="M806 385q0-75-27-146t-78.5-125.5-127.5-88-175-33.5q-78 0-139.5 28t-104 74-65 106-22.5 125q0 75 26.5 146t78.5 125.5 128 88 174 33.5q78 0 139.5-28t104.5-74 65.5-106.5 22.5-124.5zM186 335q0-46 14-88t42-73.5 69.5-50.5 96.5-19q63 0 114.5 22t88 59 56.5 86.5 20 103.5q0 46-14 88t-42 73.5-69.5 50.5-96.5 19q-63 0-114.5-22t-88-59-56.5-86.5-20-103.5z" glyph-name="O" horiz-adv-x="827" unicode="&#x4f;"/><glyph d="M186 710h188q55 0 97-15.5t71-42 44-62.5 15-77q0-55-18-101.5t-55-80.5-93-53-131-19h-98l-55-259h-116zM326 367q72 0 115 38t43 99q0 42-28 70t-88 28h-89l-50-235h97z" glyph-name="P" horiz-adv-x="581" unicode="&#x50;"/><glyph d="M806 385q0-70-23-136t-68-120l85-90-78-75-88 94q-48-31-106.5-48.5t-129.5-17.5q-78 0-139.5 28t-104 74-65 106-22.5 125q0 75 26.5 146t78.5 125.5 128 88 174 33.5q78 0 139.5-28t104.5-74 65.5-106.5 22.5-124.5zM540 315l95-101q25 34 38.5 75t13.5 86q0 46-14 88t-42 73.5-69.5 50.5-96.5 19q-63 0-114.5-22t-88-59-56.5-86.5-20-103.5q0-46 14-88t42-73.5 69.5-50.5 96.5-19q42 0 78.5 10t68.5 28l-93 99z" glyph-name="Q" horiz-adv-x="838" unicode="&#x51;"/><glyph d="M278 305h-62l-65-305h-116l151 710h209q51 0 89.5-14t65-39 40-58 13.5-70q0-92-56-149t-149-71l169-309h-126zM346 405q66 0 103 31t37 82q0 38-25.5 62t-76.5 24h-105l-42-199h109z" glyph-name="R" horiz-adv-x="632" unicode="&#x52;"/><glyph d="M488 197q0-43-16.5-80.5t-47.5-65-75.5-43.5-100.5-16q-87 0-148 41.5t-91 105.5l104 62q19-45 53.5-72.5t88.5-27.5q51 0 81.5 24t30.5 62q0 34-19.5 58.5t-61.5 53.5l-51 37q-58 42-91 87t-33 106q0 44 17 79t46.5 59.5 69 37.5 84.5 13q62 0 118.5-25.5t94.5-90.5l-102-61q-22 38-51 53t-65 15q-39 0-66.5-20t-27.5-56q0-32 20.5-55.5t59.5-52.5l51-37q25-18 48.5-38.5t41-44 28-50.5 10.5-58z" glyph-name="S" horiz-adv-x="533" unicode="&#x53;"/><glyph d="M274 596h-184l25 114h486l-24-114h-185l-127-596h-117z" glyph-name="T" horiz-adv-x="521" unicode="&#x54;"/><glyph d="M651 278q-15-71-41-124.5t-65-89.5-93-54-125-18q-63 0-113.5 21t-83.5 60-45 93.5 2 120.5l89 423h117l-92-430q-18-89 21-132.5t115-43.5q75 0 127 43t70 129l92 434h117z" glyph-name="U" horiz-adv-x="725" unicode="&#x55;"/><glyph d="M93 710h118l106-458 300 458h133l-482-718z" glyph-name="V" horiz-adv-x="647" unicode="&#x56;"/><glyph d="M99 710h113l48-418 269 426 82-434 228 426h122l-393-718-86 470-296-470z" glyph-name="W" horiz-adv-x="866" unicode="&#x57;"/><glyph d="M284 375l-163 335h123l120-247 224 247h143l-317-349 176-361h-123l-133 273-247-273h-143z" glyph-name="X" horiz-adv-x="645" unicode="&#x58;"/><glyph d="M275 299l-175 411h125l122-298 248 298h145l-349-411-63-299h-117z" glyph-name="Y" horiz-adv-x="645" unicode="&#x59;"/><glyph d="M449 596h-322l25 114h530l-493-596h356l-25-114h-564z" glyph-name="Z" horiz-adv-x="609" unicode="&#x5a;"/><glyph d="M189 748h203l-18-85h-106l-155-726h106l-18-85h-203z" glyph-name="bracketleft" horiz-adv-x="318" unicode="&#x5b;"/><glyph d="M151-147h-203l18 85h106l155 726h-106l18 85h203z" glyph-name="bracketright" horiz-adv-x="318" unicode="&#x5d;"/><glyph d="M-1 0h428l-19-88h-428z" glyph-name="underscore" horiz-adv-x="526" unicode="&#x5f;"/><glyph d="M44 710h126l52-160h-78z" glyph-name="grave" unicode="&#x60;"/><glyph d="M387 39q-27-21-61.5-34t-77.5-13q-48 0-86.5 18t-66.5 49-43 72-15 86q0 59 21 112t59 92.5 91 63 117 23.5q45 0 81.5-13.5t62.5-37.5l9 43h110l-106-500h-102zM275 95q35 0 69 14t59 40l42 199q-20 28-53 42.5t-69 14.5-67.5-13-55-36.5-37-56-13.5-70.5q0-63 34.5-98.5t90.5-35.5z" glyph-name="a" horiz-adv-x="604" unicode="&#x61;"/><glyph d="M167 710h110l-52-243q26 18 57.5 29.5t72.5 11.5q48 0 87-18t66.5-49 42.5-72 15-86q0-59-20-112t-57.5-92.5-90.5-63-119-23.5q-45 0-81.5 13t-62.5 37l-9-42h-110zM329 405q-35 0-69.5-14.5t-59.5-40.5l-42-198q20-29 53-43t70-14q36 0 67.5 13t55 36.5 37 56 13.5 70.5q0 63-34.5 98.5t-90.5 35.5z" glyph-name="b" horiz-adv-x="604" unicode="&#x62;"/><glyph d="M482 79q-39-40-90.5-63.5t-116.5-23.5q-57 0-101 19.5t-74.5 52-46 75-15.5 88.5q0 59 21.5 110t59.5 89 90 60 114 22q72 0 123.5-32t78.5-84l-92-58q-19 34-50 52t-69 18q-35 0-65-12.5t-51.5-35-34-53.5-12.5-67q0-33 10.5-59t29-44 43-27.5 51.5-9.5q38 0 68 14.5t53 39.5z" glyph-name="c" horiz-adv-x="530" unicode="&#x63;"/><glyph d="M386 38q-27-20-61-33t-78-13q-47 0-86 18t-66.5 49-42.5 72-15 86q0 59 21 112t59 92.5 91 63 117 23.5q45 0 81-13.5t62-37.5l55 253h110l-151-710h-102zM275 95q35 0 69 14t59 40l42 199q-20 29-53 43t-69 14-67.5-13-55-36.5-37-56-13.5-70.5q0-63 34.5-98.5t90.5-35.5z" glyph-name="d" horiz-adv-x="605" unicode="&#x64;"/><glyph d="M283 96q40 0 71 14.5t54 40.5l78-70q-38-42-91.5-65.5t-118.5-23.5q-57 0-101 19.5t-74.5 52-46 75-15.5 88.5q0 58 21 109.5t59 89.5 90.5 60 114.5 22 107-23 72-62 35.5-90-1.5-106h-388q3-34 15-59t30-41 41-23.5 48-7.5zM314 414q-21 0-44.5-6.5t-44.5-20-38-33.5-27-47h271q0 51-34 79t-83 28z" glyph-name="e" horiz-adv-x="571" unicode="&#x65;"/><glyph d="M142 402h-81l21 98h90q-12 15-19.5 35t-7.5 45 10.5 48.5 31.5 41.5 52.5 29 74.5 11h129l-21-98h-99q-38 0-58-15.5t-20-43.5q0-21 13-36.5t39-16.5h102l-21-98h-126l-85-402h-111z" glyph-name="f" horiz-adv-x="362" unicode="&#x66;"/><glyph d="M495 105q10-66-4.5-121t-51-94.5-93-61.5-130.5-22q-27 0-56.5 3.5t-57.5 11-54 20-46 29.5l63 94q26-25 66-40t88-15q83 0 127.5 41t34.5 112q-33-22-68-31t-70-9q-47 0-84 17t-63 46-40 68-14 83q0 55 19.5 104.5t56.5 87 88.5 59 116.5 21.5q84 0 137-45l8 37h110zM273 125q35 0 68.5 13.5t58.5 39.5l37 177q-20 25-51.5 37.5t-64.5 12.5q-35 0-65.5-11t-53-32-35.5-50.5-13-66.5q0-60 32-90t87-30z" glyph-name="g" horiz-adv-x="599" unicode="&#x67;"/><glyph d="M167 710h110l-54-252q59 50 144 50 45 0 80-18t57.5-49.5 30-73.5-2.5-90l-58-277h-111l57 267q14 63-11 100.5t-85 37.5q-35 0-67.5-15.5t-58.5-47.5l-72-342h-110z" glyph-name="h" horiz-adv-x="588" unicode="&#x68;"/><glyph d="M123 500h111l-106-500h-111zM146 595q-11 14-11 38 0 38 24 61.5t59 23.5q26 0 45-16t19-42q0-21-8-37.5t-22-27.5h-106z" glyph-name="i" horiz-adv-x="250" unicode="&#x69;"/><glyph d="M-99-79h31q23 0 38.5 4t26 13 17 24.5 11.5 38.5l106 499h110l-109-516q-11-51-28-83.5t-42-51-60-26-82-7.5h-41zM154 595q-11 14-11 38 0 38 24 61.5t59 23.5q26 0 45-16t19-42q0-21-8-37.5t-22-27.5h-106z" glyph-name="j" horiz-adv-x="257" unicode="&#x6a;"/><glyph d="M167 710h111l-93-439 246 229h136l-267-247 178-253h-121l-176 252-54-252h-111z" glyph-name="k" horiz-adv-x="524" unicode="&#x6b;"/><glyph d="M167 710h111l-151-710h-111z" glyph-name="l" horiz-adv-x="250" unicode="&#x6c;"/><glyph d="M355 508q42 0 78-18.5t58-54.5q40 38 84.5 55.5t93.5 17.5q47 0 82.5-17.5t57-48.5 27.5-74-5-94l-58-274h-110l56 266q14 66-6 102.5t-76 36.5q-30 0-63-18.5t-58-56.5q-1-14-2.5-27.5t-4.5-28.5l-58-274h-110l56 266q14 64-6.5 101.5t-76.5 37.5q-30 0-60-16t-53-47l-73-342h-111l106 500h107l-8-43q26 23 59.5 37t73.5 14z" glyph-name="m" horiz-adv-x="887" unicode="&#x6d;"/><glyph d="M123 500h107l-8-44q61 52 146 52 45 0 80-18t57.5-49 30.5-73.5-3-90.5l-58-277h-111l57 270q12 60-12 97.5t-84 37.5q-35 0-67-15.5t-58-46.5l-72-343h-111z" glyph-name="n" horiz-adv-x="589" unicode="&#x6e;"/><glyph d="M560 274q0-59-21-110.5t-59-89.5-90-60-113-22q-57 0-101.5 19.5t-75 52-46.5 75-16 88.5q0 59 21.5 110t59.5 89 90 60 114 22q57 0 101-19.5t74.5-52 46-74.5 15.5-88zM151 236q0-33 10.5-59t29-44 43-27.5 52.5-9.5q35 0 64.5 12.5t51.5 35 34 53.5 12 67q0 33-10.5 59t-29 44-43 27.5-52.5 9.5q-35 0-64.5-12.5t-51-35-34-53.5-12.5-67z" glyph-name="o" horiz-adv-x="598" unicode="&#x6f;"/><glyph d="M123 500h103l-7-39q26 21 60.5 34t77.5 13q48 0 87.5-18t67-49 42.5-72 15-86q0-59-20.5-112t-58-92.5-90.5-63-118-23.5q-45 0-82 13t-63 37l-48-226h-111zM330 405q-35 0-68.5-14t-58.5-40l-43-199q20-29 53-43t69-14 68 13 55 36.5 36.5 56 13.5 70.5q0 63-34 98.5t-91 35.5z" glyph-name="p" horiz-adv-x="606" unicode="&#x70;"/><glyph d="M378 33q-26-19-58-30t-72-11q-48 0-86.5 18t-66.5 49-43 72-15 86q0 59 21 112t59 92.5 91 63 117 23.5q45 0 81-13.5t62-37.5l10 43h110l-145-684h-110zM275 95q35 0 69 14t59 40l42 199q-20 28-53 42.5t-69 14.5-67.5-13-55-36.5-37-56-13.5-70.5q0-63 34.5-98.5t90.5-35.5z" glyph-name="q" horiz-adv-x="604" unicode="&#x71;"/><glyph d="M123 500h111l-12-54q26 29 63 45t80 16q11 0 21.5-1t19.5-3l-24-115q-23 10-57 10-36 0-69.5-16t-56.5-45l-71-337h-111z" glyph-name="r" horiz-adv-x="375" unicode="&#x72;"/><glyph d="M370 144q0-35-13.5-63t-37-48-56-30.5-70.5-10.5q-75 0-122 32t-67 86l87 49q14-35 39-54.5t67-19.5q28 0 47.5 13t19.5 36q0 22-15 37t-44 32l-37 23q-42 26-70.5 58.5t-28.5 80.5q0 31 11.5 57t33.5 45 53 30 69 11q57 0 100.5-25t64.5-71l-88-50q-24 53-80 53-26 0-42-12t-16-33q0-19 12-32.5t38-29.5l34-22q47-27 79-60.5t32-81.5z" glyph-name="s" horiz-adv-x="425" unicode="&#x73;"/><glyph d="M58 500h101l21 94 123 56-32-150h136l-22-98h-135l-48-220q-9-43 2-62.5t53-19.5h67l-21-100h-82q-83 0-116.5 43.5t-14.5 132.5l49 226h-81v98z" glyph-name="t" horiz-adv-x="385" unicode="&#x74;"/><glyph d="M364 44q-61-52-145-52-43 0-78 16.5t-57.5 47-30 73.5 3.5 97l59 274h110l-56-266q-14-68 8.5-103.5t82.5-35.5q36 0 68.5 16t56.5 49l72 340h111l-106-500h-108z" glyph-name="u" horiz-adv-x="585" unicode="&#x75;"/><glyph d="M43 500h117l81-293 201 293h132l-371-508z" glyph-name="v" horiz-adv-x="513" unicode="&#x76;"/><glyph d="M57 500h110l30-332 203 340 59-344 172 336h115l-257-500h-89l-44 265-158-265h-89z" glyph-name="w" horiz-adv-x="700" unicode="&#x77;"/><glyph d="M207 263l-132 237h116l90-161 158 161h136l-245-249 141-251h-118l-97 175-172-175h-136z" glyph-name="x" horiz-adv-x="532" unicode="&#x78;"/><glyph d="M150 19l-94 481h114l65-354 213 354h122l-427-684h-120z" glyph-name="y" horiz-adv-x="517" unicode="&#x79;"/><glyph d="M318 403h-238l20 97h433l-355-402h257l-21-98h-452z" glyph-name="z" horiz-adv-x="504" unicode="&#x7a;"/><glyph d="M154-148q-142 0-106 169l37 173q6 29-2 47t-42 18h-9l17 82h10q35 0 50 19t21 48l43 201q9 40 23.5 67t34.5 43 47 22.5 60 6.5h64l-18-83h-37q-39 0-56.5-16t-26.5-56l-40-188q-8-38-25.5-65.5t-53.5-39.5q29-11 36.5-38.5t-.5-63.5l-40-188q-8-40 1.5-57.5t48.5-17.5h39l-18-83h-58z" glyph-name="braceleft" horiz-adv-x="328" unicode="&#x7b;"/><glyph d="M119 710h95v-894h-95v894z" glyph-name="bar" horiz-adv-x="327" unicode="&#x7c;"/><glyph d="M195 748q142 0 106-169l-37-173q-6-29 2-47t42-18h9l-17-82h-10q-35 0-50-19t-21-48l-43-201q-9-41-23.5-67.5t-34.5-42.5-47-22.5-60-6.5h-64l18 83h37q39 0 56.5 16t26.5 56l40 188q8 38 25.5 65.5t53.5 39.5q-29 11-36.5 38.5t.5 63.5l40 188q8 40-1.5 57.5t-48.5 17.5h-39l18 83h58z" glyph-name="braceright" horiz-adv-x="327" unicode="&#x7d;"/><glyph glyph-name="uni00A0" horiz-adv-x="242" unicode="&#xa0;"/><glyph d="M184 508q32 0 53-21t21-50q0-26-12-46t-32-35h-114q-8 9-12.5 24.5t-4.5 30.5q0 22 8 40t22 31 32.5 19.5 38.5 6.5zM155 84l-56-267h-112l57 267 67 214h68z" glyph-name="exclamdown" horiz-adv-x="267" unicode="&#xa1;"/><glyph d="M20 104h92l44 206h-91l16 74h103q-17 19-26 49t-9 61q0 47 17.5 88t49.5 71 75.5 47.5 96.5 17.5q49 0 87.5-17t64.5-45.5 38-67 9-80.5h-107q1 25-7 44.5t-22 33.5-33 21.5-41 7.5q-53 0-88-33.5t-35-86.5q0-50 30-80.5t77-30.5h75l-16-74h-153l-44-206h292l-22-104h-494z" glyph-name="sterling" horiz-adv-x="581" unicode="&#xa3;"/><glyph d="M112 208h166l15 73h-165l16 74h129l-151 355h123l124-299 250 299h137l-301-355h129l-16-74h-165l-15-73h164l-16-74h-164l-29-134h-109l28 134h-166z" glyph-name="yen" horiz-adv-x="687" unicode="&#xa5;"/><glyph d="M306 637q0-29-19.5-48t-47.5-19-48 19-20 48q0 28 20 47.5t48 19.5 47.5-19.5 19.5-47.5zM77 637q0-29-19.5-48t-48.5-19q-28 0-47.5 19t-19.5 48q0 28 19.5 47.5t47.5 19.5q29 0 48.5-19.5t19.5-47.5z" glyph-name="dieresis" unicode="&#xa8;"/><glyph d="M434-9q-75 0-141 28.5t-115.5 78-78 115.5-28.5 141 28.5 141 78 115.5 115.5 78.5 141 29 141-29 115.5-78.5 78-115.5 28.5-141-28.5-141-78-115.5-115.5-78-141-28.5zM434 61q60 0 112 22.5t91 62.5 61.5 93.5 22.5 115.5-22.5 115.5-61.5 93-91 62-112 22.5-112.5-22.5-91-62-61-93-22.5-115.5 22.5-115.5 61-93.5 91-62.5 112.5-22.5zM450 183q-36 0-67.5 13t-54.5 36.5-36.5 55-13.5 67.5 13.5 67.5 36.5 54.5 54.5 36.5 67.5 13.5 67.5-14.5 54.5-40.5l-49-52q-13 14-31.5 24.5t-41.5 10.5q-21 0-38.5-8t-30.5-21.5-20-31.5-7-39 7-39 20-31.5 30.5-21.5 38.5-8q23 0 41.5 10.5t31.5 25.5l49-53q-23-26-54.5-40.5t-67.5-14.5z" glyph-name="copyright" horiz-adv-x="823" unicode="&#xa9;"/><glyph d="M39 253l205 226 65-60-162-176 85-182-85-40zM257 253l205 226 65-60-162-176 85-182-85-40z" glyph-name="guillemotleft" horiz-adv-x="537" unicode="&#xab;"/><glyph d="M80 331h258l-23-109h-259z" glyph-name="uni00AD" horiz-adv-x="383" unicode="&#xad;"/><glyph d="M-21 678h306l-17-77h-306z" glyph-name="macron" unicode="&#xaf;"/><glyph d="M230 470q-25 0-47.5 9.5t-39 26-26 39-9.5 47.5 9.5 47.5 26 39 39 26 47.5 9.5 47.5-9.5 39-26 26-39 9.5-47.5-9.5-47.5-26-39-39-26-47.5-9.5zM230 533q25 0 41.5 17.5t16.5 41.5-16.5 41-41.5 17q-24 0-41.5-17t-17.5-41 17.5-41.5 41.5-17.5z" glyph-name="degree" horiz-adv-x="322" unicode="&#xb0;"/><glyph d="M110 710h139l-162-160h-85z" glyph-name="acute" unicode="&#xb4;"/><glyph d="M139 164q-36 0-61.5 25.5t-25.5 61.5 25.5 61 61.5 25 61-25 25-61-25-61.5-61-25.5z" glyph-name="periodcentered" horiz-adv-x="277" unicode="&#xb7;"/><glyph d="M-16 0h79l-80-165h-112z" glyph-name="cedilla" unicode="&#xb8;"/><glyph d="M280 247l-205-226-65 60 162 176-85 182 85 40zM498 247l-205-226-65 60 162 176-85 182 85 40z" glyph-name="guillemotright" horiz-adv-x="536" unicode="&#xbb;"/><glyph d="M306 508q32 0 53-21t21-50q0-26-12-46t-32-35h-114q-8 9-12.5 24.5t-4.5 30.5q0 22 8 40t22 31 32.5 19.5 38.5 6.5zM196-192q-48 0-85.5 17t-63 45.5-38.5 65-13 75.5q0 45 17.5 87.5t50.5 75.5 81 53 109 20h65l-21-102h-48q-36 0-63.5-10t-46-27.5-28-40.5-9.5-48q0-22 7-41.5t20.5-34.5 32.5-23.5 43-8.5q57 0 90.5 34.5t35.5 83.5h107q-2-44-20-84t-49.5-70.5-75.5-48.5-98-18z" glyph-name="questiondown" horiz-adv-x="518" unicode="&#xbf;"/><glyph d="M467 158h-292l-108-158h-131l498 718 193-718h-119zM442 259l-55 211-144-211h199zM305 913h123l51-145h-82z" glyph-name="Agrave" horiz-adv-x="669" unicode="&#xc0;"/><glyph d="M467 158h-292l-108-158h-131l498 718 193-718h-119zM442 259l-55 211-144-211h199zM506 913h135l-148-145h-91z" glyph-name="Aacute" horiz-adv-x="669" unicode="&#xc1;"/><glyph d="M467 158h-292l-108-158h-131l498 718 193-718h-119zM442 259l-55 211-144-211h199zM286 835l194 93 152-96-41-69-118 74-153-74z" glyph-name="Acircumflex" horiz-adv-x="669" unicode="&#xc2;"/><glyph d="M467 158h-292l-108-158h-131l498 718 193-718h-119zM442 259l-55 211-144-211h199zM267 782q20 65 52.5 94.5t75.5 29.5q21 0 39-6.5t33-14.5 28.5-14.5 26.5-6.5q20 0 30.5 10t20.5 33h81q-21-65-52-94.5t-76-29.5q-21 0-39 6.5t-33.5 14.5-29 14.5-26.5 6.5q-18 0-29-10t-21-33h-81z" glyph-name="Atilde" horiz-adv-x="669" unicode="&#xc3;"/><glyph d="M467 158h-292l-108-158h-131l498 718 193-718h-119zM442 259l-55 211-144-211h199zM643 846q0-29-19.5-48t-47.5-19-48 19-20 48q0 28 20 47.5t48 19.5 47.5-19.5 19.5-47.5zM414 846q0-29-19.5-48t-48.5-19q-28 0-47.5 19t-19.5 48q0 28 19.5 47.5t47.5 19.5q29 0 48.5-19.5t19.5-47.5z" glyph-name="Adieresis" horiz-adv-x="669" unicode="&#xc4;"/><glyph d="M467 158h-292l-108-158h-131l498 718 193-718h-119zM442 259l-55 211-144-211h199zM569 857q0-22-8.5-40.5t-22.5-32.5-33.5-22-41.5-8-41.5 8-34 22-23 32.5-8.5 40.5q0 45 31 74.5t76 29.5q44 0 75-29.5t31-74.5zM415 857q0-20 14-33.5t34-13.5 33.5 13.5 13.5 33.5q0 21-13.5 34.5t-33.5 13.5-34-13.5-14-34.5z" glyph-name="Aring" horiz-adv-x="669" unicode="&#xc5;"/><glyph d="M477 158h-292l-108-158h-131l412 595-31 115h398l30-114h-279l48-180h228l30-112h-227l50-190h279l31-114h-397zM452 259l-55 211-144-211h199z" glyph-name="AE" horiz-adv-x="959" unicode="&#xc6;"/><glyph d="M666 86q-50-46-117-70t-148-24q-79 0-141 27.5t-105 74-65.5 106.5-22.5 126q0 75 27 145.5t79 125.5 128 88 174 33q91 0 157-35t108-92l-93-72q-29 39-75.5 63t-106.5 24q-63 0-114.5-22t-88-58.5-56.5-85.5-20-103q0-46 14-88t41.5-74.5 69-51.5 97.5-19q59 0 105 19t81 51zM352 0h79l-80-165h-112z" glyph-name="Ccedilla" horiz-adv-x="705" unicode="&#xc7;"/><glyph d="M186 710h423l-25-114h-307l-38-180h247l-24-112h-247l-40-190h307l-24-114h-423zM271 913h123l51-145h-82z" glyph-name="Egrave" horiz-adv-x="559" unicode="&#xc8;"/><glyph d="M186 710h423l-25-114h-307l-38-180h247l-24-112h-247l-40-190h307l-24-114h-423zM472 913h135l-148-145h-91z" glyph-name="Eacute" horiz-adv-x="559" unicode="&#xc9;"/><glyph d="M186 710h423l-25-114h-307l-38-180h247l-24-112h-247l-40-190h307l-24-114h-423zM252 835l194 93 152-96-41-69-118 74-153-74z" glyph-name="Ecircumflex" horiz-adv-x="559" unicode="&#xca;"/><glyph d="M186 710h423l-25-114h-307l-38-180h247l-24-112h-247l-40-190h307l-24-114h-423zM609 846q0-29-19.5-48t-47.5-19-48 19-20 48q0 28 20 47.5t48 19.5 47.5-19.5 19.5-47.5zM380 846q0-29-19.5-48t-48.5-19q-28 0-47.5 19t-19.5 48q0 28 19.5 47.5t47.5 19.5q29 0 48.5-19.5t19.5-47.5z" glyph-name="Edieresis" horiz-adv-x="559" unicode="&#xcb;"/><glyph d="M186 710h117l-151-710h-117zM116 913h123l51-145h-82z" glyph-name="Igrave" horiz-adv-x="293" unicode="&#xcc;"/><glyph d="M186 710h117l-151-710h-117zM316 913h135l-148-145h-91z" glyph-name="Iacute" horiz-adv-x="293" unicode="&#xcd;"/><glyph d="M186 710h117l-151-710h-117zM96 835l194 93 152-96-41-69-118 74-153-74z" glyph-name="Icircumflex" horiz-adv-x="293" unicode="&#xce;"/><glyph d="M186 710h117l-151-710h-117zM454 846q0-29-19.5-48t-47.5-19-48 19-20 48q0 28 20 47.5t48 19.5 47.5-19.5 19.5-47.5zM225 846q0-29-19.5-48t-48.5-19q-28 0-47.5 19t-19.5 48q0 28 19.5 47.5t47.5 19.5q29 0 48.5-19.5t19.5-47.5z" glyph-name="Idieresis" horiz-adv-x="293" unicode="&#xcf;"/><glyph d="M216 710h209q76 0 136-23.5t101.5-64 63.5-94.5 22-114q0-95-34-171.5t-94-130.5-142-83-179-29h-234zM305 108q71 0 130.5 22.5t102 62 66.5 92.5 24 114q0 43-14 80t-40.5 64.5-65.5 43-88 15.5h-111l-105-494h101zM42 393h335l-15-74h-335z" glyph-name="Eth" horiz-adv-x="765" unicode="&#xd0;"/><glyph d="M250 465l-99-465h-116l153 718 380-476 100 468h116l-153-718zM290 782q20 65 52.5 94.5t75.5 29.5q21 0 39-6.5t33-14.5 28.5-14.5 26.5-6.5q20 0 30.5 10t20.5 33h81q-21-65-52-94.5t-76-29.5q-21 0-39 6.5t-33.5 14.5-29 14.5-26.5 6.5q-18 0-29-10t-21-33h-81z" glyph-name="Ntilde" horiz-adv-x="774" unicode="&#xd1;"/><glyph d="M806 385q0-75-27-146t-78.5-125.5-127.5-88-175-33.5q-78 0-139.5 28t-104 74-65 106-22.5 125q0 75 26.5 146t78.5 125.5 128 88 174 33.5q78 0 139.5-28t104.5-74 65.5-106.5 22.5-124.5zM186 335q0-46 14-88t42-73.5 69.5-50.5 96.5-19q63 0 114.5 22t88 59 56.5 86.5 20 103.5q0 46-14 88t-42 73.5-69.5 50.5-96.5 19q-63 0-114.5-22t-88-59-56.5-86.5-20-103.5zM347 913h123l51-145h-82z" glyph-name="Ograve" horiz-adv-x="827" unicode="&#xd2;"/><glyph d="M806 385q0-75-27-146t-78.5-125.5-127.5-88-175-33.5q-78 0-139.5 28t-104 74-65 106-22.5 125q0 75 26.5 146t78.5 125.5 128 88 174 33.5q78 0 139.5-28t104.5-74 65.5-106.5 22.5-124.5zM186 335q0-46 14-88t42-73.5 69.5-50.5 96.5-19q63 0 114.5 22t88 59 56.5 86.5 20 103.5q0 46-14 88t-42 73.5-69.5 50.5-96.5 19q-63 0-114.5-22t-88-59-56.5-86.5-20-103.5zM548 913h135l-148-145h-91z" glyph-name="Oacute" horiz-adv-x="827" unicode="&#xd3;"/><glyph d="M806 385q0-75-27-146t-78.5-125.5-127.5-88-175-33.5q-78 0-139.5 28t-104 74-65 106-22.5 125q0 75 26.5 146t78.5 125.5 128 88 174 33.5q78 0 139.5-28t104.5-74 65.5-106.5 22.5-124.5zM186 335q0-46 14-88t42-73.5 69.5-50.5 96.5-19q63 0 114.5 22t88 59 56.5 86.5 20 103.5q0 46-14 88t-42 73.5-69.5 50.5-96.5 19q-63 0-114.5-22t-88-59-56.5-86.5-20-103.5zM328 835l194 93 152-96-41-69-118 74-153-74z" glyph-name="Ocircumflex" horiz-adv-x="827" unicode="&#xd4;"/><glyph d="M806 385q0-75-27-146t-78.5-125.5-127.5-88-175-33.5q-78 0-139.5 28t-104 74-65 106-22.5 125q0 75 26.5 146t78.5 125.5 128 88 174 33.5q78 0 139.5-28t104.5-74 65.5-106.5 22.5-124.5zM186 335q0-46 14-88t42-73.5 69.5-50.5 96.5-19q63 0 114.5 22t88 59 56.5 86.5 20 103.5q0 46-14 88t-42 73.5-69.5 50.5-96.5 19q-63 0-114.5-22t-88-59-56.5-86.5-20-103.5zM309 782q20 65 52.5 94.5t75.5 29.5q21 0 39-6.5t33-14.5 28.5-14.5 26.5-6.5q20 0 30.5 10t20.5 33h81q-21-65-52-94.5t-76-29.5q-21 0-39 6.5t-33.5 14.5-29 14.5-26.5 6.5q-18 0-29-10t-21-33h-81z" glyph-name="Otilde" horiz-adv-x="827" unicode="&#xd5;"/><glyph d="M806 385q0-75-27-146t-78.5-125.5-127.5-88-175-33.5q-78 0-139.5 28t-104 74-65 106-22.5 125q0 75 26.5 146t78.5 125.5 128 88 174 33.5q78 0 139.5-28t104.5-74 65.5-106.5 22.5-124.5zM186 335q0-46 14-88t42-73.5 69.5-50.5 96.5-19q63 0 114.5 22t88 59 56.5 86.5 20 103.5q0 46-14 88t-42 73.5-69.5 50.5-96.5 19q-63 0-114.5-22t-88-59-56.5-86.5-20-103.5zM685 846q0-29-19.5-48t-47.5-19-48 19-20 48q0 28 20 47.5t48 19.5 47.5-19.5 19.5-47.5zM456 846q0-29-19.5-48t-48.5-19q-28 0-47.5 19t-19.5 48q0 28 19.5 47.5t47.5 19.5q29 0 48.5-19.5t19.5-47.5z" glyph-name="Odieresis" horiz-adv-x="827" unicode="&#xd6;"/><glyph d="M97 125l141 140-142 141 62 61 141-141 140 140 61-61-140-140 141-142-60-60-142 141-140-140z" glyph-name="multiply" horiz-adv-x="590" unicode="&#xd7;"/><glyph d="M101-59l-53 52 100 107q-38 44-59 100-22 60-22 125 0 75 26.5 146t78.5 125.5 128 88 174 33.5q78 0 139-28 30-14 55-31l102 109 54-52-100-107q38-44 59-100 23-60 23-124 0-75-27-146t-78.5-125.5-127.5-88-175-33.5q-78 0-140 28-29 13-55 31zM311 123q42-19 97-19 63 0 114.5 22t88 59 56.5 86.5 20 103.5q0 46-14 88-11 32-30 59l-359-385q13-8 27-14zM186 335q0-46 14-88 11-33 30-59l358 384q-13 8-27 15-41 19-96 19-63 0-114.5-22t-88-59-56.5-86.5-20-103.5z" glyph-name="Oslash" horiz-adv-x="827" unicode="&#xd8;"/><glyph d="M651 278q-15-71-41-124.5t-65-89.5-93-54-125-18q-63 0-113.5 21t-83.5 60-45 93.5 2 120.5l89 423h117l-92-430q-18-89 21-132.5t115-43.5q75 0 127 43t70 129l92 434h117zM329 913h123l51-145h-82z" glyph-name="Ugrave" horiz-adv-x="725" unicode="&#xd9;"/><glyph d="M651 278q-15-71-41-124.5t-65-89.5-93-54-125-18q-63 0-113.5 21t-83.5 60-45 93.5 2 120.5l89 423h117l-92-430q-18-89 21-132.5t115-43.5q75 0 127 43t70 129l92 434h117zM529 913h135l-148-145h-91z" glyph-name="Uacute" horiz-adv-x="725" unicode="&#xda;"/><glyph d="M651 278q-15-71-41-124.5t-65-89.5-93-54-125-18q-63 0-113.5 21t-83.5 60-45 93.5 2 120.5l89 423h117l-92-430q-18-89 21-132.5t115-43.5q75 0 127 43t70 129l92 434h117zM309 835l194 93 152-96-41-69-118 74-153-74z" glyph-name="Ucircumflex" horiz-adv-x="725" unicode="&#xdb;"/><glyph d="M651 278q-15-71-41-124.5t-65-89.5-93-54-125-18q-63 0-113.5 21t-83.5 60-45 93.5 2 120.5l89 423h117l-92-430q-18-89 21-132.5t115-43.5q75 0 127 43t70 129l92 434h117zM667 846q0-29-19.5-48t-47.5-19-48 19-20 48q0 28 20 47.5t48 19.5 47.5-19.5 19.5-47.5zM438 846q0-29-19.5-48t-48.5-19q-28 0-47.5 19t-19.5 48q0 28 19.5 47.5t47.5 19.5q29 0 48.5-19.5t19.5-47.5z" glyph-name="Udieresis" horiz-adv-x="725" unicode="&#xdc;"/><glyph d="M275 299l-175 411h125l122-298 248 298h145l-349-411-63-299h-117zM482 913h135l-148-145h-91z" glyph-name="Yacute" horiz-adv-x="645" unicode="&#xdd;"/><glyph d="M186 710h116l-27-128h84q53 0 93.5-15.5t67.5-42 41-62.5 14-78q0-54-20.5-100.5t-59-80.5-93-53-122.5-19h-101l-28-131h-116zM299 240q72 0 115 36.5t43 96.5q0 42-28 71t-89 29h-88l-49-233h96z" glyph-name="Thorn" horiz-adv-x="587" unicode="&#xde;"/><glyph d="M187-76q87 0 136 39.5t49 108.5q0 27-10 50t-27 39.5-41.5 26-52.5 9.5l18 85 101 120h-149l-85-402h-110l119 562q17 75 60 111.5t124 36.5h62l-21-100h-36q-38 0-57-18.5t-27-53.5l-8-38h329l-190-230q51-24 82-74.5t31-118.5q0-57-22-104.5t-63-82.5-100.5-54.5-134.5-19.5z" glyph-name="germandbls" horiz-adv-x="559" unicode="&#xdf;"/><glyph d="M387 39q-27-21-61.5-34t-77.5-13q-48 0-86.5 18t-66.5 49-43 72-15 86q0 59 21 112t59 92.5 91 63 117 23.5q45 0 81.5-13.5t62.5-37.5l9 43h110l-106-500h-102zM275 95q35 0 69 14t59 40l42 199q-20 28-53 42.5t-69 14.5-67.5-13-55-36.5-37-56-13.5-70.5q0-63 34.5-98.5t90.5-35.5zM215 710h126l52-160h-78z" glyph-name="agrave" horiz-adv-x="604" unicode="&#xe0;"/><glyph d="M387 39q-27-21-61.5-34t-77.5-13q-48 0-86.5 18t-66.5 49-43 72-15 86q0 59 21 112t59 92.5 91 63 117 23.5q45 0 81.5-13.5t62.5-37.5l9 43h110l-106-500h-102zM275 95q35 0 69 14t59 40l42 199q-20 28-53 42.5t-69 14.5-67.5-13-55-36.5-37-56-13.5-70.5q0-63 34.5-98.5t90.5-35.5zM429 710h139l-162-160h-85z" glyph-name="aacute" horiz-adv-x="604" unicode="&#xe1;"/><glyph d="M387 39q-27-21-61.5-34t-77.5-13q-48 0-86.5 18t-66.5 49-43 72-15 86q0 59 21 112t59 92.5 91 63 117 23.5q45 0 81.5-13.5t62.5-37.5l9 43h110l-106-500h-102zM275 95q35 0 69 14t59 40l42 199q-20 28-53 42.5t-69 14.5-67.5-13-55-36.5-37-56-13.5-70.5q0-63 34.5-98.5t90.5-35.5zM205 620l196 102 150-108-46-64-113 80-152-80z" glyph-name="acircumflex" horiz-adv-x="604" unicode="&#xe2;"/><glyph d="M387 39q-27-21-61.5-34t-77.5-13q-48 0-86.5 18t-66.5 49-43 72-15 86q0 59 21 112t59 92.5 91 63 117 23.5q45 0 81.5-13.5t62.5-37.5l9 43h110l-106-500h-102zM275 95q35 0 69 14t59 40l42 199q-20 28-53 42.5t-69 14.5-67.5-13-55-36.5-37-56-13.5-70.5q0-63 34.5-98.5t90.5-35.5zM183 562q20 65 52.5 94.5t75.5 29.5q21 0 39-6.5t33-14.5 28.5-14.5 26.5-6.5q20 0 30.5 10t20.5 33h81q-21-65-52-94.5t-76-29.5q-21 0-39 6.5t-33.5 14.5-29 14.5-26.5 6.5q-18 0-29-10t-21-33h-81z" glyph-name="atilde" horiz-adv-x="604" unicode="&#xe3;"/><glyph d="M387 39q-27-21-61.5-34t-77.5-13q-48 0-86.5 18t-66.5 49-43 72-15 86q0 59 21 112t59 92.5 91 63 117 23.5q45 0 81.5-13.5t62.5-37.5l9 43h110l-106-500h-102zM275 95q35 0 69 14t59 40l42 199q-20 28-53 42.5t-69 14.5-67.5-13-55-36.5-37-56-13.5-70.5q0-63 34.5-98.5t90.5-35.5zM562 637q0-29-19.5-48t-47.5-19-48 19-20 48q0 28 20 47.5t48 19.5 47.5-19.5 19.5-47.5zM333 637q0-29-19.5-48t-48.5-19q-28 0-47.5 19t-19.5 48q0 28 19.5 47.5t47.5 19.5q29 0 48.5-19.5t19.5-47.5z" glyph-name="adieresis" horiz-adv-x="604" unicode="&#xe4;"/><glyph d="M387 39q-27-21-61.5-34t-77.5-13q-48 0-86.5 18t-66.5 49-43 72-15 86q0 59 21 112t59 92.5 91 63 117 23.5q45 0 81.5-13.5t62.5-37.5l9 43h110l-106-500h-102zM275 95q35 0 69 14t59 40l42 199q-20 28-53 42.5t-69 14.5-67.5-13-55-36.5-37-56-13.5-70.5q0-63 34.5-98.5t90.5-35.5zM491 662q0-22-8.5-40.5t-22.5-32.5-33.5-22-41.5-8-41.5 8-34 22-23 32.5-8.5 40.5q0 45 31 74.5t76 29.5q44 0 75-29.5t31-74.5zM337 662q0-20 14-33.5t34-13.5 33.5 13.5 13.5 33.5q0 21-13.5 34.5t-33.5 13.5-34-13.5-14-34.5z" glyph-name="aring" horiz-adv-x="604" unicode="&#xe5;"/><glyph d="M820 81q-38-42-91.5-65.5t-118.5-23.5q-54 0-102 20.5t-81 62.5q-53-44-107.5-63.5t-119.5-19.5q-91 0-138.5 40t-47.5 106q0 39 15 71.5t44.5 56.5 73.5 37 102 13q43 0 75.5-10t56.5-24l5 28q4 28-3.5 46.5t-23 29.5-37 15.5-45.5 4.5q-40 0-78-12.5t-66-31.5l-15 102q41 20 83.5 32t93.5 12q50 0 94-17t70-62q40 41 92 60t107 19q62 0 107-23t72-62 35.5-90-1.5-106h-388q2-35 14-60t30.5-40.5 42-23 47.5-7.5q40 0 71 14.5t54 40.5zM648 414q-24 0-47.5-6.5t-44.5-20-37.5-33.5-26.5-47h273q-1 51-34.5 79t-82.5 28zM207 90q46 0 84.5 17t61.5 44l10 46q-20 17-49 26t-71 9q-24 0-46-5t-38.5-15.5-26-25.5-9.5-34q0-36 25.5-49t58.5-13z" glyph-name="ae" horiz-adv-x="905" unicode="&#xe6;"/><glyph d="M482 79q-39-40-90.5-63.5t-116.5-23.5q-57 0-101 19.5t-74.5 52-46 75-15.5 88.5q0 59 21.5 110t59.5 89 90 60 114 22q72 0 123.5-32t78.5-84l-92-58q-19 34-50 52t-69 18q-35 0-65-12.5t-51.5-35-34-53.5-12.5-67q0-33 10.5-59t29-44 43-27.5 51.5-9.5q38 0 68 14.5t53 39.5zM234 0h79l-80-165h-112z" glyph-name="ccedilla" horiz-adv-x="530" unicode="&#xe7;"/><glyph d="M283 96q40 0 71 14.5t54 40.5l78-70q-38-42-91.5-65.5t-118.5-23.5q-57 0-101 19.5t-74.5 52-46 75-15.5 88.5q0 58 21 109.5t59 89.5 90.5 60 114.5 22 107-23 72-62 35.5-90-1.5-106h-388q3-34 15-59t30-41 41-23.5 48-7.5zM314 414q-21 0-44.5-6.5t-44.5-20-38-33.5-27-47h271q0 51-34 79t-83 28zM189 710h126l52-160h-78z" glyph-name="egrave" horiz-adv-x="571" unicode="&#xe8;"/><glyph d="M283 96q40 0 71 14.5t54 40.5l78-70q-38-42-91.5-65.5t-118.5-23.5q-57 0-101 19.5t-74.5 52-46 75-15.5 88.5q0 58 21 109.5t59 89.5 90.5 60 114.5 22 107-23 72-62 35.5-90-1.5-106h-388q3-34 15-59t30-41 41-23.5 48-7.5zM314 414q-21 0-44.5-6.5t-44.5-20-38-33.5-27-47h271q0 51-34 79t-83 28zM402 710h139l-162-160h-85z" glyph-name="eacute" horiz-adv-x="571" unicode="&#xe9;"/><glyph d="M283 96q40 0 71 14.5t54 40.5l78-70q-38-42-91.5-65.5t-118.5-23.5q-57 0-101 19.5t-74.5 52-46 75-15.5 88.5q0 58 21 109.5t59 89.5 90.5 60 114.5 22 107-23 72-62 35.5-90-1.5-106h-388q3-34 15-59t30-41 41-23.5 48-7.5zM314 414q-21 0-44.5-6.5t-44.5-20-38-33.5-27-47h271q0 51-34 79t-83 28zM179 620l196 102 150-108-46-64-113 80-152-80z" glyph-name="ecircumflex" horiz-adv-x="571" unicode="&#xea;"/><glyph d="M283 96q40 0 71 14.5t54 40.5l78-70q-38-42-91.5-65.5t-118.5-23.5q-57 0-101 19.5t-74.5 52-46 75-15.5 88.5q0 58 21 109.5t59 89.5 90.5 60 114.5 22 107-23 72-62 35.5-90-1.5-106h-388q3-34 15-59t30-41 41-23.5 48-7.5zM314 414q-21 0-44.5-6.5t-44.5-20-38-33.5-27-47h271q0 51-34 79t-83 28zM536 637q0-29-19.5-48t-47.5-19-48 19-20 48q0 28 20 47.5t48 19.5 47.5-19.5 19.5-47.5zM307 637q0-29-19.5-48t-48.5-19q-28 0-47.5 19t-19.5 48q0 28 19.5 47.5t47.5 19.5q29 0 48.5-19.5t19.5-47.5z" glyph-name="edieresis" horiz-adv-x="571" unicode="&#xeb;"/><glyph d="M123 500h111l-106-500h-111zM44 710h126l52-160h-78z" glyph-name="igrave" horiz-adv-x="250" unicode="&#xec;"/><glyph d="M123 500h111l-106-500h-111zM257 710h139l-162-160h-85z" glyph-name="iacute" horiz-adv-x="250" unicode="&#xed;"/><glyph d="M123 500h111l-106-500h-111zM33 620l196 102 150-108-46-64-113 80-152-80z" glyph-name="icircumflex" horiz-adv-x="250" unicode="&#xee;"/><glyph d="M123 500h111l-106-500h-111zM108 570q-26 0-46.5 19t-20.5 48q0 28 20 47.5t47 19.5q29 0 48.5-19.5t19.5-47.5q0-29-19.5-48t-48.5-19zM307 570q-28 0-48 19t-20 48q0 28 19.5 47.5t48.5 19.5q28 0 47.5-19.5t19.5-47.5q0-29-19.5-48t-47.5-19z" glyph-name="idieresis" horiz-adv-x="250" unicode="&#xef;"/><glyph d="M227 632h83l-36 78h113l35-78h126l-14-65h-83l72-159q17-37 27-67.5t10-66.5q0-59-21.5-110.5t-60-89.5-90.5-60-112-22q-57 0-101.5 19.5t-74.5 52-46 75-16 88.5q0 58 21.5 109.5t60 89.5 90.5 60 112 22q8 0 20.5-1t26.5-6l-30 66h-127zM151 236q0-33 10.5-59t29-44 43-27.5 51.5-9.5q35 0 64.5 12.5t51.5 35 34 53.5 12 67q0 33-10.5 59t-29 44-43 27.5-51.5 9.5q-35 0-64.5-12.5t-51.5-35-34-53.5-12-67z" glyph-name="eth" horiz-adv-x="598" unicode="&#xf0;"/><glyph d="M123 500h107l-8-44q61 52 146 52 45 0 80-18t57.5-49 30.5-73.5-3-90.5l-58-277h-111l57 270q12 60-12 97.5t-84 37.5q-35 0-67-15.5t-58-46.5l-72-343h-111zM192 562q20 65 52.5 94.5t75.5 29.5q21 0 39-6.5t33-14.5 28.5-14.5 26.5-6.5q20 0 30.5 10t20.5 33h81q-21-65-52-94.5t-76-29.5q-21 0-39 6.5t-33.5 14.5-29 14.5-26.5 6.5q-18 0-29-10t-21-33h-81z" glyph-name="ntilde" horiz-adv-x="589" unicode="&#xf1;"/><glyph d="M560 274q0-59-21-110.5t-59-89.5-90-60-113-22q-57 0-101.5 19.5t-75 52-46.5 75-16 88.5q0 59 21.5 110t59.5 89 90 60 114 22q57 0 101-19.5t74.5-52 46-74.5 15.5-88zM151 236q0-33 10.5-59t29-44 43-27.5 52.5-9.5q35 0 64.5 12.5t51.5 35 34 53.5 12 67q0 33-10.5 59t-29 44-43 27.5-52.5 9.5q-35 0-64.5-12.5t-51-35-34-53.5-12.5-67zM187 710h126l52-160h-78z" glyph-name="ograve" horiz-adv-x="598" unicode="&#xf2;"/><glyph d="M560 274q0-59-21-110.5t-59-89.5-90-60-113-22q-57 0-101.5 19.5t-75 52-46.5 75-16 88.5q0 59 21.5 110t59.5 89 90 60 114 22q57 0 101-19.5t74.5-52 46-74.5 15.5-88zM151 236q0-33 10.5-59t29-44 43-27.5 52.5-9.5q35 0 64.5 12.5t51.5 35 34 53.5 12 67q0 33-10.5 59t-29 44-43 27.5-52.5 9.5q-35 0-64.5-12.5t-51-35-34-53.5-12.5-67zM401 710h139l-162-160h-85z" glyph-name="oacute" horiz-adv-x="598" unicode="&#xf3;"/><glyph d="M560 274q0-59-21-110.5t-59-89.5-90-60-113-22q-57 0-101.5 19.5t-75 52-46.5 75-16 88.5q0 59 21.5 110t59.5 89 90 60 114 22q57 0 101-19.5t74.5-52 46-74.5 15.5-88zM151 236q0-33 10.5-59t29-44 43-27.5 52.5-9.5q35 0 64.5 12.5t51.5 35 34 53.5 12 67q0 33-10.5 59t-29 44-43 27.5-52.5 9.5q-35 0-64.5-12.5t-51-35-34-53.5-12.5-67zM178 620l196 102 150-108-46-64-113 80-152-80z" glyph-name="ocircumflex" horiz-adv-x="598" unicode="&#xf4;"/><glyph d="M560 274q0-59-21-110.5t-59-89.5-90-60-113-22q-57 0-101.5 19.5t-75 52-46.5 75-16 88.5q0 59 21.5 110t59.5 89 90 60 114 22q57 0 101-19.5t74.5-52 46-74.5 15.5-88zM151 236q0-33 10.5-59t29-44 43-27.5 52.5-9.5q35 0 64.5 12.5t51.5 35 34 53.5 12 67q0 33-10.5 59t-29 44-43 27.5-52.5 9.5q-35 0-64.5-12.5t-51-35-34-53.5-12.5-67zM156 562q20 65 52.5 94.5t75.5 29.5q21 0 39-6.5t33-14.5 28.5-14.5 26.5-6.5q20 0 30.5 10t20.5 33h81q-21-65-52-94.5t-76-29.5q-21 0-39 6.5t-33.5 14.5-29 14.5-26.5 6.5q-18 0-29-10t-21-33h-81z" glyph-name="otilde" horiz-adv-x="598" unicode="&#xf5;"/><glyph d="M560 274q0-59-21-110.5t-59-89.5-90-60-113-22q-57 0-101.5 19.5t-75 52-46.5 75-16 88.5q0 59 21.5 110t59.5 89 90 60 114 22q57 0 101-19.5t74.5-52 46-74.5 15.5-88zM151 236q0-33 10.5-59t29-44 43-27.5 52.5-9.5q35 0 64.5 12.5t51.5 35 34 53.5 12 67q0 33-10.5 59t-29 44-43 27.5-52.5 9.5q-35 0-64.5-12.5t-51-35-34-53.5-12.5-67zM535 637q0-29-19.5-48t-47.5-19-48 19-20 48q0 28 20 47.5t48 19.5 47.5-19.5 19.5-47.5zM306 637q0-29-19.5-48t-48.5-19q-28 0-47.5 19t-19.5 48q0 28 19.5 47.5t47.5 19.5q29 0 48.5-19.5t19.5-47.5z" glyph-name="odieresis" horiz-adv-x="598" unicode="&#xf6;"/><glyph d="M301 356q-29 0-50.5 21t-21.5 51q0 14 6 27t15.5 22.5 22.5 15.5 28 6q29 0 50-21t21-50q0-30-21-51t-50-21zM82 321h437v-87h-437v87zM301 56q-29 0-50.5 21t-21.5 51q0 29 21.5 50t50.5 21 50-21 21-50q0-30-21-51t-50-21z" glyph-name="divide" horiz-adv-x="590" unicode="&#xf7;"/><glyph d="M567 559l49-51-98-95q17-24 27-51 16-42 16-88 0-59-21-110.5t-59-89.5-90-60-113-22q-57 0-102 19-24 11-44 25l-96-94-48 52 94 92q-17 24-27 52-16 43-16 89 0 59 21.5 110t59.5 89 90 60 114 22q57 0 101-20 24-10 44-25zM152 236q0-33 10-59l4-9 221 216q-10 6-21 10-24 10-52 10-35 0-64.5-12.5t-51-35-34-53.5-12.5-67zM234 105q25-9 53-9 35 0 64.5 12.5t51.5 35 34 53.5 12 67q0 33-11 59-1 4-3 8l-221-216q9-6 20-10z" glyph-name="oslash" horiz-adv-x="600" unicode="&#xf8;"/><glyph d="M364 44q-61-52-145-52-43 0-78 16.5t-57.5 47-30 73.5 3.5 97l59 274h110l-56-266q-14-68 8.5-103.5t82.5-35.5q36 0 68.5 16t56.5 49l72 340h111l-106-500h-108zM207 710h126l52-160h-78z" glyph-name="ugrave" horiz-adv-x="585" unicode="&#xf9;"/><glyph d="M364 44q-61-52-145-52-43 0-78 16.5t-57.5 47-30 73.5 3.5 97l59 274h110l-56-266q-14-68 8.5-103.5t82.5-35.5q36 0 68.5 16t56.5 49l72 340h111l-106-500h-108zM420 710h139l-162-160h-85z" glyph-name="uacute" horiz-adv-x="585" unicode="&#xfa;"/><glyph d="M364 44q-61-52-145-52-43 0-78 16.5t-57.5 47-30 73.5 3.5 97l59 274h110l-56-266q-14-68 8.5-103.5t82.5-35.5q36 0 68.5 16t56.5 49l72 340h111l-106-500h-108zM197 620l196 102 150-108-46-64-113 80-152-80z" glyph-name="ucircumflex" horiz-adv-x="585" unicode="&#xfb;"/><glyph d="M364 44q-61-52-145-52-43 0-78 16.5t-57.5 47-30 73.5 3.5 97l59 274h110l-56-266q-14-68 8.5-103.5t82.5-35.5q36 0 68.5 16t56.5 49l72 340h111l-106-500h-108zM554 637q0-29-19.5-48t-47.5-19-48 19-20 48q0 28 20 47.5t48 19.5 47.5-19.5 19.5-47.5zM325 637q0-29-19.5-48t-48.5-19q-28 0-47.5 19t-19.5 48q0 28 19.5 47.5t47.5 19.5q29 0 48.5-19.5t19.5-47.5z" glyph-name="udieresis" horiz-adv-x="585" unicode="&#xfc;"/><glyph d="M150 19l-94 481h114l65-354 213 354h122l-427-684h-120zM385 710h139l-162-160h-85z" glyph-name="yacute" horiz-adv-x="517" unicode="&#xfd;"/><glyph d="M167 710h109l-55-246q26 20 59.5 32t75.5 12q48 0 87.5-18t67-49 42.5-72 15-86q0-59-20.5-112t-58-92.5-90.5-63-118-23.5q-45 0-82 13t-63 37l-48-226h-111zM329 405q-35 0-68.5-14t-58.5-40l-43-199q20-29 53-43t69-14 68 13 55 36.5 36.5 56 13.5 70.5q0 63-34 98.5t-91 35.5z" glyph-name="thorn" horiz-adv-x="606" unicode="&#xfe;"/><glyph d="M150 19l-94 481h114l65-354 213 354h122l-427-684h-120zM519 637q0-29-19.5-48t-47.5-19-48 19-20 48q0 28 20 47.5t48 19.5 47.5-19.5 19.5-47.5zM290 637q0-29-19.5-48t-48.5-19q-28 0-47.5 19t-19.5 48q0 28 19.5 47.5t47.5 19.5q29 0 48.5-19.5t19.5-47.5z" glyph-name="ydieresis" horiz-adv-x="517" unicode="&#xff;"/><glyph d="M467 158h-292l-108-158h-131l498 718 193-718h-119zM442 259l-55 211-144-211h199zM633 924q-7-71-53.5-112.5t-131.5-41.5q-77 0-117 43.5t-40 110.5h71q2-47 28.5-66.5t64.5-19.5q41 0 70 20.5t37 65.5h71z" glyph-name="Abreve" horiz-adv-x="669" unicode="&#x102;"/><glyph d="M467 158h-292l-108-158h-131l498 718 193-718h-119zM442 259l-55 211-144-211h199zM316 881h306l-18-81h-306z" glyph-name="Amacron" horiz-adv-x="669" unicode="&#x100;"/><glyph d="M519-191q-38 0-63.5 21.5t-25.5 57.5q0 18 7 34.5t18 30.5 25 26 28 21l-41 158h-292l-108-158h-131l498 718 193-718q-47-22-67.5-43t-20.5-40q0-12 7.5-20.5t27.5-8.5q11 0 19.5 3t14.5 7l-16-73q-15-9-34-12.5t-39-3.5zM442 259l-55 211-144-211h199z" glyph-name="Aogonek" horiz-adv-x="669" unicode="&#x104;"/><glyph d="M666 86q-50-46-117-70t-148-24q-79 0-141 27.5t-105 74-65.5 106.5-22.5 126q0 75 27 145.5t79 125.5 128 88 174 33q91 0 157-35t108-92l-93-72q-29 39-75.5 63t-106.5 24q-63 0-114.5-22t-88-58.5-56.5-85.5-20-103q0-46 14-88t41.5-74.5 69-51.5 97.5-19q59 0 105 19t81 51zM549 913h135l-148-145h-91z" glyph-name="Cacute" horiz-adv-x="705" unicode="&#x106;"/><glyph d="M666 86q-50-46-117-70t-148-24q-79 0-141 27.5t-105 74-65.5 106.5-22.5 126q0 75 27 145.5t79 125.5 128 88 174 33q91 0 157-35t108-92l-93-72q-29 39-75.5 63t-106.5 24q-63 0-114.5-22t-88-58.5-56.5-85.5-20-103q0-46 14-88t41.5-74.5 69-51.5 97.5-19q59 0 105 19t81 51zM678 855l-195-92-152 96 41 69 118-74 154 74z" glyph-name="Ccaron" horiz-adv-x="705" unicode="&#x10c;"/><glyph d="M666 86q-50-46-117-70t-148-24q-79 0-141 27.5t-105 74-65.5 106.5-22.5 126q0 75 27 145.5t79 125.5 128 88 174 33q91 0 157-35t108-92l-93-72q-29 39-75.5 63t-106.5 24q-63 0-114.5-22t-88-58.5-56.5-85.5-20-103q0-46 14-88t41.5-74.5 69-51.5 97.5-19q59 0 105 19t81 51zM329 835l194 93 152-96-41-69-118 74-153-74z" glyph-name="Ccircumflex" horiz-adv-x="705" unicode="&#x108;"/><glyph d="M666 86q-50-46-117-70t-148-24q-79 0-141 27.5t-105 74-65.5 106.5-22.5 126q0 75 27 145.5t79 125.5 128 88 174 33q91 0 157-35t108-92l-93-72q-29 39-75.5 63t-106.5 24q-63 0-114.5-22t-88-58.5-56.5-85.5-20-103q0-46 14-88t41.5-74.5 69-51.5 97.5-19q59 0 105 19t81 51zM504 779q-27 0-47.5 18.5t-20.5 48.5q0 28 19.5 47.5t48.5 19.5q28 0 47.5-19.5t19.5-47.5q0-29-20-48t-47-19z" glyph-name="Cdotaccent" horiz-adv-x="705" unicode="&#x10a;"/><glyph d="M186 710h209q76 0 136-23.5t101.5-64 63.5-94.5 22-114q0-95-34-171.5t-94-130.5-142-83-179-29h-234zM275 108q71 0 130.5 22.5t102 62 66.5 92.5 24 114q0 43-14 80t-40.5 64.5-65.5 43-88 15.5h-111l-105-494h101zM646 855l-195-92-152 96 41 69 118-74 154 74z" glyph-name="Dcaron" horiz-adv-x="735" unicode="&#x10e;"/><glyph d="M216 710h209q76 0 136-23.5t101.5-64 63.5-94.5 22-114q0-95-34-171.5t-94-130.5-142-83-179-29h-234zM305 108q71 0 130.5 22.5t102 62 66.5 92.5 24 114q0 43-14 80t-40.5 64.5-65.5 43-88 15.5h-111l-105-494h101zM42 393h335l-15-74h-335z" glyph-name="Dcroat" horiz-adv-x="765" unicode="&#x110;"/><glyph d="M186 710h423l-25-114h-307l-38-180h247l-24-112h-247l-40-190h307l-24-114h-423zM599 924q-7-71-53.5-112.5t-131.5-41.5q-77 0-117 43.5t-40 110.5h71q2-47 28.5-66.5t64.5-19.5q41 0 70 20.5t37 65.5h71z" glyph-name="Ebreve" horiz-adv-x="559" unicode="&#x114;"/><glyph d="M186 710h423l-25-114h-307l-38-180h247l-24-112h-247l-40-190h307l-24-114h-423zM601 855l-195-92-152 96 41 69 118-74 154 74z" glyph-name="Ecaron" horiz-adv-x="559" unicode="&#x11a;"/><glyph d="M186 710h423l-25-114h-307l-38-180h247l-24-112h-247l-40-190h307l-24-114h-423zM282 881h306l-18-81h-306z" glyph-name="Emacron" horiz-adv-x="559" unicode="&#x112;"/><glyph d="M186 710h423l-25-114h-307l-38-180h247l-24-112h-247l-40-190h307l-24-114h-423zM350-191q-37 0-63 21.5t-26 57.5q0 37 24.5 65t55.5 47h117q-47-22-67.5-43t-20.5-40q0-12 8-20.5t28-8.5q10 0 19 3t14 7l-16-73q-15-9-34-12.5t-39-3.5z" glyph-name="Eogonek" horiz-adv-x="559" unicode="&#x118;"/><glyph d="M186 710h423l-25-114h-307l-38-180h247l-24-112h-247l-40-190h307l-24-114h-423zM427 779q-27 0-47.5 18.5t-20.5 48.5q0 28 19.5 47.5t48.5 19.5q28 0 47.5-19.5t19.5-47.5q0-29-20-48t-47-19z" glyph-name="Edotaccent" horiz-adv-x="559" unicode="&#x116;"/><glyph d="M680 78q-54-40-126-63t-155-23q-78 0-140 27.5t-104.5 73-65 105-22.5 124.5q0 76 26.5 147.5t78 127 127.5 88.5 176 33q90 0 160.5-34t112.5-93l-92-72q-29 40-80 63.5t-111 23.5q-64 0-115.5-22t-88-59-56-87-19.5-105q0-45 14-86.5t42-73 69.5-50.5 96.5-19q53 0 96 11t76 35l34 155h-190l74 110h254zM676 924q-7-71-53.5-112.5t-131.5-41.5q-77 0-117 43.5t-40 110.5h71q2-47 28.5-66.5t64.5-19.5q41 0 70 20.5t37 65.5h71z" glyph-name="Gbreve" horiz-adv-x="769" unicode="&#x11e;"/><glyph d="M680 78q-54-40-126-63t-155-23q-78 0-140 27.5t-104.5 73-65 105-22.5 124.5q0 76 26.5 147.5t78 127 127.5 88.5 176 33q90 0 160.5-34t112.5-93l-92-72q-29 40-80 63.5t-111 23.5q-64 0-115.5-22t-88-59-56-87-19.5-105q0-45 14-86.5t42-73 69.5-50.5 96.5-19q53 0 96 11t76 35l34 155h-190l74 110h254zM328 835l194 93 152-96-41-69-118 74-153-74z" glyph-name="Gcircumflex" horiz-adv-x="769" unicode="&#x11c;"/><glyph d="M680 78q-54-40-126-63t-155-23q-78 0-140 27.5t-104.5 73-65 105-22.5 124.5q0 76 26.5 147.5t78 127 127.5 88.5 176 33q90 0 160.5-34t112.5-93l-92-72q-29 40-80 63.5t-111 23.5q-64 0-115.5-22t-88-59-56-87-19.5-105q0-45 14-86.5t42-73 69.5-50.5 96.5-19q53 0 96 11t76 35l34 155h-190l74 110h254zM330-50h120l-129-165h-75z" glyph-name="uni0122" horiz-adv-x="769" unicode="&#x122;"/><glyph d="M680 78q-54-40-126-63t-155-23q-78 0-140 27.5t-104.5 73-65 105-22.5 124.5q0 76 26.5 147.5t78 127 127.5 88.5 176 33q90 0 160.5-34t112.5-93l-92-72q-29 40-80 63.5t-111 23.5q-64 0-115.5-22t-88-59-56-87-19.5-105q0-45 14-86.5t42-73 69.5-50.5 96.5-19q53 0 96 11t76 35l34 155h-190l74 110h254zM504 779q-27 0-47.5 18.5t-20.5 48.5q0 28 19.5 47.5t48.5 19.5q28 0 47.5-19.5t19.5-47.5q0-29-20-48t-47-19z" glyph-name="Gdotaccent" horiz-adv-x="769" unicode="&#x120;"/><glyph d="M190 710h116l-63-294h353l62 294h117l-151-710h-117l65 304h-352l-65-304h-116zM103 600h714l-16-74h-714z" glyph-name="Hbar" horiz-adv-x="769" unicode="&#x126;"/><glyph d="M186 710h116l-63-294h353l62 294h117l-151-710h-117l65 304h-352l-65-304h-116zM332 835l194 93 152-96-41-69-118 74-153-74z" glyph-name="Hcircumflex" horiz-adv-x="761" unicode="&#x124;"/><glyph d="M186 710h117l-151-710h-117zM444 924q-7-71-53.5-112.5t-131.5-41.5q-77 0-117 43.5t-40 110.5h71q2-47 28.5-66.5t64.5-19.5q41 0 70 20.5t37 65.5h71z" glyph-name="Ibreve" horiz-adv-x="293" unicode="&#x12c;"/><glyph d="M186 710h117l-151-710h-117zM272 779q-27 0-47.5 18.5t-20.5 48.5q0 28 19.5 47.5t48.5 19.5q28 0 47.5-19.5t19.5-47.5q0-29-20-48t-47-19z" glyph-name="Idotaccent" horiz-adv-x="293" unicode="&#x130;"/><glyph d="M186 710h117l-151-710h-117zM126 881h306l-18-81h-306z" glyph-name="Imacron" horiz-adv-x="293" unicode="&#x12a;"/><glyph d="M186 710h117l-151-710h-117zM43-191q-37 0-63 21.5t-26 57.5q0 37 24.5 65t55.5 47h117q-47-22-67.5-43t-20.5-40q0-12 8-20.5t28-8.5q10 0 19 3t14 7l-16-73q-15-9-34-12.5t-39-3.5z" glyph-name="Iogonek" horiz-adv-x="293" unicode="&#x12e;"/><glyph d="M186 710h117l-151-710h-117zM78 782q20 65 52.5 94.5t75.5 29.5q21 0 39-6.5t33-14.5 28.5-14.5 26.5-6.5q20 0 30.5 10t20.5 33h81q-21-65-52-94.5t-76-29.5q-21 0-39 6.5t-33.5 14.5-29 14.5-26.5 6.5q-18 0-29-10t-21-33h-81z" glyph-name="Itilde" horiz-adv-x="293" unicode="&#x128;"/><glyph d="M186 710h117l-151-710h-117zM67-195q-27 0-47.5 18.5t-20.5 48.5q0 28 19.5 47.5t48.5 19.5q28 0 47.5-19.5t19.5-47.5q0-29-20-48t-47-19z" glyph-name="uni1ECA" horiz-adv-x="293" unicode="&#x1eca;"/><glyph d="M436 202q-12-57-32.5-97t-50.5-65-69.5-36.5-89.5-11.5q-46 0-85 16t-65 45-36.5 69-.5 89h117q-11-57 12-84t68-27q44 0 74 24.5t42 81.5l107 504h117zM340 835l194 93 152-96-41-69-118 74-153-74z" glyph-name="Jcircumflex" horiz-adv-x="528" unicode="&#x134;"/><glyph d="M186 710h116l-75-354 365 354h143l-382-371 248-339h-130l-248 337-72-337h-116zM246-50h120l-129-165h-75z" glyph-name="uni0136" horiz-adv-x="646" unicode="&#x136;"/><glyph d="M186 710h117l-127-595h303l-25-115h-419zM318 913h135l-148-145h-91z" glyph-name="Lacute" horiz-adv-x="524" unicode="&#x139;"/><glyph d="M186 710h117l-127-595h303l-25-115h-419zM506 710l-90-163h-77l56 163h111z" glyph-name="Lcaron" horiz-adv-x="526" unicode="&#x13d;"/><glyph d="M186 710h117l-127-595h303l-25-115h-419zM186-50h120l-129-165h-75z" glyph-name="uni013B" horiz-adv-x="524" unicode="&#x13b;"/><glyph d="M186 710h117l-127-595h303l-25-115h-419zM433 329q-27 0-47.5 18.5t-20.5 48.5q0 28 19.5 47.5t48.5 19.5q28 0 47.5-19.5t19.5-47.5q0-29-20-48t-47-19z" glyph-name="Ldot" horiz-adv-x="530" unicode="&#x13f;"/><glyph d="M262 710h117l-127-595h303l-25-115h-419zM17 285l433 230 35-66-433-230z" glyph-name="Lslash" horiz-adv-x="600" unicode="&#x141;"/><glyph d="M250 465l-99-465h-116l153 718 380-476 100 468h116l-153-718zM529 913h135l-148-145h-91z" glyph-name="Nacute" horiz-adv-x="774" unicode="&#x143;"/><glyph d="M250 465l-99-465h-116l153 718 380-476 100 468h116l-153-718zM658 855l-195-92-152 96 41 69 118-74 154 74z" glyph-name="Ncaron" horiz-adv-x="774" unicode="&#x147;"/><glyph d="M250 465l-99-465h-116l153 718 380-476 100 468h116l-153-718zM321-50h120l-129-165h-75z" glyph-name="uni0145" horiz-adv-x="774" unicode="&#x145;"/><glyph d="M567 23q-76-31-169-31-78 0-139.5 28t-104 74-65 106-22.5 125q0 75 26.5 146t78.5 125.5 128 88 174 33.5q69 0 125-22t98-60l16 74h423l-25-114h-306l-20-93q8-21 12.5-42.5t6.5-44.5h209l-24-112h-191q-11-54-35-102t-62-88h308l-24-114h-423zM186 335q0-46 14-88t42-73.5 69.5-50.5 96.5-19q63 0 114.5 22t88 59 56.5 86.5 20 103.5q0 46-14 88t-42 73.5-69.5 50.5-96.5 19q-63 0-114.5-22t-88-59-56.5-86.5-20-103.5z" glyph-name="OE" horiz-adv-x="1086" unicode="&#x152;"/><glyph d="M806 385q0-75-27-146t-78.5-125.5-127.5-88-175-33.5q-78 0-139.5 28t-104 74-65 106-22.5 125q0 75 26.5 146t78.5 125.5 128 88 174 33.5q78 0 139.5-28t104.5-74 65.5-106.5 22.5-124.5zM186 335q0-46 14-88t42-73.5 69.5-50.5 96.5-19q63 0 114.5 22t88 59 56.5 86.5 20 103.5q0 46-14 88t-42 73.5-69.5 50.5-96.5 19q-63 0-114.5-22t-88-59-56.5-86.5-20-103.5zM675 924q-7-71-53.5-112.5t-131.5-41.5q-77 0-117 43.5t-40 110.5h71q2-47 28.5-66.5t64.5-19.5q41 0 70 20.5t37 65.5h71z" glyph-name="Obreve" horiz-adv-x="827" unicode="&#x14e;"/><glyph d="M806 385q0-75-27-146t-78.5-125.5-127.5-88-175-33.5q-78 0-139.5 28t-104 74-65 106-22.5 125q0 75 26.5 146t78.5 125.5 128 88 174 33.5q78 0 139.5-28t104.5-74 65.5-106.5 22.5-124.5zM186 335q0-46 14-88t42-73.5 69.5-50.5 96.5-19q63 0 114.5 22t88 59 56.5 86.5 20 103.5q0 46-14 88t-42 73.5-69.5 50.5-96.5 19q-63 0-114.5-22t-88-59-56.5-86.5-20-103.5zM646 913h129l-149-145h-85zM450 913h129l-149-145h-85z" glyph-name="Ohungarumlaut" horiz-adv-x="827" unicode="&#x150;"/><glyph d="M806 385q0-75-27-146t-78.5-125.5-127.5-88-175-33.5q-78 0-139.5 28t-104 74-65 106-22.5 125q0 75 26.5 146t78.5 125.5 128 88 174 33.5q78 0 139.5-28t104.5-74 65.5-106.5 22.5-124.5zM186 335q0-46 14-88t42-73.5 69.5-50.5 96.5-19q63 0 114.5 22t88 59 56.5 86.5 20 103.5q0 46-14 88t-42 73.5-69.5 50.5-96.5 19q-63 0-114.5-22t-88-59-56.5-86.5-20-103.5zM358 881h306l-18-81h-306z" glyph-name="Omacron" horiz-adv-x="827" unicode="&#x14c;"/><glyph d="M806 385q0-75-27-146t-78.5-125.5-127.5-88-175-33.5q-78 0-139.5 28t-104 74-65 106-22.5 125q0 75 26.5 146t78.5 125.5 128 88 174 33.5q78 0 139.5-28t104.5-74 65.5-106.5 22.5-124.5zM186 335q0-46 14-88t42-73.5 69.5-50.5 96.5-19q63 0 114.5 22t88 59 56.5 86.5 20 103.5q0 46-14 88t-42 73.5-69.5 50.5-96.5 19q-63 0-114.5-22t-88-59-56.5-86.5-20-103.5zM371-195q-27 0-47.5 18.5t-20.5 48.5q0 28 19.5 47.5t48.5 19.5q28 0 47.5-19.5t19.5-47.5q0-29-20-48t-47-19z" glyph-name="uni1ECC" horiz-adv-x="827" unicode="&#x1ecc;"/><glyph d="M278 305h-62l-65-305h-116l151 710h209q51 0 89.5-14t65-39 40-58 13.5-70q0-92-56-149t-149-71l169-309h-126zM346 405q66 0 103 31t37 82q0 38-25.5 62t-76.5 24h-105l-42-199h109zM461 913h135l-148-145h-91z" glyph-name="Racute" horiz-adv-x="632" unicode="&#x154;"/><glyph d="M278 305h-62l-65-305h-116l151 710h209q51 0 89.5-14t65-39 40-58 13.5-70q0-92-56-149t-149-71l169-309h-126zM346 405q66 0 103 31t37 82q0 38-25.5 62t-76.5 24h-105l-42-199h109zM597 855l-195-92-152 96 41 69 118-74 154 74z" glyph-name="Rcaron" horiz-adv-x="632" unicode="&#x158;"/><glyph d="M278 305h-62l-65-305h-116l151 710h209q51 0 89.5-14t65-39 40-58 13.5-70q0-92-56-149t-149-71l169-309h-126zM346 405q66 0 103 31t37 82q0 38-25.5 62t-76.5 24h-105l-42-199h109zM235-50h120l-129-165h-75z" glyph-name="uni0156" horiz-adv-x="632" unicode="&#x156;"/><glyph d="M488 197q0-43-16.5-80.5t-47.5-65-75.5-43.5-100.5-16q-87 0-148 41.5t-91 105.5l104 62q19-45 53.5-72.5t88.5-27.5q51 0 81.5 24t30.5 62q0 34-19.5 58.5t-61.5 53.5l-51 37q-58 42-91 87t-33 106q0 44 17 79t46.5 59.5 69 37.5 84.5 13q62 0 118.5-25.5t94.5-90.5l-102-61q-22 38-51 53t-65 15q-39 0-66.5-20t-27.5-56q0-32 20.5-55.5t59.5-52.5l51-37q25-18 48.5-38.5t41-44 28-50.5 10.5-58zM412 913h135l-148-145h-91z" glyph-name="Sacute" horiz-adv-x="533" unicode="&#x15a;"/><glyph d="M488 197q0-43-16.5-80.5t-47.5-65-75.5-43.5-100.5-16q-87 0-148 41.5t-91 105.5l104 62q19-45 53.5-72.5t88.5-27.5q51 0 81.5 24t30.5 62q0 34-19.5 58.5t-61.5 53.5l-51 37q-58 42-91 87t-33 106q0 44 17 79t46.5 59.5 69 37.5 84.5 13q62 0 118.5-25.5t94.5-90.5l-102-61q-22 38-51 53t-65 15q-39 0-66.5-20t-27.5-56q0-32 20.5-55.5t59.5-52.5l51-37q25-18 48.5-38.5t41-44 28-50.5 10.5-58zM541 855l-195-92-152 96 41 69 118-74 154 74z" glyph-name="Scaron" horiz-adv-x="533" unicode="&#x160;"/><glyph d="M488 197q0-43-16.5-80.5t-47.5-65-75.5-43.5-100.5-16q-87 0-148 41.5t-91 105.5l104 62q19-45 53.5-72.5t88.5-27.5q51 0 81.5 24t30.5 62q0 34-19.5 58.5t-61.5 53.5l-51 37q-58 42-91 87t-33 106q0 44 17 79t46.5 59.5 69 37.5 84.5 13q62 0 118.5-25.5t94.5-90.5l-102-61q-22 38-51 53t-65 15q-39 0-66.5-20t-27.5-56q0-32 20.5-55.5t59.5-52.5l51-37q25-18 48.5-38.5t41-44 28-50.5 10.5-58zM199 0h79l-80-165h-112z" glyph-name="Scedilla" horiz-adv-x="533" unicode="&#x15e;"/><glyph d="M488 197q0-43-16.5-80.5t-47.5-65-75.5-43.5-100.5-16q-87 0-148 41.5t-91 105.5l104 62q19-45 53.5-72.5t88.5-27.5q51 0 81.5 24t30.5 62q0 34-19.5 58.5t-61.5 53.5l-51 37q-58 42-91 87t-33 106q0 44 17 79t46.5 59.5 69 37.5 84.5 13q62 0 118.5-25.5t94.5-90.5l-102-61q-22 38-51 53t-65 15q-39 0-66.5-20t-27.5-56q0-32 20.5-55.5t59.5-52.5l51-37q25-18 48.5-38.5t41-44 28-50.5 10.5-58zM192 835l194 93 152-96-41-69-118 74-153-74z" glyph-name="Scircumflex" horiz-adv-x="533" unicode="&#x15c;"/><glyph d="M488 197q0-43-16.5-80.5t-47.5-65-75.5-43.5-100.5-16q-87 0-148 41.5t-91 105.5l104 62q19-45 53.5-72.5t88.5-27.5q51 0 81.5 24t30.5 62q0 34-19.5 58.5t-61.5 53.5l-51 37q-58 42-91 87t-33 106q0 44 17 79t46.5 59.5 69 37.5 84.5 13q62 0 118.5-25.5t94.5-90.5l-102-61q-22 38-51 53t-65 15q-39 0-66.5-20t-27.5-56q0-32 20.5-55.5t59.5-52.5l51-37q25-18 48.5-38.5t41-44 28-50.5 10.5-58zM178-50h120l-129-165h-75z" glyph-name="uni0218" horiz-adv-x="533" unicode="&#x218;"/><glyph d="M274 596h-184l25 114h486l-24-114h-185l-127-596h-117zM559 855l-195-92-152 96 41 69 118-74 154 74z" glyph-name="Tcaron" horiz-adv-x="521" unicode="&#x164;"/><glyph d="M274 596h-184l25 114h486l-24-114h-185l-127-596h-117zM130-50h120l-129-165h-75z" glyph-name="uni0162" horiz-adv-x="521" unicode="&#x162;"/><glyph d="M274 596h-184l25 114h486l-24-114h-185l-127-596h-117zM130-50h120l-129-165h-75z" glyph-name="uni021A" horiz-adv-x="521" unicode="&#x21a;"/><glyph d="M651 278q-15-71-41-124.5t-65-89.5-93-54-125-18q-63 0-113.5 21t-83.5 60-45 93.5 2 120.5l89 423h117l-92-430q-18-89 21-132.5t115-43.5q75 0 127 43t70 129l92 434h117zM657 924q-7-71-53.5-112.5t-131.5-41.5q-77 0-117 43.5t-40 110.5h71q2-47 28.5-66.5t64.5-19.5q41 0 70 20.5t37 65.5h71z" glyph-name="Ubreve" horiz-adv-x="725" unicode="&#x16c;"/><glyph d="M651 278q-15-71-41-124.5t-65-89.5-93-54-125-18q-63 0-113.5 21t-83.5 60-45 93.5 2 120.5l89 423h117l-92-430q-18-89 21-132.5t115-43.5q75 0 127 43t70 129l92 434h117zM627 913h129l-149-145h-85zM431 913h129l-149-145h-85z" glyph-name="Uhungarumlaut" horiz-adv-x="725" unicode="&#x170;"/><glyph d="M651 278q-15-71-41-124.5t-65-89.5-93-54-125-18q-63 0-113.5 21t-83.5 60-45 93.5 2 120.5l89 423h117l-92-430q-18-89 21-132.5t115-43.5q75 0 127 43t70 129l92 434h117zM339 881h306l-18-81h-306z" glyph-name="Umacron" horiz-adv-x="725" unicode="&#x16a;"/><glyph d="M651 278q-15-71-41-124.5t-65-89.5-93-54-125-18q-63 0-113.5 21t-83.5 60-45 93.5 2 120.5l89 423h117l-92-430q-18-89 21-132.5t115-43.5q75 0 127 43t70 129l92 434h117zM288-191q-37 0-63 21.5t-26 57.5q0 37 24.5 65t55.5 47h117q-47-22-67.5-43t-20.5-40q0-12 8-20.5t28-8.5q10 0 19 3t14 7l-16-73q-15-9-34-12.5t-39-3.5z" glyph-name="Uogonek" horiz-adv-x="725" unicode="&#x172;"/><glyph d="M651 278q-15-71-41-124.5t-65-89.5-93-54-125-18q-63 0-113.5 21t-83.5 60-45 93.5 2 120.5l89 423h117l-92-430q-18-89 21-132.5t115-43.5q75 0 127 43t70 129l92 434h117zM593 857q0-22-8.5-40.5t-22.5-32.5-33.5-22-41.5-8-41.5 8-34 22-23 32.5-8.5 40.5q0 45 31 74.5t76 29.5q44 0 75-29.5t31-74.5zM439 857q0-20 14-33.5t34-13.5 33.5 13.5 13.5 33.5q0 21-13.5 34.5t-33.5 13.5-34-13.5-14-34.5z" glyph-name="Uring" horiz-adv-x="725" unicode="&#x16e;"/><glyph d="M651 278q-15-71-41-124.5t-65-89.5-93-54-125-18q-63 0-113.5 21t-83.5 60-45 93.5 2 120.5l89 423h117l-92-430q-18-89 21-132.5t115-43.5q75 0 127 43t70 129l92 434h117zM291 782q20 65 52.5 94.5t75.5 29.5q21 0 39-6.5t33-14.5 28.5-14.5 26.5-6.5q20 0 30.5 10t20.5 33h81q-21-65-52-94.5t-76-29.5q-21 0-39 6.5t-33.5 14.5-29 14.5-26.5 6.5q-18 0-29-10t-21-33h-81z" glyph-name="Utilde" horiz-adv-x="725" unicode="&#x168;"/><glyph d="M651 278q-15-71-41-124.5t-65-89.5-93-54-125-18q-63 0-113.5 21t-83.5 60-45 93.5 2 120.5l89 423h117l-92-430q-18-89 21-132.5t115-43.5q75 0 127 43t70 129l92 434h117zM300-195q-27 0-47.5 18.5t-20.5 48.5q0 28 19.5 47.5t48.5 19.5q28 0 47.5-19.5t19.5-47.5q0-29-20-48t-47-19z" glyph-name="uni1EE4" horiz-adv-x="725" unicode="&#x1ee4;"/><glyph d="M99 710h113l48-418 269 426 82-434 228 426h122l-393-718-86 470-296-470zM602 913h135l-148-145h-91z" glyph-name="Wacute" horiz-adv-x="866" unicode="&#x1e82;"/><glyph d="M99 710h113l48-418 269 426 82-434 228 426h122l-393-718-86 470-296-470zM381 835l194 93 152-96-41-69-118 74-153-74z" glyph-name="Wcircumflex" horiz-adv-x="866" unicode="&#x174;"/><glyph d="M99 710h113l48-418 269 426 82-434 228 426h122l-393-718-86 470-296-470zM739 846q0-29-19.5-48t-47.5-19-48 19-20 48q0 28 20 47.5t48 19.5 47.5-19.5 19.5-47.5zM510 846q0-29-19.5-48t-48.5-19q-28 0-47.5 19t-19.5 48q0 28 19.5 47.5t47.5 19.5q29 0 48.5-19.5t19.5-47.5z" glyph-name="Wdieresis" horiz-adv-x="866" unicode="&#x1e84;"/><glyph d="M99 710h113l48-418 269 426 82-434 228 426h122l-393-718-86 470-296-470zM401 913h123l51-145h-82z" glyph-name="Wgrave" horiz-adv-x="866" unicode="&#x1e80;"/><glyph d="M275 299l-175 411h125l122-298 248 298h145l-349-411-63-299h-117zM262 835l194 93 152-96-41-69-118 74-153-74z" glyph-name="Ycircumflex" horiz-adv-x="645" unicode="&#x176;"/><glyph d="M275 299l-175 411h125l122-298 248 298h145l-349-411-63-299h-117zM620 846q0-29-19.5-48t-47.5-19-48 19-20 48q0 28 20 47.5t48 19.5 47.5-19.5 19.5-47.5zM391 846q0-29-19.5-48t-48.5-19q-28 0-47.5 19t-19.5 48q0 28 19.5 47.5t47.5 19.5q29 0 48.5-19.5t19.5-47.5z" glyph-name="Ydieresis" horiz-adv-x="645" unicode="&#x178;"/><glyph d="M275 299l-175 411h125l122-298 248 298h145l-349-411-63-299h-117zM282 913h123l51-145h-82z" glyph-name="Ygrave" horiz-adv-x="645" unicode="&#x1ef2;"/><glyph d="M275 299l-175 411h125l122-298 248 298h145l-349-411-63-299h-117zM292 881h306l-18-81h-306z" glyph-name="uni0232" horiz-adv-x="645" unicode="&#x232;"/><glyph d="M449 596h-322l25 114h530l-493-596h356l-25-114h-564zM472 913h135l-148-145h-91z" glyph-name="Zacute" horiz-adv-x="609" unicode="&#x179;"/><glyph d="M449 596h-322l25 114h530l-493-596h356l-25-114h-564zM602 855l-195-92-152 96 41 69 118-74 154 74z" glyph-name="Zcaron" horiz-adv-x="609" unicode="&#x17d;"/><glyph d="M449 596h-322l25 114h530l-493-596h356l-25-114h-564zM428 779q-27 0-47.5 18.5t-20.5 48.5q0 28 19.5 47.5t48.5 19.5q28 0 47.5-19.5t19.5-47.5q0-29-20-48t-47-19z" glyph-name="Zdotaccent" horiz-adv-x="609" unicode="&#x17b;"/><glyph d="M185 710h466l-186-269q60-16 98.5-65.5t38.5-125.5q0-58-21-104t-59-78.5-91.5-50-117.5-17.5h-65l23 112h53q75 0 117.5 36t42.5 98q0 54-36.5 83.5t-90.5 29.5h-33l19 90 108 154h-170l-128-603h-118z" glyph-name="uni1E9E" horiz-adv-x="647" unicode="&#x1e9e;"/><glyph d="M387 39q-27-21-61.5-34t-77.5-13q-48 0-86.5 18t-66.5 49-43 72-15 86q0 59 21 112t59 92.5 91 63 117 23.5q45 0 81.5-13.5t62.5-37.5l9 43h110l-106-500h-102zM275 95q35 0 69 14t59 40l42 199q-20 28-53 42.5t-69 14.5-67.5-13-55-36.5-37-56-13.5-70.5q0-63 34.5-98.5t90.5-35.5zM550 710q-8-66-53-106.5t-131-40.5q-39 0-68.5 11.5t-49.5 31.5-30 46.5-10 57.5h72q2-42 28.5-60.5t62.5-18.5q42 0 71 20t37 59h71z" glyph-name="abreve" horiz-adv-x="604" unicode="&#x103;"/><glyph d="M387 39q-27-21-61.5-34t-77.5-13q-48 0-86.5 18t-66.5 49-43 72-15 86q0 59 21 112t59 92.5 91 63 117 23.5q45 0 81.5-13.5t62.5-37.5l9 43h110l-106-500h-102zM275 95q35 0 69 14t59 40l42 199q-20 28-53 42.5t-69 14.5-67.5-13-55-36.5-37-56-13.5-70.5q0-63 34.5-98.5t90.5-35.5zM235 678h306l-17-77h-306z" glyph-name="amacron" horiz-adv-x="604" unicode="&#x101;"/><glyph d="M375-191q-38 0-62.5 22t-24.5 57q0 19 8 35.5t20.5 30.5 29 25.5 34.5 20.5l7 39q-27-21-61.5-34t-77.5-13q-48 0-86.5 18t-66.5 49-43 72-15 86q0 59 21 112t59 92.5 91 63 117 23.5q45 0 81.5-13.5t62.5-37.5l9 43h110l-106-500q-47-22-67.5-44t-20.5-39q0-12 8-20.5t28-8.5q10 0 19 3t14 7l-15-73q-16-9-34.5-12.5t-38.5-3.5zM275 95q35 0 69 14t59 40l42 199q-20 28-53 42.5t-69 14.5-67.5-13-55-36.5-37-56-13.5-70.5q0-63 34.5-98.5t90.5-35.5z" glyph-name="aogonek" horiz-adv-x="604" unicode="&#x105;"/><glyph d="M482 79q-39-40-90.5-63.5t-116.5-23.5q-57 0-101 19.5t-74.5 52-46 75-15.5 88.5q0 59 21.5 110t59.5 89 90 60 114 22q72 0 123.5-32t78.5-84l-92-58q-19 34-50 52t-69 18q-35 0-65-12.5t-51.5-35-34-53.5-12.5-67q0-33 10.5-59t29-44 43-27.5 51.5-9.5q38 0 68 14.5t53 39.5zM401 710h139l-162-160h-85z" glyph-name="cacute" horiz-adv-x="530" unicode="&#x107;"/><glyph d="M482 79q-39-40-90.5-63.5t-116.5-23.5q-57 0-101 19.5t-74.5 52-46 75-15.5 88.5q0 59 21.5 110t59.5 89 90 60 114 22q72 0 123.5-32t78.5-84l-92-58q-19 34-50 52t-69 18q-35 0-65-12.5t-51.5-35-34-53.5-12.5-67q0-33 10.5-59t29-44 43-27.5 51.5-9.5q38 0 68 14.5t53 39.5zM527 661l-196-100-149 107 45 64 112-80 153 80z" glyph-name="ccaron" horiz-adv-x="530" unicode="&#x10d;"/><glyph d="M482 79q-39-40-90.5-63.5t-116.5-23.5q-57 0-101 19.5t-74.5 52-46 75-15.5 88.5q0 59 21.5 110t59.5 89 90 60 114 22q72 0 123.5-32t78.5-84l-92-58q-19 34-50 52t-69 18q-35 0-65-12.5t-51.5-35-34-53.5-12.5-67q0-33 10.5-59t29-44 43-27.5 51.5-9.5q38 0 68 14.5t53 39.5zM178 620l196 102 150-108-46-64-113 80-152-80z" glyph-name="ccircumflex" horiz-adv-x="530" unicode="&#x109;"/><glyph d="M482 79q-39-40-90.5-63.5t-116.5-23.5q-57 0-101 19.5t-74.5 52-46 75-15.5 88.5q0 59 21.5 110t59.5 89 90 60 114 22q72 0 123.5-32t78.5-84l-92-58q-19 34-50 52t-69 18q-35 0-65-12.5t-51.5-35-34-53.5-12.5-67q0-33 10.5-59t29-44 43-27.5 51.5-9.5q38 0 68 14.5t53 39.5zM353 570q-27 0-47.5 18.5t-20.5 48.5q0 28 19.5 47.5t48.5 19.5q28 0 47.5-19.5t19.5-47.5q0-29-20-48t-47-19z" glyph-name="cdotaccent" horiz-adv-x="530" unicode="&#x10b;"/><glyph d="M386 38q-27-20-61-33t-78-13q-47 0-86 18t-66.5 49-42.5 72-15 86q0 59 21 112t59 92.5 91 63 117 23.5q45 0 81-13.5t62-37.5l55 253h110l-151-710h-102zM275 95q35 0 69 14t59 40l42 199q-20 29-53 43t-69 14-67.5-13-55-36.5-37-56-13.5-70.5q0-63 34.5-98.5t90.5-35.5zM818 710l-90-163h-77l56 163h111z" glyph-name="dcaron" horiz-adv-x="629" unicode="&#x10f;"/><glyph d="M386 38q-27-20-61-33t-78-13q-47 0-86 18t-66.5 49-42.5 72-15 86q0 59 21 112t59 92.5 91 63 117 23.5q45 0 81-13.5t62-37.5l55 253h110l-151-710h-102zM275 95q35 0 69 14t59 40l42 199q-20 29-53 43t-69 14-67.5-13-55-36.5-37-56-13.5-70.5q0-63 34.5-98.5t90.5-35.5zM339 576l14 65h335l-14-65h-335z" glyph-name="dcroat" horiz-adv-x="605" unicode="&#x111;"/><glyph d="M283 96q40 0 71 14.5t54 40.5l78-70q-38-42-91.5-65.5t-118.5-23.5q-57 0-101 19.5t-74.5 52-46 75-15.5 88.5q0 58 21 109.5t59 89.5 90.5 60 114.5 22 107-23 72-62 35.5-90-1.5-106h-388q3-34 15-59t30-41 41-23.5 48-7.5zM314 414q-21 0-44.5-6.5t-44.5-20-38-33.5-27-47h271q0 51-34 79t-83 28zM524 710q-8-66-53-106.5t-131-40.5q-39 0-68.5 11.5t-49.5 31.5-30 46.5-10 57.5h72q2-42 28.5-60.5t62.5-18.5q42 0 71 20t37 59h71z" glyph-name="ebreve" horiz-adv-x="571" unicode="&#x115;"/><glyph d="M283 96q40 0 71 14.5t54 40.5l78-70q-38-42-91.5-65.5t-118.5-23.5q-57 0-101 19.5t-74.5 52-46 75-15.5 88.5q0 58 21 109.5t59 89.5 90.5 60 114.5 22 107-23 72-62 35.5-90-1.5-106h-388q3-34 15-59t30-41 41-23.5 48-7.5zM314 414q-21 0-44.5-6.5t-44.5-20-38-33.5-27-47h271q0 51-34 79t-83 28zM528 661l-196-100-149 107 45 64 112-80 153 80z" glyph-name="ecaron" horiz-adv-x="571" unicode="&#x11b;"/><glyph d="M283 96q40 0 71 14.5t54 40.5l78-70q-38-42-91.5-65.5t-118.5-23.5q-57 0-101 19.5t-74.5 52-46 75-15.5 88.5q0 58 21 109.5t59 89.5 90.5 60 114.5 22 107-23 72-62 35.5-90-1.5-106h-388q3-34 15-59t30-41 41-23.5 48-7.5zM314 414q-21 0-44.5-6.5t-44.5-20-38-33.5-27-47h271q0 51-34 79t-83 28zM209 678h306l-17-77h-306z" glyph-name="emacron" horiz-adv-x="571" unicode="&#x113;"/><glyph d="M448-175q-15-9-33-12.5t-38-3.5q-37 0-63.5 22.5t-26.5 62.5q0 24 11.5 51t36.5 53q-21-3-34-4.5t-25-1.5q-57 0-101 19.5t-74.5 52-46 75-15.5 88.5q0 58 21 109.5t59 89.5 90.5 60 114.5 22 107-23 72-62 35.5-90-1.5-106h-388q3-34 15-59t30-41 41-23.5 48-7.5q40 0 71 14.5t54 40.5l78-70q-44-50-69.5-90t-25.5-68q0-18 11-26.5t29-8.5q10 0 19 3t14 7zM431 307q0 51-34 79t-83 28q-21 0-44-6.5t-44-20-38.5-33.5-27.5-47h271z" glyph-name="eogonek" horiz-adv-x="571" unicode="&#x119;"/><glyph d="M283 96q40 0 71 14.5t54 40.5l78-70q-38-42-91.5-65.5t-118.5-23.5q-57 0-101 19.5t-74.5 52-46 75-15.5 88.5q0 58 21 109.5t59 89.5 90.5 60 114.5 22 107-23 72-62 35.5-90-1.5-106h-388q3-34 15-59t30-41 41-23.5 48-7.5zM314 414q-21 0-44.5-6.5t-44.5-20-38-33.5-27-47h271q0 51-34 79t-83 28zM354 570q-27 0-47.5 18.5t-20.5 48.5q0 28 19.5 47.5t48.5 19.5q28 0 47.5-19.5t19.5-47.5q0-29-20-48t-47-19z" glyph-name="edotaccent" horiz-adv-x="571" unicode="&#x117;"/><glyph d="M495 105q10-66-4.5-121t-51-94.5-93-61.5-130.5-22q-27 0-56.5 3.5t-57.5 11-54 20-46 29.5l63 94q26-25 66-40t88-15q83 0 127.5 41t34.5 112q-33-22-68-31t-70-9q-47 0-84 17t-63 46-40 68-14 83q0 55 19.5 104.5t56.5 87 88.5 59 116.5 21.5q84 0 137-45l8 37h110zM273 125q35 0 68.5 13.5t58.5 39.5l37 177q-20 25-51.5 37.5t-64.5 12.5q-35 0-65.5-11t-53-32-35.5-50.5-13-66.5q0-60 32-90t87-30zM523 710q-8-66-53-106.5t-131-40.5q-39 0-68.5 11.5t-49.5 31.5-30 46.5-10 57.5h72q2-42 28.5-60.5t62.5-18.5q42 0 71 20t37 59h71z" glyph-name="gbreve" horiz-adv-x="599" unicode="&#x11f;"/><glyph d="M495 105q10-66-4.5-121t-51-94.5-93-61.5-130.5-22q-27 0-56.5 3.5t-57.5 11-54 20-46 29.5l63 94q26-25 66-40t88-15q83 0 127.5 41t34.5 112q-33-22-68-31t-70-9q-47 0-84 17t-63 46-40 68-14 83q0 55 19.5 104.5t56.5 87 88.5 59 116.5 21.5q84 0 137-45l8 37h110zM273 125q35 0 68.5 13.5t58.5 39.5l37 177q-20 25-51.5 37.5t-64.5 12.5q-35 0-65.5-11t-53-32-35.5-50.5-13-66.5q0-60 32-90t87-30zM178 620l196 102 150-108-46-64-113 80-152-80z" glyph-name="gcircumflex" horiz-adv-x="599" unicode="&#x11d;"/><glyph d="M495 105q10-66-4.5-121t-51-94.5-93-61.5-130.5-22q-27 0-56.5 3.5t-57.5 11-54 20-46 29.5l63 94q26-25 66-40t88-15q83 0 127.5 41t34.5 112q-33-22-68-31t-70-9q-47 0-84 17t-63 46-40 68-14 83q0 55 19.5 104.5t56.5 87 88.5 59 116.5 21.5q84 0 137-45l8 37h110zM273 125q35 0 68.5 13.5t58.5 39.5l37 177q-20 25-51.5 37.5t-64.5 12.5q-35 0-65.5-11t-53-32-35.5-50.5-13-66.5q0-60 32-90t87-30zM397.976 546.967h-119.992l128.992 164.99h74.9951z" glyph-name="uni0123" horiz-adv-x="599" unicode="&#x123;"/><glyph d="M495 105q10-66-4.5-121t-51-94.5-93-61.5-130.5-22q-27 0-56.5 3.5t-57.5 11-54 20-46 29.5l63 94q26-25 66-40t88-15q83 0 127.5 41t34.5 112q-33-22-68-31t-70-9q-47 0-84 17t-63 46-40 68-14 83q0 55 19.5 104.5t56.5 87 88.5 59 116.5 21.5q84 0 137-45l8 37h110zM273 125q35 0 68.5 13.5t58.5 39.5l37 177q-20 25-51.5 37.5t-64.5 12.5q-35 0-65.5-11t-53-32-35.5-50.5-13-66.5q0-60 32-90t87-30zM353 570q-27 0-47.5 18.5t-20.5 48.5q0 28 19.5 47.5t48.5 19.5q28 0 47.5-19.5t19.5-47.5q0-29-20-48t-47-19z" glyph-name="gdotaccent" horiz-adv-x="599" unicode="&#x121;"/><glyph d="M167 710h110l-54-252q59 50 144 50 45 0 80-18t57.5-49.5 30-73.5-2.5-90l-58-277h-111l57 267q14 63-11 100.5t-85 37.5q-35 0-67.5-15.5t-58.5-47.5l-72-342h-110zM70 576l14 65h335l-14-65h-335z" glyph-name="hbar" horiz-adv-x="588" unicode="&#x127;"/><glyph d="M167 710h110l-54-252q59 50 144 50 45 0 80-18t57.5-49.5 30-73.5-2.5-90l-58-277h-111l57 267q14 63-11 100.5t-85 37.5q-35 0-67.5-15.5t-58.5-47.5l-72-342h-110zM264 835l194 93 152-96-41-69-118 74-153-74z" glyph-name="hcircumflex" horiz-adv-x="588" unicode="&#x125;"/><glyph d="M123 500h111l-106-500h-111z" glyph-name="dotlessi" horiz-adv-x="250" unicode="&#x131;"/><glyph d="M123 500h111l-106-500h-111zM378 710q-8-66-53-106.5t-131-40.5q-39 0-68.5 11.5t-49.5 31.5-30 46.5-10 57.5h72q2-42 28.5-60.5t62.5-18.5q42 0 71 20t37 59h71z" glyph-name="ibreve" horiz-adv-x="250" unicode="&#x12d;"/><glyph d="M123 500h111l-106-500h-111zM63 678h306l-17-77h-306z" glyph-name="imacron" horiz-adv-x="250" unicode="&#x12b;"/><glyph d="M123 500h111l-106-500h-111zM146 595q-11 14-11 38 0 38 24 61.5t59 23.5q26 0 45-16t19-42q0-21-8-37.5t-22-27.5h-106zM20-191q-37 0-61.5 22t-24.5 57q0 37 26 66t57 46h111q-47-22-67.5-44t-20.5-39q0-12 8-20.5t28-8.5q10 0 19 3t14 7l-16-73q-15-9-34-12.5t-39-3.5z" glyph-name="iogonek" horiz-adv-x="250" unicode="&#x12f;"/><glyph d="M123 500h111l-106-500h-111zM11 562q20 65 52.5 94.5t75.5 29.5q21 0 39-6.5t33-14.5 28.5-14.5 26.5-6.5q20 0 30.5 10t20.5 33h81q-21-65-52-94.5t-76-29.5q-21 0-39 6.5t-33.5 14.5-29 14.5-26.5 6.5q-18 0-29-10t-21-33h-81z" glyph-name="itilde" horiz-adv-x="250" unicode="&#x129;"/><glyph d="M123 500h111l-106-500h-111zM146 595q-11 14-11 38 0 38 24 61.5t59 23.5q26 0 45-16t19-42q0-21-8-37.5t-22-27.5h-106zM46-195q-27 0-47.5 18.5t-20.5 48.5q0 28 19.5 47.5t48.5 19.5q28 0 47.5-19.5t19.5-47.5q0-29-20-48t-47-19z" glyph-name="uni1ECB" horiz-adv-x="250" unicode="&#x1ecb;"/><glyph d="M-99-79h31q23 0 38.5 4t26 13 17 24.5 11.5 38.5l106 499h110l-109-516q-11-51-28-83.5t-42-51-60-26-82-7.5h-41z" glyph-name="uni0237" horiz-adv-x="257" unicode="&#x237;"/><glyph d="M-99-79h31q23 0 38.5 4t26 13 17 24.5 11.5 38.5l106 499h110l-109-516q-11-51-28-83.5t-42-51-60-26-82-7.5h-41zM40 620l196 102 150-108-46-64-113 80-152-80z" glyph-name="jcircumflex" horiz-adv-x="257" unicode="&#x135;"/><glyph d="M167 710h111l-93-439 246 229h136l-267-247 178-253h-121l-176 252-54-252h-111zM178-50h120l-129-165h-75z" glyph-name="uni0137" horiz-adv-x="524" unicode="&#x137;"/><glyph d="M167 710h111l-151-710h-111zM301 920h139l-162-160h-85z" glyph-name="lacute" horiz-adv-x="250" unicode="&#x13a;"/><glyph d="M167 710h111l-151-710h-111zM462 710l-90-163h-77l56 163h111z" glyph-name="lcaron" horiz-adv-x="274" unicode="&#x13e;"/><glyph d="M167 710h111l-151-710h-111zM-2-50h120l-129-165h-75z" glyph-name="uni013C" horiz-adv-x="250" unicode="&#x13c;"/><glyph d="M167 710h111l-151-710h-111zM342 307q-27 0-47.5 18.5t-20.5 48.5q0 28 19.5 47.5t48.5 19.5q28 0 47.5-19.5t19.5-47.5q0-29-20-48t-47-19z" glyph-name="ldot" horiz-adv-x="382" unicode="&#x140;"/><glyph d="M237 710h111l-151-710h-111zM32 310l350 184 31-59-349-185z" glyph-name="lslash" horiz-adv-x="376" unicode="&#x142;"/><glyph d="M123 500h107l-8-44q61 52 146 52 45 0 80-18t57.5-49 30.5-73.5-3-90.5l-58-277h-111l57 270q12 60-12 97.5t-84 37.5q-35 0-67-15.5t-58-46.5l-72-343h-111zM437 710h139l-162-160h-85z" glyph-name="nacute" horiz-adv-x="589" unicode="&#x144;"/><glyph d="M123 500h107l-8-44q61 52 146 52 45 0 80-18t57.5-49 30.5-73.5-3-90.5l-58-277h-111l57 270q12 60-12 97.5t-84 37.5q-35 0-67-15.5t-58-46.5l-72-343h-111zM563 661l-196-100-149 107 45 64 112-80 153 80z" glyph-name="ncaron" horiz-adv-x="589" unicode="&#x148;"/><glyph d="M123 500h107l-8-44q61 52 146 52 45 0 80-18t57.5-49 30.5-73.5-3-90.5l-58-277h-111l57 270q12 60-12 97.5t-84 37.5q-35 0-67-15.5t-58-46.5l-72-343h-111zM188-50h120l-129-165h-75z" glyph-name="uni0146" horiz-adv-x="589" unicode="&#x146;"/><glyph d="M894 81q-38-42-91.5-65.5t-118.5-23.5q-61 0-110.5 23t-84.5 74q-43-51-97.5-74t-115.5-23q-57 0-101.5 19.5t-74.5 52-46 75-16 88.5q0 59 21.5 110t59 89 89.5 60 114 22q60 0 109.5-24t82.5-73q44 51 100 74t118 23 107-23 72-62 35.5-90-1.5-106h-388q2-35 14.5-59.5t31-40.5 41.5-23.5 47-7.5q40 0 71 14.5t54 40.5zM722 414q-23 0-45.5-6t-43.5-18.5-38-33-27-49.5h271q0 51-34 79t-83 28zM151 236q0-33 10.5-59t29-44 43-27.5 51.5-9.5q35 0 64.5 12.5t51.5 35 34 53.5 12 67q0 33-10.5 59t-29 44-43 27.5-51.5 9.5q-35 0-64.5-12.5t-51.5-35-34-53.5-12-67z" glyph-name="oe" horiz-adv-x="979" unicode="&#x153;"/><glyph d="M560 274q0-59-21-110.5t-59-89.5-90-60-113-22q-57 0-101.5 19.5t-75 52-46.5 75-16 88.5q0 59 21.5 110t59.5 89 90 60 114 22q57 0 101-19.5t74.5-52 46-74.5 15.5-88zM151 236q0-33 10.5-59t29-44 43-27.5 52.5-9.5q35 0 64.5 12.5t51.5 35 34 53.5 12 67q0 33-10.5 59t-29 44-43 27.5-52.5 9.5q-35 0-64.5-12.5t-51-35-34-53.5-12.5-67zM523 710q-8-66-53-106.5t-131-40.5q-39 0-68.5 11.5t-49.5 31.5-30 46.5-10 57.5h72q2-42 28.5-60.5t62.5-18.5q42 0 71 20t37 59h71z" glyph-name="obreve" horiz-adv-x="598" unicode="&#x14f;"/><glyph d="M560 274q0-59-21-110.5t-59-89.5-90-60-113-22q-57 0-101.5 19.5t-75 52-46.5 75-16 88.5q0 59 21.5 110t59.5 89 90 60 114 22q57 0 101-19.5t74.5-52 46-74.5 15.5-88zM151 236q0-33 10.5-59t29-44 43-27.5 52.5-9.5q35 0 64.5 12.5t51.5 35 34 53.5 12 67q0 33-10.5 59t-29 44-43 27.5-52.5 9.5q-35 0-64.5-12.5t-51-35-34-53.5-12.5-67zM501 710h125l-163-161h-78zM322 710h125l-163-161h-78z" glyph-name="ohungarumlaut" horiz-adv-x="598" unicode="&#x151;"/><glyph d="M560 274q0-59-21-110.5t-59-89.5-90-60-113-22q-57 0-101.5 19.5t-75 52-46.5 75-16 88.5q0 59 21.5 110t59.5 89 90 60 114 22q57 0 101-19.5t74.5-52 46-74.5 15.5-88zM151 236q0-33 10.5-59t29-44 43-27.5 52.5-9.5q35 0 64.5 12.5t51.5 35 34 53.5 12 67q0 33-10.5 59t-29 44-43 27.5-52.5 9.5q-35 0-64.5-12.5t-51-35-34-53.5-12.5-67zM208 678h306l-17-77h-306z" glyph-name="omacron" horiz-adv-x="598" unicode="&#x14d;"/><glyph d="M560 274q0-59-21-110.5t-59-89.5-90-60-113-22q-57 0-101.5 19.5t-75 52-46.5 75-16 88.5q0 59 21.5 110t59.5 89 90 60 114 22q57 0 101-19.5t74.5-52 46-74.5 15.5-88zM151 236q0-33 10.5-59t29-44 43-27.5 52.5-9.5q35 0 64.5 12.5t51.5 35 34 53.5 12 67q0 33-10.5 59t-29 44-43 27.5-52.5 9.5q-35 0-64.5-12.5t-51-35-34-53.5-12.5-67zM250-195q-27 0-47.5 18.5t-20.5 48.5q0 28 19.5 47.5t48.5 19.5q28 0 47.5-19.5t19.5-47.5q0-29-20-48t-47-19z" glyph-name="uni1ECD" horiz-adv-x="598" unicode="&#x1ecd;"/><glyph d="M123 500h111l-12-54q26 29 63 45t80 16q11 0 21.5-1t19.5-3l-24-115q-23 10-57 10-36 0-69.5-16t-56.5-45l-71-337h-111zM343 710h139l-162-160h-85z" glyph-name="racute" horiz-adv-x="375" unicode="&#x155;"/><glyph d="M123 500h111l-12-54q26 29 63 45t80 16q11 0 21.5-1t19.5-3l-24-115q-23 10-57 10-36 0-69.5-16t-56.5-45l-71-337h-111zM469 661l-196-100-149 107 45 64 112-80 153 80z" glyph-name="rcaron" horiz-adv-x="375" unicode="&#x159;"/><glyph d="M123 500h111l-12-54q26 29 63 45t80 16q11 0 21.5-1t19.5-3l-24-115q-23 10-57 10-36 0-69.5-16t-56.5-45l-71-337h-111zM0-50h120l-129-165h-75z" glyph-name="uni0157" horiz-adv-x="375" unicode="&#x157;"/><glyph d="M370 144q0-35-13.5-63t-37-48-56-30.5-70.5-10.5q-75 0-122 32t-67 86l87 49q14-35 39-54.5t67-19.5q28 0 47.5 13t19.5 36q0 22-15 37t-44 32l-37 23q-42 26-70.5 58.5t-28.5 80.5q0 31 11.5 57t33.5 45 53 30 69 11q57 0 100.5-25t64.5-71l-88-50q-24 53-80 53-26 0-42-12t-16-33q0-19 12-32.5t38-29.5l34-22q47-27 79-60.5t32-81.5zM314 710h139l-162-160h-85z" glyph-name="sacute" horiz-adv-x="425" unicode="&#x15b;"/><glyph d="M370 144q0-35-13.5-63t-37-48-56-30.5-70.5-10.5q-75 0-122 32t-67 86l87 49q14-35 39-54.5t67-19.5q28 0 47.5 13t19.5 36q0 22-15 37t-44 32l-37 23q-42 26-70.5 58.5t-28.5 80.5q0 31 11.5 57t33.5 45 53 30 69 11q57 0 100.5-25t64.5-71l-88-50q-24 53-80 53-26 0-42-12t-16-33q0-19 12-32.5t38-29.5l34-22q47-27 79-60.5t32-81.5zM440 661l-196-100-149 107 45 64 112-80 153 80z" glyph-name="scaron" horiz-adv-x="425" unicode="&#x161;"/><glyph d="M370 144q0-35-13.5-63t-37-48-56-30.5-70.5-10.5q-75 0-122 32t-67 86l87 49q14-35 39-54.5t67-19.5q28 0 47.5 13t19.5 36q0 22-15 37t-44 32l-37 23q-42 26-70.5 58.5t-28.5 80.5q0 31 11.5 57t33.5 45 53 30 69 11q57 0 100.5-25t64.5-71l-88-50q-24 53-80 53-26 0-42-12t-16-33q0-19 12-32.5t38-29.5l34-22q47-27 79-60.5t32-81.5zM152 0h79l-80-165h-112z" glyph-name="scedilla" horiz-adv-x="425" unicode="&#x15f;"/><glyph d="M370 144q0-35-13.5-63t-37-48-56-30.5-70.5-10.5q-75 0-122 32t-67 86l87 49q14-35 39-54.5t67-19.5q28 0 47.5 13t19.5 36q0 22-15 37t-44 32l-37 23q-42 26-70.5 58.5t-28.5 80.5q0 31 11.5 57t33.5 45 53 30 69 11q57 0 100.5-25t64.5-71l-88-50q-24 53-80 53-26 0-42-12t-16-33q0-19 12-32.5t38-29.5l34-22q47-27 79-60.5t32-81.5zM91 620l196 102 150-108-46-64-113 80-152-80z" glyph-name="scircumflex" horiz-adv-x="425" unicode="&#x15d;"/><glyph d="M370 144q0-35-13.5-63t-37-48-56-30.5-70.5-10.5q-75 0-122 32t-67 86l87 49q14-35 39-54.5t67-19.5q28 0 47.5 13t19.5 36q0 22-15 37t-44 32l-37 23q-42 26-70.5 58.5t-28.5 80.5q0 31 11.5 57t33.5 45 53 30 69 11q57 0 100.5-25t64.5-71l-88-50q-24 53-80 53-26 0-42-12t-16-33q0-19 12-32.5t38-29.5l34-22q47-27 79-60.5t32-81.5zM124-50h120l-129-165h-75z" glyph-name="uni0219" horiz-adv-x="425" unicode="&#x219;"/><glyph d="M58 500h101l21 94 123 56-32-150h136l-22-98h-135l-48-220q-9-43 2-62.5t53-19.5h67l-21-100h-82q-83 0-116.5 43.5t-14.5 132.5l49 226h-81v98zM506 710l-90-163h-77l56 163h111z" glyph-name="tcaron" horiz-adv-x="385" unicode="&#x165;"/><glyph d="M58 500h101l21 94 123 56-32-150h136l-22-98h-135l-48-220q-9-43 2-62.5t53-19.5h67l-21-100h-82q-83 0-116.5 43.5t-14.5 132.5l49 226h-81v98zM119-50h120l-129-165h-75z" glyph-name="uni0163" horiz-adv-x="385" unicode="&#x163;"/><glyph d="M58 500h101l21 94 123 56-32-150h136l-22-98h-135l-48-220q-9-43 2-62.5t53-19.5h67l-21-100h-82q-83 0-116.5 43.5t-14.5 132.5l49 226h-81v98zM119-50h120l-129-165h-75z" glyph-name="uni021B" horiz-adv-x="385" unicode="&#x21b;"/><glyph d="M364 44q-61-52-145-52-43 0-78 16.5t-57.5 47-30 73.5 3.5 97l59 274h110l-56-266q-14-68 8.5-103.5t82.5-35.5q36 0 68.5 16t56.5 49l72 340h111l-106-500h-108zM542 710q-8-66-53-106.5t-131-40.5q-39 0-68.5 11.5t-49.5 31.5-30 46.5-10 57.5h72q2-42 28.5-60.5t62.5-18.5q42 0 71 20t37 59h71z" glyph-name="ubreve" horiz-adv-x="585" unicode="&#x16d;"/><glyph d="M364 44q-61-52-145-52-43 0-78 16.5t-57.5 47-30 73.5 3.5 97l59 274h110l-56-266q-14-68 8.5-103.5t82.5-35.5q36 0 68.5 16t56.5 49l72 340h111l-106-500h-108zM520 710h125l-163-161h-78zM341 710h125l-163-161h-78z" glyph-name="uhungarumlaut" horiz-adv-x="585" unicode="&#x171;"/><glyph d="M364 44q-61-52-145-52-43 0-78 16.5t-57.5 47-30 73.5 3.5 97l59 274h110l-56-266q-14-68 8.5-103.5t82.5-35.5q36 0 68.5 16t56.5 49l72 340h111l-106-500h-108zM227 678h306l-17-77h-306z" glyph-name="umacron" horiz-adv-x="585" unicode="&#x16b;"/><glyph d="M355-191q-38 0-62.5 22t-24.5 57q0 37 26 66t61 46l9 44q-61-52-145-52-43 0-78 16.5t-57.5 47-30 73.5 3.5 97l59 274h110l-56-266q-14-68 8.5-103.5t82.5-35.5q36 0 68.5 16t56.5 49l72 340h111l-106-500q-47-22-67.5-44t-20.5-39q0-12 7.5-20.5t27.5-8.5q11 0 19.5 3t13.5 7l-15-73q-16-9-34.5-12.5t-38.5-3.5z" glyph-name="uogonek" horiz-adv-x="585" unicode="&#x173;"/><glyph d="M364 44q-61-52-145-52-43 0-78 16.5t-57.5 47-30 73.5 3.5 97l59 274h110l-56-266q-14-68 8.5-103.5t82.5-35.5q36 0 68.5 16t56.5 49l72 340h111l-106-500h-108zM483 662q0-22-8.5-40.5t-22.5-32.5-33.5-22-41.5-8-41.5 8-34 22-23 32.5-8.5 40.5q0 45 31 74.5t76 29.5q44 0 75-29.5t31-74.5zM329 662q0-20 14-33.5t34-13.5 33.5 13.5 13.5 33.5q0 21-13.5 34.5t-33.5 13.5-34-13.5-14-34.5z" glyph-name="uring" horiz-adv-x="585" unicode="&#x16f;"/><glyph d="M364 44q-61-52-145-52-43 0-78 16.5t-57.5 47-30 73.5 3.5 97l59 274h110l-56-266q-14-68 8.5-103.5t82.5-35.5q36 0 68.5 16t56.5 49l72 340h111l-106-500h-108zM175 562q20 65 52.5 94.5t75.5 29.5q21 0 39-6.5t33-14.5 28.5-14.5 26.5-6.5q20 0 30.5 10t20.5 33h81q-21-65-52-94.5t-76-29.5q-21 0-39 6.5t-33.5 14.5-29 14.5-26.5 6.5q-18 0-29-10t-21-33h-81z" glyph-name="utilde" horiz-adv-x="585" unicode="&#x169;"/><glyph d="M364 44q-61-52-145-52-43 0-78 16.5t-57.5 47-30 73.5 3.5 97l59 274h110l-56-266q-14-68 8.5-103.5t82.5-35.5q36 0 68.5 16t56.5 49l72 340h111l-106-500h-108zM199-195q-27 0-47.5 18.5t-20.5 48.5q0 28 19.5 47.5t48.5 19.5q28 0 47.5-19.5t19.5-47.5q0-29-20-48t-47-19z" glyph-name="uni1EE5" horiz-adv-x="585" unicode="&#x1ee5;"/><glyph d="M57 500h110l30-332 203 340 59-344 172 336h115l-257-500h-89l-44 265-158-265h-89zM477 710h139l-162-160h-85z" glyph-name="wacute" horiz-adv-x="700" unicode="&#x1e83;"/><glyph d="M57 500h110l30-332 203 340 59-344 172 336h115l-257-500h-89l-44 265-158-265h-89zM254 620l196 102 150-108-46-64-113 80-152-80z" glyph-name="wcircumflex" horiz-adv-x="700" unicode="&#x175;"/><glyph d="M57 500h110l30-332 203 340 59-344 172 336h115l-257-500h-89l-44 265-158-265h-89zM611 637q0-29-19.5-48t-47.5-19-48 19-20 48q0 28 20 47.5t48 19.5 47.5-19.5 19.5-47.5zM382 637q0-29-19.5-48t-48.5-19q-28 0-47.5 19t-19.5 48q0 28 19.5 47.5t47.5 19.5q29 0 48.5-19.5t19.5-47.5z" glyph-name="wdieresis" horiz-adv-x="700" unicode="&#x1e85;"/><glyph d="M57 500h110l30-332 203 340 59-344 172 336h115l-257-500h-89l-44 265-158-265h-89zM263 710h126l52-160h-78z" glyph-name="wgrave" horiz-adv-x="700" unicode="&#x1e81;"/><glyph d="M150 19l-94 481h114l65-354 213 354h122l-427-684h-120zM162 620l196 102 150-108-46-64-113 80-152-80z" glyph-name="ycircumflex" horiz-adv-x="517" unicode="&#x177;"/><glyph d="M150 19l-94 481h114l65-354 213 354h122l-427-684h-120zM171 710h126l52-160h-78z" glyph-name="ygrave" horiz-adv-x="517" unicode="&#x1ef3;"/><glyph d="M150 19l-94 481h114l65-354 213 354h122l-427-684h-120zM192 678h306l-17-77h-306z" glyph-name="uni0233" horiz-adv-x="517" unicode="&#x233;"/><glyph d="M318 403h-238l20 97h433l-355-402h257l-21-98h-452zM385 710h139l-162-160h-85z" glyph-name="zacute" horiz-adv-x="504" unicode="&#x17a;"/><glyph d="M318 403h-238l20 97h433l-355-402h257l-21-98h-452zM510 661l-196-100-149 107 45 64 112-80 153 80z" glyph-name="zcaron" horiz-adv-x="504" unicode="&#x17e;"/><glyph d="M318 403h-238l20 97h433l-355-402h257l-21-98h-452zM336 570q-27 0-47.5 18.5t-20.5 48.5q0 28 19.5 47.5t48.5 19.5q28 0 47.5-19.5t19.5-47.5q0-29-20-48t-47-19z" glyph-name="zdotaccent" horiz-adv-x="504" unicode="&#x17c;"/><glyph d="M106-8q-36 0-61.5 25.5t-25.5 61.5 25.5 61 61.5 25 61-25 25-61-25-61.5-61-25.5zM365-8q-36 0-61.5 25.5t-25.5 61.5 25.5 61 61.5 25 61-25 25-61-25-61.5-61-25.5zM624-8q-36 0-61.5 25.5t-25.5 61.5 25.5 61 61.5 25 61-25 25-61-25-61.5-61-25.5z" glyph-name="ellipsis" horiz-adv-x="781" unicode="&#x2026;"/><glyph d="M83 329h452l-24-104h-452z" glyph-name="endash" horiz-adv-x="583" unicode="&#x2013;"/><glyph d="M83 329h748l-24-104h-748z" glyph-name="emdash" horiz-adv-x="879" unicode="&#x2014;"/><glyph d="M39 253l205 226 65-60-162-176 85-182-85-40z" glyph-name="guilsinglleft" horiz-adv-x="319" unicode="&#x2039;"/><glyph d="M280 247l-205-226-65 60 162 176-85 182 85 40z" glyph-name="guilsinglright" horiz-adv-x="318" unicode="&#x203a;"/><glyph d="M205 564h57l-30-142h-141l31 142 90 146h68z" glyph-name="quoteleft" horiz-adv-x="253" unicode="&#x2018;"/><glyph d="M178 568h-57l30 142h141l-31-142-90-146h-68z" glyph-name="quoteright" horiz-adv-x="243" unicode="&#x2019;"/><glyph d="M205 564h57l-30-142h-141l31 142 90 146h68zM414 564h57l-30-142h-141l31 142 90 146h68z" glyph-name="quotedblleft" horiz-adv-x="462" unicode="&#x201c;"/><glyph d="M178 568h-57l30 142h141l-31-142-90-146h-68zM387 568h-57l30 142h141l-31-142-90-146h-68z" glyph-name="quotedblright" horiz-adv-x="452" unicode="&#x201d;"/><glyph d="M76 0h-57l30 142h141l-31-142-90-146h-68z" glyph-name="quotesinglbase" horiz-adv-x="269" unicode="&#x201a;"/><glyph d="M76 0h-57l30 142h141l-31-142-90-146h-68zM285 0h-57l30 142h141l-31-142-90-146h-68z" glyph-name="quotedblbase" horiz-adv-x="478" unicode="&#x201e;"/><glyph d="M216 166q-28 0-53 10.5t-43.5 29-29 43.5-10.5 53 10.5 53 29 43.5 43.5 29 53 10.5 53-10.5 43.5-29 29-43.5 10.5-53-10.5-53-29-43.5-43.5-29-53-10.5z" glyph-name="bullet" horiz-adv-x="413" unicode="&#x2022;"/><glyph d="M82 321h437v-87h-437v87z" glyph-name="minus" horiz-adv-x="590" unicode="&#x2212;"/><glyph d="M76 310h116v20q0 13 1 26t3 27h-132l44 74h107q18 51 51 98t81 83 111 58 142 22q69 0 122-21t93-57l-58-99q-29 32-73 51t-98 19q-93 0-158.5-42.5t-97.5-111.5h376l-43-74h-355q-2-12-3-24t-1-24v-13q0-6 1-12h315l-43-74h-256q13-36 35.5-62t50-43 59-25 63.5-8q35 0 66.5 7t62.5 21l-26-116q-25-9-53.5-13.5t-56.5-4.5q-59 0-111 17t-93.5 48.5-71 76.5-43.5 102h-171z" glyph-name="Euro" horiz-adv-x="765" unicode="&#x20ac;"/><glyph d="M142 402h-81l21 98h90q-12 15-19.5 35t-7.5 45 10.5 48.5 31.5 41.5 52.5 29 74.5 11h129l-21-98h-99q-38 0-58-15.5t-20-43.5q0-21 13-36.5t39-16.5h102l-21-98h-126l-85-402h-111zM484 500h111l-106-500h-111zM507 595q-11 14-11 38 0 38 24 61.5t59 23.5q26 0 45-16t19-42q0-21-8-37.5t-22-27.5h-106z" glyph-name="uniFB01" horiz-adv-x="611" unicode="&#xfb01;"/><glyph d="M142 402h-81l21 98h90q-12 15-19.5 35t-7.5 45 10.5 48.5 31.5 41.5 52.5 29 74.5 11h129l-21-98h-99q-38 0-58-15.5t-20-43.5q0-21 13-36.5t39-16.5h102l-21-98h-126l-85-402h-111zM529 710h111l-151-710h-111z" glyph-name="uniFB02" horiz-adv-x="612" unicode="&#xfb02;"/><glyph d="M133 595q-11 14-11 38 0 38 24 61.5t59 23.5q26 0 45-16t19-42q0-21-8-37.5t-22-27.5h-106z" glyph-name="glyph329" horiz-adv-x="227"/><glyph d="M294 710q-8-66-53-106.5t-131-40.5q-39 0-68.5 11.5t-49.5 31.5-30 46.5-10 57.5h72q2-42 28.5-60.5t62.5-18.5q42 0 71 20t37 59h71z" glyph-name="breve" unicode="&#x2d8;"/><glyph d="M298 661l-196-100-149 107 45 64 112-80 153 80z" glyph-name="caron" unicode="&#x2c7;"/><glyph d="M-51 620l196 102 150-108-46-64-113 80-152-80z" glyph-name="circumflex" unicode="&#x2c6;"/><glyph d="M124 570q-27 0-47.5 18.5t-20.5 48.5q0 28 19.5 47.5t48.5 19.5q28 0 47.5-19.5t19.5-47.5q0-29-20-48t-47-19z" glyph-name="dotaccent" unicode="&#x2d9;"/><glyph d="M239 710h125l-163-161h-78zM60 710h125l-163-161h-78z" glyph-name="hungarumlaut" unicode="&#x2dd;"/><glyph d="M-57-50h120l-129-165h-75z" glyph-name="glyph335"/><glyph d="M-42-191q-37 0-61.5 22t-24.5 57q0 37 26 66t57 46h111q-47-22-67.5-44t-20.5-39q0-12 8-20.5t28-8.5q10 0 19 3t14 7l-16-73q-15-9-34-12.5t-39-3.5z" glyph-name="ogonek" unicode="&#x2db;"/><glyph d="M235 662q0-22-8.5-40.5t-22.5-32.5-33.5-22-41.5-8-41.5 8-34 22-23 32.5-8.5 40.5q0 45 31 74.5t76 29.5q44 0 75-29.5t31-74.5zM81 662q0-20 14-33.5t34-13.5 33.5 13.5 13.5 33.5q0 21-13.5 34.5t-33.5 13.5-34-13.5-14-34.5z" glyph-name="ring" unicode="&#x2da;"/><glyph d="M-73 562q20 65 52.5 94.5t75.5 29.5q21 0 39-6.5t33-14.5 28.5-14.5 26.5-6.5q20 0 30.5 10t20.5 33h81q-21-65-52-94.5t-76-29.5q-21 0-39 6.5t-33.5 14.5-29 14.5-26.5 6.5q-18 0-29-10t-21-33h-81z" glyph-name="tilde" unicode="&#x2dc;"/><glyph d="M206 710l-90-163h-77l56 163h111z" glyph-name="glyph339"/><glyph d="M24 570q-26 0-46.5 19t-20.5 48q0 28 20 47.5t47 19.5q29 0 48.5-19.5t19.5-47.5q0-29-19.5-48t-48.5-19zM223 570q-28 0-48 19t-20 48q0 28 19.5 47.5t48.5 19.5q28 0 47.5-19.5t19.5-47.5q0-29-19.5-48t-47.5-19z" glyph-name="glyph340"/><glyph d="M-57 578l14 65h335l-14-65h-335z" glyph-name="glyph341"/><glyph d="M-123 310l350 184 31-59-349-185z" glyph-name="glyph342"/><glyph d="M151 913h135l-148-145h-91z" glyph-name="glyph343"/><glyph d="M340 924q-7-71-53.5-112.5t-131.5-41.5q-77 0-117 43.5t-40 110.5h71q2-47 28.5-66.5t64.5-19.5q41 0 70 20.5t37 65.5h71z" glyph-name="glyph344"/><glyph d="M342 855l-195-92-152 96 41 69 118-74 154 74z" glyph-name="glyph345"/><glyph d="M-8 835l194 93 152-96-41-69-118 74-153-74z" glyph-name="glyph346"/><glyph d="M79 913h123l51-145h-82z" glyph-name="glyph347"/><glyph d="M253 913h129l-149-145h-85zM57 913h129l-149-145h-85z" glyph-name="glyph348"/><glyph d="M23 881h306l-18-81h-306z" glyph-name="glyph349"/><glyph d="M-42-191q-37 0-63 21.5t-26 57.5q0 37 24.5 65t55.5 47h117q-47-22-67.5-43t-20.5-40q0-12 8-20.5t28-8.5q10 0 19 3t14 7l-16-73q-15-9-34-12.5t-39-3.5z" glyph-name="glyph350"/><glyph d="M-96 393h335l-15-74h-335z" glyph-name="glyph351"/><glyph d="M-169 279l433 230 35-66-433-230z" glyph-name="glyph352"/><glyph d="M-242 595h714l-16-74h-714z" glyph-name="glyph353"/></font>
</defs>
</svg>
