<svg xmlns="http://www.w3.org/2000/svg"><defs><font horiz-adv-x="0"><font-face ascent="800" bbox="-357 -215 1008 961" cap-height="710" descent="-200" panose-1="2 11 6 4 0 0 0 0 0 0" underline-position="-134" underline-thickness="88" unicode-range="U+000D-FB02" x-height="500"/><missing-glyph d="M0 710h500v-710h-500v710zM250 371l216 320h-432zM19 28l221 327-221 327v-654zM481 28v654l-220-327zM466 19l-216 320-216-320h432z" horiz-adv-x="500"/><glyph d="M0 710h500v-710h-500v710zM250 371l216 320h-432zM19 28l221 327-221 327v-654zM481 28v654l-220-327zM466 19l-216 320-216-320h432z" glyph-name=".notdef" horiz-adv-x="500"/><glyph glyph-name="glyph1"/><glyph glyph-name="uni000D" horiz-adv-x="240" unicode="&#xd;"/><glyph glyph-name="space" horiz-adv-x="240" unicode="&#x20;"/><glyph d="M85 425v285h111v-285l-21-192h-69zM139-8q-18 0-33.5 7t-27 18.5-18.5 27.5-7 34q0 21 10 39.5t27 30.5h100q17-12 26.5-30.5t9.5-39.5q0-36-25-61.5t-62-25.5z" glyph-name="exclam" horiz-adv-x="280" unicode="&#x21;"/><glyph d="M64 710h96v-265h-96v265zM266 710h96v-265h-96v265z" glyph-name="quotedbl" horiz-adv-x="426" unicode="&#x22;"/><glyph d="M76 0l61 193h-104v88h131l48 152h-106v88h134l58 189h97l-58-189h162l59 189h97l-59-189h104v-88h-132l-47-152h107v-88h-134l-61-193h-97l60 193h-162l-61-193h-97zM424 281l47 152h-162l-48-152h163z" glyph-name="numbersign" horiz-adv-x="733" unicode="&#x23;"/><glyph d="M227-5q-70 8-119 40.5t-77 77.5l81 66q24-35 62.5-60t89.5-25q54 0 83.5 26t29.5 64q0 39-27.5 62.5t-79.5 48.5l-56 27q-80 38-116.5 88.5t-36.5 119.5q0 35 12 66t34 55.5 52.5 40.5 67.5 22v84h83v-84q51-7 86-29.5t64-56.5l-73-72q-26 31-53 45.5t-65 14.5q-45 0-72-24t-27-59q0-36 25-59.5t79-48.5l55-27q36-17 65-37t49.5-45 32-55 11.5-67q0-38-11-71.5t-33.5-59.5-55.5-43.5-77-23.5v-84h-83v83z" glyph-name="dollar" horiz-adv-x="524" unicode="&#x24;"/><glyph d="M206 440q-29 0-54 10.5t-44 29-30 44-11 54.5 11 54 30 44 44 29.5 54 10.5q30 0 55.5-10.5t45-29.5 30.5-44 11-54-11-54.5-30.5-44-45-29-55.5-10.5zM206 515q29 0 46 18.5t17 44.5-17 44-46 18q-26 0-43.5-18t-17.5-44 17.5-44.5 43.5-18.5zM61 398h297v-88h-297v88zM206-6q-29 0-54 10.5t-44 29-30 44-11 54.5 11 54 30 44 44 29.5 54 10.5q30 0 55.5-10.5t45-29.5 30.5-44 11-54-11-54.5-30.5-44-45-29-55.5-10.5zM206 69q29 0 46 18.5t17 44.5-17 44.5-46 18.5q-26 0-43.5-18.5t-17.5-44.5 17.5-44.5 43.5-18.5z" glyph-name="percent" horiz-adv-x="416" unicode="&#x25;"/><glyph d="M256-8q-48 0-89.5 17.5t-71.5 48-47.5 71.5-17.5 88q0 45 15.5 83.5t42.5 68 63.5 47.5 78.5 22q11 1 21 1t25-1l-138 272h376v-98h-207l312-612h-121l-54 106q-32-62-80-88t-108-26zM256 95q25 0 47 9t38 25.5 25 39 9 48.5-9 48.5-25 39-38 25.5-47 9-46.5-9-37.5-25.5-25-39-9-48.5 9-48.5 25-39 37.5-25.5 46.5-9z" glyph-name="ampersand" horiz-adv-x="614" unicode="&#x26;"/><glyph d="M64 710h96v-265h-96v265z" glyph-name="quotesingle" horiz-adv-x="224" unicode="&#x27;"/><glyph d="M239.985-114q-47.9971 105-72.4951 205-24.499 100-24.499 210 0 109 24.499 209.5 24.498 100.5 72.4951 204.5l-83.9951 36q-26.998-54-47.4971-106t-33.998-106.5-20.498-113q-7-58.5-7-124.5 0-67 7-125.5 6.99902-58.5 20.498-113t33.998-106.5 47.4971-106z" glyph-name="parenleft" horiz-adv-x="272" unicode="&#x28;"/><glyph d="M32-114q48 105 72.5 205t24.5 210q0 109-24.5 209.5t-72.5 204.5l84 36q27-54 47.5-106t34-106.5 20.5-113 7-124.5q0-67-7-125.5t-20.5-113-34-106.5-47.5-106z" glyph-name="parenright" horiz-adv-x="272" unicode="&#x29;"/><glyph d="M84 388l81 110-131 44 24 76 132-43v135h80v-135l132 44 25-77-132-43 82-111-64-47-83 111-81-110z" glyph-name="asterisk" horiz-adv-x="460" unicode="&#x2a;"/><glyph d="M77 321h175v171h87v-171h175v-87h-175v-174h-87v174h-175v87z" glyph-name="plus" horiz-adv-x="590" unicode="&#x2b;"/><glyph d="M120 0h-56v142h141v-143l-60-145h-68z" glyph-name="comma" horiz-adv-x="270" unicode="&#x2c;"/><glyph d="M62 331h258v-109h-258v109z" glyph-name="hyphen" horiz-adv-x="382" unicode="&#x2d;"/><glyph d="M133-8q-18 0-33.5 7t-27.5 18.5-19 27.5-7 34q0 37 26 61.5t61 24.5 60.5-24.5 25.5-61.5q0-18-7-34t-18.5-27.5-27-18.5-33.5-7z" glyph-name="period" horiz-adv-x="265" unicode="&#x2e;"/><glyph d="M361 710h101l-339-710h-101z" glyph-name="slash" horiz-adv-x="483" unicode="&#x2f;"/><glyph d="M409-8q-76 0-142 28t-115.5 77-78 115.5-28.5 142.5 28.5 142.5 78 115.5 115.5 77 142 28 142.5-28 116-77 78-115.5 28.5-142.5-28.5-142.5-78-115.5-116-77-142.5-28zM409 94q55 0 101.5 20t80.5 55.5 53 83 19 102.5-19 102.5-53 82.5-80.5 55.5-101.5 20.5-101.5-20.5-80-55.5-52.5-82.5-19-102.5 19-102.5 52.5-83 80-55.5 101.5-20z" glyph-name="zero" horiz-adv-x="819" unicode="&#x30;"/><glyph d="M83 608l110 110v-718h-110v608z" glyph-name="one" horiz-adv-x="281" unicode="&#x31;"/><glyph d="M275 285h-8q-43 1-79.5 18.5t-63.5 47-43 68-16 80.5q0 46 17.5 86t47.5 69.5 70.5 46.5 87.5 17q46 0 86.5-17t71-46.5 48-69.5 17.5-86q0-56-23.5-104t-73.5-103l-164-189h261v-103h-488zM288 382q51 0 82 33.5t31 83.5-31 83.5-82 33.5q-26 0-46.5-9t-35.5-25-23-37-8-46 8-46.5 23-37 35.5-24.5 46.5-9z" glyph-name="two" horiz-adv-x="566" unicode="&#x32;"/><glyph d="M237-8q-64 0-120 28.5t-89 77.5l82 68q17-30 48.5-51t74.5-21q60 0 98.5 37t38.5 100q0 62-38 100.5t-102 38.5h-67l129 237h-233v103h399l-137-254q40-13 70.5-36t50.5-52.5 30-64.5 10-72q0-52-18-95.5t-50-75.5-77-50-100-18z" glyph-name="three" horiz-adv-x="528" unicode="&#x33;"/><glyph d="M396 183h-392l502 535v-436h86v-99h-86v-183h-110v183zM396 282v191l-178-191h178z" glyph-name="four" horiz-adv-x="632" unicode="&#x34;"/><glyph d="M255-8q-66 0-122.5 28.5t-88.5 77.5l83 70q16-29 48-51.5t75-22.5q29 0 53 10t41.5 27.5 27 41.5 9.5 52-9.5 52.5-26.5 42.5-42 28.5-56 10.5q-38 0-63.5-17.5t-39.5-38.5l-73 31v376h368v-103h-258v-160q42 13 72 13 55 0 99.5-17.5t76-49 48-74.5 16.5-94q0-50-17-93t-48.5-74-75.5-48.5-97-17.5z" glyph-name="five" horiz-adv-x="529" unicode="&#x35;"/><glyph d="M281-8q-51 0-95 18t-76 49.5-50.5 74-18.5 91.5q0 38 12.5 71t29.5 63l203 351h125l-147-253q5 1 11 1h12q48 0 90.5-18t74.5-49.5 51-74 19-91.5-18.5-91.5-51-74-76.5-49.5-95-18zM281 94q29 0 53 10.5t41 28 26 41.5 9 51-9 51-26 42-41 28.5-53 10.5-52.5-10.5-40.5-28.5-26.5-42-9.5-51 9.5-51 26.5-41.5 40.5-28 52.5-10.5z" glyph-name="six" horiz-adv-x="552" unicode="&#x36;"/><glyph d="M344 607h-309v103h475l-333-710h-118z" glyph-name="seven" horiz-adv-x="511" unicode="&#x37;"/><glyph d="M280-8q-50 0-93 17.5t-74.5 48.5-50 73-18.5 92q0 62 27.5 110.5t73.5 78.5q-23 23-36 54t-13 68q0 39 14.5 73t39.5 58.5 58.5 38.5 71.5 14 71.5-14 58-38.5 39-58.5 14.5-73q0-37-13-68t-36-54q46-30 73.5-78.5t27.5-110.5q0-50-18-92t-50-73-75-48.5-92-17.5zM280 615q-33 0-55.5-23t-22.5-58 22.5-57.5 55.5-22.5 55 22.5 22 57.5-22 58-55 23zM280 95q27 0 49.5 10t39 27.5 25.5 40.5 9 50-9 50.5-25.5 41-39 27.5-49.5 10-50-10-39.5-27.5-25.5-41-9-50.5 9-50 25.5-40.5 39.5-27.5 50-10z" glyph-name="eight" horiz-adv-x="559" unicode="&#x38;"/><glyph d="M289 252q-5-1-11-1h-12q-48 0-90.5 18t-74.5 49.5-51 74-19 91.5 18.5 91.5 51 74 76.5 50 95 18.5 95-18.5 76-50 50.5-74 18.5-91.5q0-38-13-71t-30-63l-203-351h-124zM272 353q29 0 52.5 10.5t40.5 28 26.5 41.5 9.5 51-9.5 51-26.5 42-40.5 28.5-52.5 10.5-53-10.5-41-28.5-26-42-9-51 9-51 26-41.5 41-28 53-10.5z" glyph-name="nine" horiz-adv-x="553" unicode="&#x39;"/><glyph d="M148 335q-18 0-33.5 7t-27.5 18.5-19 27.5-7 34q0 37 26 61.5t61 24.5 60.5-24.5 25.5-61.5q0-18-7-34t-18.5-27.5-27-18.5-33.5-7zM148-8q-18 0-33.5 7t-27.5 18.5-19 27.5-7 34q0 37 26 61.5t61 24.5 60.5-24.5 25.5-61.5q0-18-7-34t-18.5-27.5-27-18.5-33.5-7z" glyph-name="colon" horiz-adv-x="295" unicode="&#x3a;"/><glyph d="M149 335q-18 0-33.5 7t-27.5 18.5-19 27.5-7 34q0 37 26 61.5t61 24.5 60.5-24.5 25.5-61.5q0-18-7-34t-18.5-27.5-27-18.5-33.5-7zM131 0h-56v142h141v-143l-60-145h-68z" glyph-name="semicolon" horiz-adv-x="295" unicode="&#x3b;"/><glyph d="M75 428h441v-86h-441v86zM75 214h441v-86h-441v86z" glyph-name="equal" horiz-adv-x="590" unicode="&#x3d;"/><glyph d="M184 380h62q52 0 85.5 32t33.5 86-32.5 86-80.5 32-79.5-32-31.5-86h-110q0 46 17 86t46.5 70 70 47 87.5 17 87.5-17 70.5-47 47.5-70 17.5-86-17.5-86-48-70-72.5-47-91-17h-62v102zM247-8q-36 0-61 25.5t-25 61.5q0 21 9.5 39.5t26.5 30.5h101q16-12 26-30.5t10-39.5q0-36-25.5-61.5t-61.5-25.5z" glyph-name="question" horiz-adv-x="522" unicode="&#x3f;"/><glyph d="M390-8q-81 0-145.5 27t-110 73.5-69.5 109.5-24 135q0 85 31.5 155.5t85 120.5 123.5 77.5 147 27.5q73 0 135.5-22t108.5-62.5 72-98 26-129.5q0-65-15.5-111.5t-41-75.5-58.5-42.5-67-13.5q-32 0-58 14t-42 37q-25-23-57.5-36t-70.5-13-68 13.5-50.5 37-31.5 55-11 66.5q0 45 16 85t45 70 69 47 87 17q33 0 58.5-9t44.5-25l5 24h81l-50-232q-7-33 3.5-56t42.5-23q40 0 67.5 42.5t27.5 130.5q0 58-21 103t-57.5 75.5-85.5 46-105 15.5q-62 0-118.5-21.5t-99-61.5-67.5-98-25-130q0-59 18.5-109t54-86 86-56.5 114.5-20.5q45 0 92.5 10t88.5 31l28-70q-47-21-103.5-32.5t-105.5-11.5zM286 344q0-48 24.5-75.5t66.5-27.5q27 0 52.5 11.5t39.5 36.5l2 10 30 142q-15 20-39 29.5t-48 9.5q-26 0-49.5-10t-41-28-27.5-43-10-55z" glyph-name="at" horiz-adv-x="797" unicode="&#x40;"/><glyph d="M337 718l348-718h-124l-75 158h-298l-74-158h-124zM438 259l-101 214-101-214h202z" glyph-name="A" horiz-adv-x="674" unicode="&#x41;"/><glyph d="M88 710h248q48 0 87-15.5t66.5-42 42-62 14.5-75.5q0-48-17.5-81.5t-47.5-56.5q50-22 81.5-64t31.5-109q0-47-17.5-84.5t-48.5-64-74-41-94-14.5h-272v710zM328 411q48 0 75.5 27.5t27.5 68.5q0 39-27.5 67.5t-75.5 28.5h-124v-192h124zM361 107q58 0 87.5 29t29.5 73-29.5 73.5-87.5 29.5h-157v-205h157z" glyph-name="B" horiz-adv-x="634" unicode="&#x42;"/><glyph d="M406-8q-76 0-142 28t-115 77-77.5 115-28.5 143q0 76 28.5 142.5t77.5 115.5 115 77 142 28q46 0 88.5-11t79.5-30 67.5-45 52.5-56l-85-73q-32 47-84.5 75t-118.5 28q-53 0-98-19.5t-77.5-53-51-79.5-18.5-99 18.5-99 51-79.5 77.5-53 98-19.5q66 0 118.5 28t84.5 75l85-73q-22-30-52.5-56t-67.5-45-79.5-30-88.5-11z" glyph-name="C" horiz-adv-x="719" unicode="&#x43;"/><glyph d="M88 710h225q79 0 147.5-27.5t118-75 78-112.5 28.5-140-28.5-140-78-112.5-118-75-147.5-27.5h-225v710zM313 108q57 0 104 19t80 52 51.5 78 18.5 98q0 52-18.5 97.5t-51.5 78.5-80 52-104 19h-109v-494h109z" glyph-name="D" horiz-adv-x="728" unicode="&#x44;"/><glyph d="M88 710h421v-114h-305v-180h245v-112h-245v-190h305v-114h-421v710z" glyph-name="E" horiz-adv-x="559" unicode="&#x45;"/><glyph d="M88 710h406v-114h-290v-180h226v-112h-226v-304h-116v710z" glyph-name="F" horiz-adv-x="523" unicode="&#x46;"/><glyph d="M406-8q-76 0-142 28t-115 77-77.5 115-28.5 143q0 76 28.5 142.5t77.5 115.5 115 77 142 28q86 0 157.5-33.5t117.5-88.5l-86-73q-35 40-81 61.5t-108 21.5q-53 0-98-19.5t-77.5-53-51-79.5-18.5-99 18.5-99 51-79.5 77.5-53 98-19.5q54 0 95.5 13t68.5 33v155h-200l49 110h266v-318q-40-46-114-75.5t-165-29.5z" glyph-name="G" horiz-adv-x="743" unicode="&#x47;"/><glyph d="M88 710h116v-294h353v294h116v-710h-116v304h-353v-304h-116v710z" glyph-name="H" horiz-adv-x="761" unicode="&#x48;"/><glyph d="M88 710h116v-710h-116v710z" glyph-name="I" horiz-adv-x="292" unicode="&#x49;"/><glyph d="M231-8q-44 0-82.5 13t-67 39.5-45.5 66-17 92.5h116q0-52 27-76.5t68-24.5q42 0 69 24.5t27 76.5v507h117v-514q0-52-17-90.5t-46-63.5-67.5-37.5-81.5-12.5z" glyph-name="J" horiz-adv-x="525" unicode="&#x4a;"/><glyph d="M88 710h116v-356l296 356h139l-299-360 328-350h-150l-314 335v-335h-116v710z" glyph-name="K" horiz-adv-x="656" unicode="&#x4b;"/><glyph d="M88 710h116v-595h299v-115h-415v710z" glyph-name="L" horiz-adv-x="522" unicode="&#x4c;"/><glyph d="M88 718l349-372 349 372v-718h-117v440l-232-251-233 251v-440h-116v718z" glyph-name="M" horiz-adv-x="874" unicode="&#x4d;"/><glyph d="M204 456v-456h-116v718l485-464v456h116v-718z" glyph-name="N" horiz-adv-x="777" unicode="&#x4e;"/><glyph d="M406-8q-76 0-142 28t-115 77-77.5 115-28.5 143q0 76 28.5 142.5t77.5 115.5 115 77 142 28q75 0 141.5-28t115.5-77 77.5-115.5 28.5-142.5q0-77-28.5-143t-77.5-115-115.5-77-141.5-28zM406 104q52 0 97 19.5t77.5 53 51 79.5 18.5 99-18.5 99-51 79.5-77.5 53-97 19.5q-53 0-98-19.5t-77.5-53-51-79.5-18.5-99 18.5-99 51-79.5 77.5-53 98-19.5z" glyph-name="O" horiz-adv-x="812" unicode="&#x4f;"/><glyph d="M88 710h213q54 0 99.5-16.5t77.5-46.5 50-71.5 18-91.5-18-91.5-50-71.5-77.5-46.5-99.5-16.5h-97v-258h-116v710zM299 366q63 0 97 32t34 86q0 53-34 85.5t-97 32.5h-95v-236h95z" glyph-name="P" horiz-adv-x="576" unicode="&#x50;"/><glyph d="M406-8q-76 0-142 28t-115 77-77.5 115-28.5 143q0 76 28.5 142.5t77.5 115.5 115 77 142 28q75 0 141.5-28t115.5-77 77.5-115.5 28.5-142.5q0-57-15.5-107.5t-44.5-93.5l95-82-70-80-95 83q-48-39-107-61t-126-22zM406 104q42 0 79 12t67 35l-99 87 70 80 98-86q29 55 29 123 0 53-18.5 99t-51 79.5-77.5 53-97 19.5q-53 0-98-19.5t-77.5-53-51-79.5-18.5-99 18.5-99 51-79.5 77.5-53 98-19.5z" glyph-name="Q" horiz-adv-x="827" unicode="&#x51;"/><glyph d="M88 710h232q49 0 90-15t70-42 45.5-64.5 16.5-82.5q0-32-9.5-63t-29-57.5-49-46-69.5-29.5l240-310h-140l-231 302h-50v-302h-116v710zM310 403q56 0 85.5 27t29.5 72q0 47-29.5 74t-85.5 27h-106v-200h106z" glyph-name="R" horiz-adv-x="629" unicode="&#x52;"/><glyph d="M268-8q-81 0-143.5 33.5t-96.5 87.5l88 74q25-35 64.5-60t85.5-25q52 0 81 22t29 60q0 40-25.5 65t-78.5 48l-56 24q-159 70-159 209 0 43 18 77.5t47 59 67 38 79 13.5q61 0 110-21.5t89-68.5l-81-83q-27 33-54.5 48t-65.5 15q-36 0-64-20t-28-57q0-35 24-59.5t78-47.5l55-24q73-32 117.5-82t44.5-124q0-45-16-82t-45.5-64-71-41.5-92.5-14.5z" glyph-name="S" horiz-adv-x="529" unicode="&#x53;"/><glyph d="M208 596h-189v114h496v-114h-190v-596h-117v596z" glyph-name="T" horiz-adv-x="534" unicode="&#x54;"/><glyph d="M366-8q-63 0-115.5 20t-90.5 56.5-59 89.5-21 119v433h116v-437q0-82 47-125.5t123-43.5q75 0 122 43.5t47 125.5v437h117v-434q0-66-21-118.5t-59-89-90.5-56.5-115.5-20z" glyph-name="U" horiz-adv-x="732" unicode="&#x55;"/><glyph d="M-3 710h129l201-452 201 452h129l-330-718z" glyph-name="V" horiz-adv-x="654" unicode="&#x56;"/><glyph d="M4 710h120l139-423 176 431 177-431 139 423h120l-245-718-190 467-191-467z" glyph-name="W" horiz-adv-x="879" unicode="&#x57;"/><glyph d="M247 360l-230 350h135l173-263 174 263h134l-229-350 244-360h-134l-188 276-187-276h-136z" glyph-name="X" horiz-adv-x="651" unicode="&#x58;"/><glyph d="M266 300l-261 410h136l183-294 184 294h136l-261-410v-300h-117v300z" glyph-name="Y" horiz-adv-x="649" unicode="&#x59;"/><glyph d="M380 596h-328v114h527l-370-596h364v-114h-564z" glyph-name="Z" horiz-adv-x="607" unicode="&#x5a;"/><glyph d="M284.982-148v85h-105.993v726h105.993v85h-202.987v-896h202.987z" glyph-name="bracketleft" horiz-adv-x="317" unicode="&#x5b;"/><glyph d="M32-148v85h106v726h-106v85h203v-896h-203z" glyph-name="bracketright" horiz-adv-x="317" unicode="&#x5d;"/><glyph d="M50 0h428v-88h-428v88z" glyph-name="underscore" horiz-adv-x="528" unicode="&#x5f;"/><glyph d="M-108 710h132l85-160h-85z" glyph-name="grave" unicode="&#x60;"/><glyph d="M430 42q-28-25-64-37.5t-77-12.5q-55 0-101 20.5t-79 55.5-51.5 82-18.5 100 18.5 100 51.5 82 79 55.5 101 20.5q41 0 77-13t64-38v43h110v-500h-110v42zM300 94q45 0 77.5 18.5t52.5 47.5v179q-20 30-52.5 48.5t-77.5 18.5q-33 0-60.5-12t-47-33-30.5-49.5-11-61.5 11-61.5 30.5-49.5 47-33 60.5-12z" glyph-name="a" horiz-adv-x="610" unicode="&#x61;"/><glyph d="M70 710h110v-253q28 25 64 38t77 13q55 0 101-20.5t79-55.5 51.5-82 18.5-100-18.5-100-51.5-82-79-55.5-101-20.5q-41 0-77 12.5t-64 37.5v-42h-110v710zM311 406q-45 0-78.5-18.5t-52.5-48.5v-179q19-29 52.5-47.5t78.5-18.5q33 0 60 12t46.5 33 30.5 49.5 11 61.5-11 61.5-30.5 49.5-46.5 33-60 12z" glyph-name="b" horiz-adv-x="610" unicode="&#x62;"/><glyph d="M296-8q-55 0-102 20t-81.5 55-54.5 82-20 101 20 101 54.5 82 81.5 55 102 20q66 0 117-26t85-67l-79-70q-21 26-51.5 43t-71.5 17q-32 0-58.5-12t-46-32.5-30.5-49-11-61.5 11-61.5 30.5-49 46-32.5 58.5-12q41 0 71.5 17t51.5 43l79-70q-34-41-85-67t-117-26z" glyph-name="c" horiz-adv-x="523" unicode="&#x63;"/><glyph d="M430 0v42q-28-25-64-37.5t-77-12.5q-55 0-101 20.5t-79 55.5-51.5 82-18.5 100 18.5 100 51.5 82 79 55.5 101 20.5q41 0 77-13t64-38v253h110v-710h-110zM300 406q-33 0-60.5-12t-47-33-30.5-49.5-11-61.5 11-61.5 30.5-49.5 47-33 60.5-12q45 0 78 18.5t52 47.5v179q-19 30-52 48.5t-78 18.5z" glyph-name="d" horiz-adv-x="610" unicode="&#x64;"/><glyph d="M295-8q-53 0-100 19.5t-81.5 54-54.5 81.5-20 103q0 55 19.5 102t53.5 81.5 80.5 54.5 100.5 20q56 0 102-20.5t78-57 48.5-88.5 13.5-115h-386q3-32 16.5-56.5t33.5-41.5 45-26 51-9q45 0 78 17.5t54 43.5l79-68q-33-42-87.5-68.5t-123.5-26.5zM286 414q-20 0-40.5-6t-39-18.5-33-33-20.5-49.5h266q-8 54-45.5 80.5t-87.5 26.5z" glyph-name="e" horiz-adv-x="570" unicode="&#x65;"/><glyph d="M109 402h-78v98h86q-19 14-30 37t-11 49q0 54 38.5 89t103.5 35h132v-98h-102q-30 0-48-14t-18-40q0-27 18-42t40-16h110v-98h-131v-402h-110v402z" glyph-name="f" horiz-adv-x="365" unicode="&#x66;"/><glyph d="M290-194q-55 0-112.5 13t-105.5 45l54 95q31-23 72.5-37.5t89.5-14.5q29 0 55.5 5.5t47 18.5 33 34 12.5 51q0 11-2.5 27t-10.5 29q-27-26-63-39t-78-13q-56 0-101 19.5t-76.5 52.5-48.5 77.5-17 94.5 17 94.5 48.5 77.5 76.5 52.5 101 19.5q82 0 139-51v43h110v-400q10-26 14.5-50.5t4.5-47.5q0-54-22.5-91t-59.5-60.5-83.5-34-94.5-10.5zM290 121q45 0 78.5 19t52.5 48v151q-19 30-52.5 48.5t-78.5 18.5q-32 0-57.5-11t-43.5-30.5-28-45.5-10-55q0-30 10-56t28-45.5 43.5-30.5 57.5-11z" glyph-name="g" horiz-adv-x="604" unicode="&#x67;"/><glyph d="M70 710h110v-257q26 29 63.5 42t77.5 13q46 0 83.5-15.5t63.5-43 40.5-67 14.5-87.5v-295h-110v282q0 54-29 89t-85 35q-42 0-72.5-21.5t-46.5-60.5v-324h-110v710z" glyph-name="h" horiz-adv-x="587" unicode="&#x68;"/><glyph d="M70 500h110v-500h-110v500zM73 595q-19 19-19 50t20.5 52 51.5 21 51.5-21 20.5-52-19-50h-106z" glyph-name="i" horiz-adv-x="250" unicode="&#x69;"/><glyph d="M-26-82h29q39 0 57 17.5t18 55.5v509h110v-525q0-79-47-119t-129-40h-38v102zM81 595q-19 19-19 50t20.5 52 51.5 21 51.5-21 20.5-52-19-50h-106z" glyph-name="j" horiz-adv-x="258" unicode="&#x6a;"/><glyph d="M70 710h110v-438l200 228h135l-209-236 234-264h-139l-221 250v-250h-110v710z" glyph-name="k" horiz-adv-x="530" unicode="&#x6b;"/><glyph d="M70 710h110v-710h-110v710z" glyph-name="l" horiz-adv-x="250" unicode="&#x6c;"/><glyph d="M390 282q0 53-25.5 88.5t-76.5 35.5q-36 0-64.5-19.5t-43.5-54.5v-332h-110v500h110v-46q26 29 61 41.5t70 12.5q51 0 88-20t60-54q27 35 70 54.5t94 19.5q48 0 84-15.5t61-44 37.5-67.5 12.5-86v-295h-110v282q0 53-25 88.5t-76 35.5q-35 0-63.5-19t-45.5-59q1-8 1.5-16.5t.5-16.5v-295h-110v282z" glyph-name="m" horiz-adv-x="882" unicode="&#x6d;"/><glyph d="M70 500h110v-47q26 29 63.5 42t77.5 13q46 0 83.5-15.5t63.5-43 40.5-67 14.5-87.5v-295h-110v282q0 54-29 89t-85 35q-42 0-72.5-21.5t-46.5-60.5v-324h-110v500z" glyph-name="n" horiz-adv-x="587" unicode="&#x6e;"/><glyph d="M298-8q-56 0-103.5 20t-82 55-54.5 82-20 101 20 101 54.5 82 82 55 103.5 20q55 0 103-20t82.5-55 54.5-82 20-101-20-101-54.5-82-82.5-55-103-20zM298 95q33 0 60 12t46.5 32.5 30 49 10.5 61.5-10.5 61.5-30 49-46.5 32.5-60 12-60-12-46.5-32.5-30.5-49-11-61.5 11-61.5 30.5-49 46.5-32.5 60-12z" glyph-name="o" horiz-adv-x="596" unicode="&#x6f;"/><glyph d="M180 500v-42q28 25 64 37.5t77 12.5q55 0 101-20.5t79-55.5 51.5-82 18.5-100-18.5-100-51.5-82-79-55.5-101-20.5q-41 0-77 13t-64 38v-227h-110v684h110zM311 94q33 0 60 12t46.5 33 30.5 49.5 11 61.5-11 61.5-30.5 49.5-46.5 33-60 12q-45 0-78.5-18.5t-52.5-47.5v-179q19-30 52.5-48.5t78.5-18.5z" glyph-name="p" horiz-adv-x="610" unicode="&#x70;"/><glyph d="M540-184h-110v227q-28-25-64-38t-77-13q-55 0-101 20.5t-79 55.5-51.5 82-18.5 100 18.5 100 51.5 82 79 55.5 101 20.5q41 0 77-12.5t64-37.5v42h110v-684zM300 94q45 0 78 18.5t52 48.5v179q-19 29-52 47.5t-78 18.5q-33 0-60.5-12t-47-33-30.5-49.5-11-61.5 11-61.5 30.5-49.5 47-33 60.5-12z" glyph-name="q" horiz-adv-x="610" unicode="&#x71;"/><glyph d="M70 500h110v-53q48 59 129 59 11 0 21.5-1t20.5-4v-114q-24 10-58 10-35 0-65.5-15.5t-47.5-46.5v-335h-110v500z" glyph-name="r" horiz-adv-x="369" unicode="&#x72;"/><glyph d="M213-8q-60 0-107.5 24.5t-78.5 77.5l86 58q17-31 41.5-48.5t62.5-17.5q29 0 49.5 12.5t20.5 35.5-17.5 37.5-59.5 29.5l-34 13q-66 25-95 65t-29 88q0 30 12 56t34 45 51.5 29.5 64.5 10.5q48 0 88-20.5t65-65.5l-74-56q-13 23-32.5 36.5t-46.5 13.5q-23 0-40.5-11.5t-17.5-32.5q0-20 14.5-34.5t55.5-29.5l34-13q67-25 99.5-61.5t32.5-92.5q0-33-13-60.5t-36.5-47-56.5-30.5-73-11z" glyph-name="s" horiz-adv-x="427" unicode="&#x73;"/><glyph d="M259 0q-72 0-112 38t-40 110v254h-74l-24 98h98v95l110 55v-150h154l-24-98h-130v-230q0-35 15-53.5t53-18.5h73v-100h-99v0z" glyph-name="t" horiz-adv-x="390" unicode="&#x74;"/><glyph d="M405 49q-27-31-64.5-44t-76.5-13q-45 0-82 15t-63.5 43-40.5 67.5-14 87.5v295h110v-282q0-54 28.5-89t82.5-35q43 0 74 21.5t46 60.5v324h110v-500h-110v49z" glyph-name="u" horiz-adv-x="585" unicode="&#x75;"/><glyph d="M-9 500h126l149-293 149 293h125l-275-508z" glyph-name="v" horiz-adv-x="531" unicode="&#x76;"/><glyph d="M7 500h115l101-334 133 342 133-342 101 334h114l-158-500h-86l-104 266-104-266h-86z" glyph-name="w" horiz-adv-x="712" unicode="&#x77;"/><glyph d="M197 253l-180 247h127l122-169 122 169h127l-180-247 189-253h-127l-131 178-131-178h-128z" glyph-name="x" horiz-adv-x="532" unicode="&#x78;"/><glyph d="M201 27l-197 473h118l137-347 137 347h118l-287-684h-117z" glyph-name="y" horiz-adv-x="515" unicode="&#x79;"/><glyph d="M285 403h-238v97h427l-269-402h257v-98h-447z" glyph-name="z" horiz-adv-x="499" unicode="&#x7a;"/><glyph d="M296.981-148v85h-41.9971q-34.998 0-46.4971 16t-11.499 51v190q0 45-13.999 69.5-14 24.5-42.998 36.5 28.998 11 42.998 36 13.999 25 13.999 70v190q0 35 11.499 51t46.4971 16h41.9971v85h-64.9951q-68.9961 0-100.494-37.5t-31.498-106.5v-198q0-29-10.5-46.5-10.499-17.5-45.4971-17.5h-12.999v-85h12.999q34.998 0 45.4971-17 10.5-17 10.5-47v-197q0-69 33.498-106.5t102.493-37.5h60.9961z" glyph-name="braceleft" horiz-adv-x="331" unicode="&#x7b;"/><glyph d="M82 710h96v-894h-96v894z" glyph-name="bar" horiz-adv-x="260" unicode="&#x7c;"/><glyph d="M34-148v85h42q35 0 46.5 16t11.5 51v190q0 45 14 69.5t43 36.5q-29 11-43 36t-14 70v190q0 35-11.5 51t-46.5 16h-42v85h65q69 0 100.5-37.5t31.5-106.5v-198q0-29 10.5-46.5t45.5-17.5h13v-85h-13q-35 0-45.5-17t-10.5-47v-197q0-69-33.5-106.5t-102.5-37.5h-61z" glyph-name="braceright" horiz-adv-x="331" unicode="&#x7d;"/><glyph glyph-name="uni00A0" horiz-adv-x="240" unicode="&#xa0;"/><glyph d="M132 508q37 0 62-25.5t25-61.5q0-21-9.5-39.5t-26.5-29.5h-100q-17 11-27 29.5t-10 39.5q0 18 7 34t18.5 27.5 27 18.5 33.5 7zM168 268l21-192v-260h-111v260l21 192h69z" glyph-name="exclamdown" horiz-adv-x="267" unicode="&#xa1;"/><glyph d="M50 103h84v207h-84v74h87q-20 23-33 54t-13 69q0 43 16.5 81t46 67 70 46 88.5 17q46 0 86-17t69-46 46.5-68 18.5-84h-111q0 24-8 44.5t-22.5 35.5-34.5 24-44 9q-49 0-79.5-31.5t-30.5-82.5q0-24 8-45.5t23-37.5 36-25.5 47-9.5h77v-74h-148v-207h304v-103h-499v103z" glyph-name="sterling" horiz-adv-x="585" unicode="&#xa3;"/><glyph d="M123 355h127l-226 355h136l183-294 184 294h136l-226-355h126v-74h-161v-73h161v-74h-161v-134h-117v134h-162v74h162v73h-162v74z" glyph-name="yen" horiz-adv-x="687" unicode="&#xa5;"/><glyph d="M116 570q-28 0-48 19t-20 48 20 48 48 19q27 0 47-19t20-48-20-48-47-19zM-114 570q-28 0-48 19t-20 48 20 48 48 19q27 0 47-19t20-48-20-48-47-19z" glyph-name="dieresis" unicode="&#xa8;"/><glyph d="M405-9q-75 0-141 28.5t-115.5 78-78 115.5-28.5 141 28.5 141 78 115.5 115.5 78.5 141 29 141-29 115.5-78.5 78-115.5 28.5-141-28.5-141-78-115.5-115.5-78-141-28.5zM405 61q60 0 112 22.5t91 62.5 61.5 93.5 22.5 115.5-22.5 115.5-61.5 93-91 62-112 22.5-112-22.5-90.5-62-61-93-22.5-115.5 22.5-115.5 61-93.5 90.5-62.5 112-22.5zM421 183q-36 0-67 13t-54.5 36.5-37 55-13.5 67.5 13.5 67.5 37 54.5 54.5 36.5 67 13.5q37 0 68-14.5t54-40.5l-49-52q-12 14-31 24.5t-42 10.5q-21 0-38.5-8t-30-21.5-19.5-31.5-7-39 7-39 19.5-31.5 30-21.5 38.5-8q23 0 41.5 10.5t31.5 25.5l49-53q-23-26-54-40.5t-68-14.5z" glyph-name="copyright" horiz-adv-x="810" unicode="&#xa9;"/><glyph d="M251 250l156 228 76-51-121-177 121-177-76-51zM37 250l156 228 76-51-121-177 121-177-76-51z" glyph-name="guillemotleft" horiz-adv-x="529" unicode="&#xab;"/><glyph d="M62 331h258v-109h-258v109z" glyph-name="uni00AD" horiz-adv-x="382" unicode="&#xad;"/><glyph d="M-153 678h306v-77h-306v77z" glyph-name="macron" unicode="&#xaf;"/><glyph d="M161 470q-25 0-47.5 9.5t-39 26-26 39-9.5 47.5 9.5 47.5 26 39 39 26 47.5 9.5 47.5-9.5 39-26 26-39 9.5-47.5-9.5-47.5-26-39-39-26-47.5-9.5zM161 533q25 0 41.5 17.5t16.5 41.5-16.5 41-41.5 17q-24 0-41.5-17t-17.5-41 17.5-41.5 41.5-17.5z" glyph-name="degree" horiz-adv-x="322" unicode="&#xb0;"/><glyph d="M108.993 710h-131.992l-84.9941-160h84.9941z" glyph-name="acute" unicode="&#xb4;"/><glyph d="M139 164q-18 0-33.5 7t-27.5 18.5-19 27.5-7 34q0 37 26 61.5t61 24.5 60.5-24.5 25.5-61.5q0-18-7-34t-18.5-27.5-27-18.5-33.5-7z" glyph-name="periodcentered" horiz-adv-x="277" unicode="&#xb7;"/><glyph d="M-2 0h75l-52-165h-108z" glyph-name="cedilla" unicode="&#xb8;"/><glyph d="M260 73l121 177-121 177 76 51 156-228-156-228zM46 73l121 177-121 177 76 51 156-228-156-228z" glyph-name="guillemotright" horiz-adv-x="529" unicode="&#xbb;"/><glyph d="M220 351q-17 12-27 30.5t-10 39.5q0 36 25.5 61.5t62.5 25.5q18 0 33.5-7t27-18.5 18-27.5 6.5-34q0-21-9.5-39.5t-26.5-30.5h-100zM265-194q-47 0-87.5 17t-70.5 47-47.5 70-17.5 86 17.5 86 48 70 72.5 47 91 17h63v-102h-63q-52 0-85.5-32t-33.5-86 32.5-86 80.5-32 80 32 32 86h109q0-46-17-86t-46.5-70-70-47-87.5-17z" glyph-name="questiondown" horiz-adv-x="514" unicode="&#xbf;"/><glyph d="M337 718l348-718h-124l-75 158h-298l-74-158h-124zM438 259l-101 214-101-214h202zM173 913h130l75-145h-87z" glyph-name="Agrave" horiz-adv-x="674" unicode="&#xc0;"/><glyph d="M337 718l348-718h-124l-75 158h-298l-74-158h-124zM438 259l-101 214-101-214h202zM503.969 913h-129.991l-74.9961-145h86.9951z" glyph-name="Aacute" horiz-adv-x="674" unicode="&#xc1;"/><glyph d="M337 718l348-718h-124l-75 158h-298l-74-158h-124zM438 259l-101 214-101-214h202zM163 837l174 91 174-91-37-74-137 74-137-74z" glyph-name="Acircumflex" horiz-adv-x="674" unicode="&#xc2;"/><glyph d="M337 718l348-718h-124l-75 158h-298l-74-158h-124zM438 259l-101 214-101-214h202zM160 804q8 49 40 75.5t68 26.5q21 0 39-6.5t33.5-14.5 28.5-14.5 25-6.5q20 0 30.5 10t15.5 33h77l-3-22q-8-48-39.5-75t-69.5-27q-21 0-39 6.5t-33.5 14.5-29 14.5-25.5 6.5q-19 0-29-10t-16-33h-77z" glyph-name="Atilde" horiz-adv-x="674" unicode="&#xc3;"/><glyph d="M337 718l348-718h-124l-75 158h-298l-74-158h-124zM438 259l-101 214-101-214h202zM453 780q-28 0-48 19t-20 48 20 48 48 19q27 0 47-19t20-48-20-48-47-19zM223 780q-28 0-48 19t-20 48 20 48 48 19q27 0 47-19t20-48-20-48-47-19z" glyph-name="Adieresis" horiz-adv-x="674" unicode="&#xc4;"/><glyph d="M337 718l348-718h-124l-75 158h-298l-74-158h-124zM438 259l-101 214-101-214h202zM337 754q-22 0-41.5 8t-34 22-23 32.5-8.5 40.5 8.5 41 23 33 34 22 41.5 8 41.5-8 34-22 23-33 8.5-41-8.5-40.5-23-32.5-34-22-41.5-8zM337 810q20 0 34 13.5t14 33.5q0 21-14 34.5t-34 13.5-34-13.5-14-34.5q0-20 14-33.5t34-13.5z" glyph-name="Aring" horiz-adv-x="674" unicode="&#xc5;"/><glyph d="M1 0l287 593-57 117h400l55-114h-279l87-180h229l54-112h-228l91-190h279l56-114h-403l-76 158h-296l-75-158h-124zM448 259l-101 211-100-211h201z" glyph-name="AE" horiz-adv-x="970" unicode="&#xc6;"/><glyph d="M406-8q-76 0-142 28t-115 77-77.5 115-28.5 143q0 76 28.5 142.5t77.5 115.5 115 77 142 28q46 0 88.5-11t79.5-30 67.5-45 52.5-56l-85-73q-32 47-84.5 75t-118.5 28q-53 0-98-19.5t-77.5-53-51-79.5-18.5-99 18.5-99 51-79.5 77.5-53 98-19.5q66 0 118.5 28t84.5 75l85-73q-22-30-52.5-56t-67.5-45-79.5-30-88.5-11zM386 0h75l-52-165h-108z" glyph-name="Ccedilla" horiz-adv-x="719" unicode="&#xc7;"/><glyph d="M88 710h421v-114h-305v-180h245v-112h-245v-190h305v-114h-421v710zM139 913h130l75-145h-87z" glyph-name="Egrave" horiz-adv-x="559" unicode="&#xc8;"/><glyph d="M88 710h421v-114h-305v-180h245v-112h-245v-190h305v-114h-421v710zM468.972 913h-129.992l-74.9951-145h86.9941z" glyph-name="Eacute" horiz-adv-x="559" unicode="&#xc9;"/><glyph d="M88 710h421v-114h-305v-180h245v-112h-245v-190h305v-114h-421v710zM129 837l174 91 174-91-37-74-137 74-137-74z" glyph-name="Ecircumflex" horiz-adv-x="559" unicode="&#xca;"/><glyph d="M88 710h421v-114h-305v-180h245v-112h-245v-190h305v-114h-421v710zM419 780q-28 0-48 19t-20 48 20 48 48 19q27 0 47-19t20-48-20-48-47-19zM189 780q-28 0-48 19t-20 48 20 48 48 19q27 0 47-19t20-48-20-48-47-19z" glyph-name="Edieresis" horiz-adv-x="559" unicode="&#xcb;"/><glyph d="M88 710h116v-710h-116v710zM-18 913h130l75-145h-87z" glyph-name="Igrave" horiz-adv-x="292" unicode="&#xcc;"/><glyph d="M88 710h116v-710h-116v710zM312.98 913h-129.991l-74.9961-145h86.9951z" glyph-name="Iacute" horiz-adv-x="292" unicode="&#xcd;"/><glyph d="M88 710h116v-710h-116v710zM-28 837l174 91 174-91-37-74-137 74-137-74z" glyph-name="Icircumflex" horiz-adv-x="292" unicode="&#xce;"/><glyph d="M88 710h116v-710h-116v710zM262 780q-28 0-48 19t-20 48 20 48 48 19q27 0 47-19t20-48-20-48-47-19zM32 780q-28 0-48 19t-20 48 20 48 48 19q27 0 47-19t20-48-20-48-47-19z" glyph-name="Idieresis" horiz-adv-x="292" unicode="&#xcf;"/><glyph d="M121 710h225q79 0 147.5-27.5t118-75 78-112.5 28.5-140-28.5-140-78-112.5-118-75-147.5-27.5h-225v710zM346 108q57 0 104 19t80 52 51.5 78 18.5 98q0 52-18.5 97.5t-51.5 78.5-80 52-104 19h-109v-494h109zM12 393h335v-74h-335v74z" glyph-name="Eth" horiz-adv-x="761" unicode="&#xd0;"/><glyph d="M204 456v-456h-116v718l485-464v456h116v-718zM196 804q8 49 40 75.5t68 26.5q21 0 39-6.5t33.5-14.5 28.5-14.5 25-6.5q20 0 30.5 10t15.5 33h77l-3-22q-8-48-39.5-75t-69.5-27q-21 0-39 6.5t-33.5 14.5-29 14.5-25.5 6.5q-19 0-29-10t-16-33h-77z" glyph-name="Ntilde" horiz-adv-x="777" unicode="&#xd1;"/><glyph d="M406-8q-76 0-142 28t-115 77-77.5 115-28.5 143q0 76 28.5 142.5t77.5 115.5 115 77 142 28q75 0 141.5-28t115.5-77 77.5-115.5 28.5-142.5q0-77-28.5-143t-77.5-115-115.5-77-141.5-28zM406 104q52 0 97 19.5t77.5 53 51 79.5 18.5 99-18.5 99-51 79.5-77.5 53-97 19.5q-53 0-98-19.5t-77.5-53-51-79.5-18.5-99 18.5-99 51-79.5 77.5-53 98-19.5zM242 913h130l75-145h-87z" glyph-name="Ograve" horiz-adv-x="812" unicode="&#xd2;"/><glyph d="M406-8q-76 0-142 28t-115 77-77.5 115-28.5 143q0 76 28.5 142.5t77.5 115.5 115 77 142 28q75 0 141.5-28t115.5-77 77.5-115.5 28.5-142.5q0-77-28.5-143t-77.5-115-115.5-77-141.5-28zM406 104q52 0 97 19.5t77.5 53 51 79.5 18.5 99-18.5 99-51 79.5-77.5 53-97 19.5q-53 0-98-19.5t-77.5-53-51-79.5-18.5-99 18.5-99 51-79.5 77.5-53 98-19.5zM572.965 913h-129.992l-74.9951-145h86.9951z" glyph-name="Oacute" horiz-adv-x="812" unicode="&#xd3;"/><glyph d="M406-8q-76 0-142 28t-115 77-77.5 115-28.5 143q0 76 28.5 142.5t77.5 115.5 115 77 142 28q75 0 141.5-28t115.5-77 77.5-115.5 28.5-142.5q0-77-28.5-143t-77.5-115-115.5-77-141.5-28zM406 104q52 0 97 19.5t77.5 53 51 79.5 18.5 99-18.5 99-51 79.5-77.5 53-97 19.5q-53 0-98-19.5t-77.5-53-51-79.5-18.5-99 18.5-99 51-79.5 77.5-53 98-19.5zM232 837l174 91 174-91-37-74-137 74-137-74z" glyph-name="Ocircumflex" horiz-adv-x="812" unicode="&#xd4;"/><glyph d="M406-8q-76 0-142 28t-115 77-77.5 115-28.5 143q0 76 28.5 142.5t77.5 115.5 115 77 142 28q75 0 141.5-28t115.5-77 77.5-115.5 28.5-142.5q0-77-28.5-143t-77.5-115-115.5-77-141.5-28zM406 104q52 0 97 19.5t77.5 53 51 79.5 18.5 99-18.5 99-51 79.5-77.5 53-97 19.5q-53 0-98-19.5t-77.5-53-51-79.5-18.5-99 18.5-99 51-79.5 77.5-53 98-19.5zM229 803q8 49 40 75.5t68 26.5q21 0 39-6.5t33.5-14.5 28.5-14.5 25-6.5q20 0 30.5 10t15.5 33h77l-3-22q-8-48-39.5-75t-69.5-27q-21 0-39 6.5t-33.5 14.5-29 14.5-25.5 6.5q-19 0-29-10t-16-33h-77z" glyph-name="Otilde" horiz-adv-x="812" unicode="&#xd5;"/><glyph d="M406-8q-76 0-142 28t-115 77-77.5 115-28.5 143q0 76 28.5 142.5t77.5 115.5 115 77 142 28q75 0 141.5-28t115.5-77 77.5-115.5 28.5-142.5q0-77-28.5-143t-77.5-115-115.5-77-141.5-28zM406 104q52 0 97 19.5t77.5 53 51 79.5 18.5 99-18.5 99-51 79.5-77.5 53-97 19.5q-53 0-98-19.5t-77.5-53-51-79.5-18.5-99 18.5-99 51-79.5 77.5-53 98-19.5zM522 779q-28 0-48 19t-20 48 20 48 48 19q27 0 47-19t20-48-20-48-47-19zM292 779q-28 0-48 19t-20 48 20 48 48 19q27 0 47-19t20-48-20-48-47-19z" glyph-name="Odieresis" horiz-adv-x="812" unicode="&#xd6;"/><glyph d="M94 125l141 140-142 141 61 61 141-141 141 140 61-61-140-140 141-142-60-60-142 141-140-140z" glyph-name="multiply" horiz-adv-x="590" unicode="&#xd7;"/><glyph d="M60-11l89 109q-49 48-77 114t-28 143q0 76 28.5 142.5t77.5 115.5 115 77 142 28q75 0 141-28 31-13 58-31l90 110 58-46-90-110q49-49 77.5-115.5t28.5-142.5q0-77-28.5-143t-77.5-115-115.5-77-141.5-28q-76 0-142 28-32 13-60 31l-88-108zM407 104q52 0 97 19.5t77.5 53 51 79.5 18.5 99-19 99q-16 39-41 69l-314-384q15-9 32-16 45-19 98-19zM504 586q-45 20-97 20-53 0-98-19.5t-77.5-53-51-79.5-18.5-99 18-99q16-39 41-69l313 384q-14 8-30 15z" glyph-name="Oslash" horiz-adv-x="813" unicode="&#xd8;"/><glyph d="M366-8q-63 0-115.5 20t-90.5 56.5-59 89.5-21 119v433h116v-437q0-82 47-125.5t123-43.5q75 0 122 43.5t47 125.5v437h117v-434q0-66-21-118.5t-59-89-90.5-56.5-115.5-20zM200 913h130l75-145h-87z" glyph-name="Ugrave" horiz-adv-x="732" unicode="&#xd9;"/><glyph d="M366-8q-63 0-115.5 20t-90.5 56.5-59 89.5-21 119v433h116v-437q0-82 47-125.5t123-43.5q75 0 122 43.5t47 125.5v437h117v-434q0-66-21-118.5t-59-89-90.5-56.5-115.5-20zM530.968 913h-129.992l-74.9951-145h86.9941z" glyph-name="Uacute" horiz-adv-x="732" unicode="&#xda;"/><glyph d="M366-8q-63 0-115.5 20t-90.5 56.5-59 89.5-21 119v433h116v-437q0-82 47-125.5t123-43.5q75 0 122 43.5t47 125.5v437h117v-434q0-66-21-118.5t-59-89-90.5-56.5-115.5-20zM190 837l174 91 174-91-37-74-137 74-137-74z" glyph-name="Ucircumflex" horiz-adv-x="732" unicode="&#xdb;"/><glyph d="M366-8q-63 0-115.5 20t-90.5 56.5-59 89.5-21 119v433h116v-437q0-82 47-125.5t123-43.5q75 0 122 43.5t47 125.5v437h117v-434q0-66-21-118.5t-59-89-90.5-56.5-115.5-20zM480 780q-28 0-48 19t-20 48 20 48 48 19q27 0 47-19t20-48-20-48-47-19zM250 780q-28 0-48 19t-20 48 20 48 48 19q27 0 47-19t20-48-20-48-47-19z" glyph-name="Udieresis" horiz-adv-x="732" unicode="&#xdc;"/><glyph d="M266 300l-261 410h136l183-294 184 294h136l-261-410v-300h-117v300zM491.97 913h-129.992l-74.9951-145h86.9951z" glyph-name="Yacute" horiz-adv-x="649" unicode="&#xdd;"/><glyph d="M88 710h116v-128h92q55 0 101-17t79-47 51-71.5 18-90.5q0-50-18-91.5t-51-71.5-79-46.5-101-16.5h-92v-130h-116v710zM204 473v-235h91q64 0 99.5 32.5t35.5 85.5-35.5 85-99.5 32h-91z" glyph-name="Thorn" horiz-adv-x="582" unicode="&#xde;"/><glyph d="M409 60q0 61-43 99t-113 38v85l75 120h-148v-402h-110v562q0 72 40 110t112 38h62v-100h-36q-37 0-52.5-18.5t-15.5-53.5v-38h322l-137-222q78-28 116-87.5t38-130.5q0-52-20-96.5t-55-77.5-84-51.5-107-18.5v108q35 0 63.5 10t49 28 32 43 11.5 55z" glyph-name="germandbls" horiz-adv-x="558" unicode="&#xdf;"/><glyph d="M430 42q-28-25-64-37.5t-77-12.5q-55 0-101 20.5t-79 55.5-51.5 82-18.5 100 18.5 100 51.5 82 79 55.5 101 20.5q41 0 77-13t64-38v43h110v-500h-110v42zM300 94q45 0 77.5 18.5t52.5 47.5v179q-20 30-52.5 48.5t-77.5 18.5q-33 0-60.5-12t-47-33-30.5-49.5-11-61.5 11-61.5 30.5-49.5 47-33 60.5-12zM147 710h132l85-160h-85z" glyph-name="agrave" horiz-adv-x="610" unicode="&#xe0;"/><glyph d="M430 42q-28-25-64-37.5t-77-12.5q-55 0-101 20.5t-79 55.5-51.5 82-18.5 100 18.5 100 51.5 82 79 55.5 101 20.5q41 0 77-13t64-38v43h110v-500h-110v42zM300 94q45 0 77.5 18.5t52.5 47.5v179q-20 30-52.5 48.5t-77.5 18.5q-33 0-60.5-12t-47-33-30.5-49.5-11-61.5 11-61.5 30.5-49.5 47-33 60.5-12zM482.971 710h-131.992l-84.9951-160h84.9951z" glyph-name="aacute" horiz-adv-x="610" unicode="&#xe1;"/><glyph d="M430 42q-28-25-64-37.5t-77-12.5q-55 0-101 20.5t-79 55.5-51.5 82-18.5 100 18.5 100 51.5 82 79 55.5 101 20.5q41 0 77-13t64-38v43h110v-500h-110v42zM300 94q45 0 77.5 18.5t52.5 47.5v179q-20 30-52.5 48.5t-77.5 18.5q-33 0-60.5-12t-47-33-30.5-49.5-11-61.5 11-61.5 30.5-49.5 47-33 60.5-12zM475 619l-41-68-123 75-123-75-41 68 164 103z" glyph-name="acircumflex" horiz-adv-x="610" unicode="&#xe2;"/><glyph d="M430 42q-28-25-64-37.5t-77-12.5q-55 0-101 20.5t-79 55.5-51.5 82-18.5 100 18.5 100 51.5 82 79 55.5 101 20.5q41 0 77-13t64-38v43h110v-500h-110v42zM300 94q45 0 77.5 18.5t52.5 47.5v179q-20 30-52.5 48.5t-77.5 18.5q-33 0-60.5-12t-47-33-30.5-49.5-11-61.5 11-61.5 30.5-49.5 47-33 60.5-12zM135 584q8 49 40 75.5t68 26.5q21 0 39-6.5t33.5-14.5 28.5-14.5 25-6.5q20 0 30.5 10t15.5 33h77l-3-22q-8-48-39.5-75t-69.5-27q-21 0-39 6.5t-33.5 14.5-29 14.5-25.5 6.5q-19 0-29-10t-16-33h-77z" glyph-name="atilde" horiz-adv-x="610" unicode="&#xe3;"/><glyph d="M430 42q-28-25-64-37.5t-77-12.5q-55 0-101 20.5t-79 55.5-51.5 82-18.5 100 18.5 100 51.5 82 79 55.5 101 20.5q41 0 77-13t64-38v43h110v-500h-110v42zM300 94q45 0 77.5 18.5t52.5 47.5v179q-20 30-52.5 48.5t-77.5 18.5q-33 0-60.5-12t-47-33-30.5-49.5-11-61.5 11-61.5 30.5-49.5 47-33 60.5-12zM427 570q-28 0-48 19t-20 48 20 48 48 19q27 0 47-19t20-48-20-48-47-19zM197 570q-28 0-48 19t-20 48 20 48 48 19q27 0 47-19t20-48-20-48-47-19z" glyph-name="adieresis" horiz-adv-x="610" unicode="&#xe4;"/><glyph d="M430 42q-28-25-64-37.5t-77-12.5q-55 0-101 20.5t-79 55.5-51.5 82-18.5 100 18.5 100 51.5 82 79 55.5 101 20.5q41 0 77-13t64-38v43h110v-500h-110v42zM300 94q45 0 77.5 18.5t52.5 47.5v179q-20 30-52.5 48.5t-77.5 18.5q-33 0-60.5-12t-47-33-30.5-49.5-11-61.5 11-61.5 30.5-49.5 47-33 60.5-12zM311 559q-22 0-41.5 8t-34 22-23 32.5-8.5 40.5 8.5 41 23 33 34 22 41.5 8 41.5-8 34-22 23-33 8.5-41-8.5-40.5-23-32.5-34-22-41.5-8zM311 615q20 0 34 13.5t14 33.5q0 21-14 34.5t-34 13.5-34-13.5-14-34.5q0-20 14-33.5t34-13.5z" glyph-name="aring" horiz-adv-x="610" unicode="&#xe5;"/><glyph d="M838 87q-33-42-87-68.5t-123-26.5q-53 0-103 20.5t-91 66.5q-45-48-95.5-67.5t-107.5-19.5q-44 0-81 11t-63 32-40.5 51.5-14.5 70.5q0 36 15 65.5t41.5 50 63 32 80.5 11.5 78.5-9 60.5-23v18q0 30-11 50t-29 32-41 17-48 5q-41 0-76.5-12.5t-59.5-31.5l-34 97q34 21 77.5 35t94.5 14q27 0 53.5-4t51-14 46.5-26.5 39-41.5q38 44 88 65t103 21q54 0 99.5-19t78-55 50-88.5 14.5-118.5h-387q4-33 18.5-58t35-41.5 45-25 49.5-8.5q45 0 78 17.5t53 43.5zM619 414q-18 0-39-6t-39.5-18.5-34-33-22.5-49.5h268q-8 54-45.5 80.5t-87.5 26.5zM238 90q47 0 81.5 17t51.5 44v46q-23 17-54 26t-73 9-72-17.5-30-55.5q0-19 8-32t21.5-21.5 31-12 35.5-3.5z" glyph-name="ae" horiz-adv-x="902" unicode="&#xe6;"/><glyph d="M296-8q-55 0-102 20t-81.5 55-54.5 82-20 101 20 101 54.5 82 81.5 55 102 20q66 0 117-26t85-67l-79-70q-21 26-51.5 43t-71.5 17q-32 0-58.5-12t-46-32.5-30.5-49-11-61.5 11-61.5 30.5-49 46-32.5 58.5-12q41 0 71.5 17t51.5 43l79-70q-34-41-85-67t-117-26zM260 0h75l-52-165h-108z" glyph-name="ccedilla" horiz-adv-x="523" unicode="&#xe7;"/><glyph d="M295-8q-53 0-100 19.5t-81.5 54-54.5 81.5-20 103q0 55 19.5 102t53.5 81.5 80.5 54.5 100.5 20q56 0 102-20.5t78-57 48.5-88.5 13.5-115h-386q3-32 16.5-56.5t33.5-41.5 45-26 51-9q45 0 78 17.5t54 43.5l79-68q-33-42-87.5-68.5t-123.5-26.5zM286 414q-20 0-40.5-6t-39-18.5-33-33-20.5-49.5h266q-8 54-45.5 80.5t-87.5 26.5zM130 710h132l85-160h-85z" glyph-name="egrave" horiz-adv-x="570" unicode="&#xe8;"/><glyph d="M295-8q-53 0-100 19.5t-81.5 54-54.5 81.5-20 103q0 55 19.5 102t53.5 81.5 80.5 54.5 100.5 20q56 0 102-20.5t78-57 48.5-88.5 13.5-115h-386q3-32 16.5-56.5t33.5-41.5 45-26 51-9q45 0 78 17.5t54 43.5l79-68q-33-42-87.5-68.5t-123.5-26.5zM286 414q-20 0-40.5-6t-39-18.5-33-33-20.5-49.5h266q-8 54-45.5 80.5t-87.5 26.5zM464.972 710h-131.992l-84.9951-160h84.9951z" glyph-name="eacute" horiz-adv-x="570" unicode="&#xe9;"/><glyph d="M295-8q-53 0-100 19.5t-81.5 54-54.5 81.5-20 103q0 55 19.5 102t53.5 81.5 80.5 54.5 100.5 20q56 0 102-20.5t78-57 48.5-88.5 13.5-115h-386q3-32 16.5-56.5t33.5-41.5 45-26 51-9q45 0 78 17.5t54 43.5l79-68q-33-42-87.5-68.5t-123.5-26.5zM286 414q-20 0-40.5-6t-39-18.5-33-33-20.5-49.5h266q-8 54-45.5 80.5t-87.5 26.5zM458 619l-41-68-123 75-123-75-41 68 164 103z" glyph-name="ecircumflex" horiz-adv-x="570" unicode="&#xea;"/><glyph d="M295-8q-53 0-100 19.5t-81.5 54-54.5 81.5-20 103q0 55 19.5 102t53.5 81.5 80.5 54.5 100.5 20q56 0 102-20.5t78-57 48.5-88.5 13.5-115h-386q3-32 16.5-56.5t33.5-41.5 45-26 51-9q45 0 78 17.5t54 43.5l79-68q-33-42-87.5-68.5t-123.5-26.5zM286 414q-20 0-40.5-6t-39-18.5-33-33-20.5-49.5h266q-8 54-45.5 80.5t-87.5 26.5zM410 570q-28 0-48 19t-20 48 20 48 48 19q27 0 47-19t20-48-20-48-47-19zM180 570q-28 0-48 19t-20 48 20 48 48 19q27 0 47-19t20-48-20-48-47-19z" glyph-name="edieresis" horiz-adv-x="570" unicode="&#xeb;"/><glyph d="M70 500h110v-500h-110v500zM-38 710h132l85-160h-85z" glyph-name="igrave" horiz-adv-x="250" unicode="&#xec;"/><glyph d="M70 500h110v-500h-110v500zM296.981 710h-131.991l-84.9951-160h84.9951z" glyph-name="iacute" horiz-adv-x="250" unicode="&#xed;"/><glyph d="M70 500h110v-500h-110v500zM290 619l-41-68-123 75-123-75-41 68 164 103z" glyph-name="icircumflex" horiz-adv-x="250" unicode="&#xee;"/><glyph d="M70 500h110v-500h-110v500zM28 570q-28 0-48 19t-20 48q0 27 19.5 47t48.5 20q28 0 47.5-20t19.5-47q0-29-20-48t-47-19zM225 570q-27 0-47.5 19t-20.5 48q0 27 19.5 47t48.5 20q28 0 47.5-20t19.5-47q0-29-20-48t-47-19z" glyph-name="idieresis" horiz-adv-x="250" unicode="&#xef;"/><glyph d="M151 634h80l-51 76h121l51-76h120v-65h-76l110-163q27-41 39.5-78.5t12.5-77.5q0-53-20-100t-55-82-82.5-55.5-102.5-20.5q-56 0-103.5 20.5t-82 55.5-54.5 82-20 100q0 49 17.5 94t49 79.5 74.5 56.5 93 26q11 1 21.5.5t24.5-2.5l-44 65h-123v65zM298 94q33 0 60 12t46.5 33 30.5 49.5 11 61.5-11 61.5-30.5 49.5-46.5 33-60 12-60.5-12-47-33-30.5-49.5-11-61.5 11-61.5 30.5-49.5 47-33 60.5-12z" glyph-name="eth" horiz-adv-x="596" unicode="&#xf0;"/><glyph d="M70 500h110v-47q26 29 63.5 42t77.5 13q46 0 83.5-15.5t63.5-43 40.5-67 14.5-87.5v-295h-110v282q0 54-29 89t-85 35q-42 0-72.5-21.5t-46.5-60.5v-324h-110v500zM134 584q8 49 40 75.5t68 26.5q21 0 39-6.5t33.5-14.5 28.5-14.5 25-6.5q20 0 30.5 10t15.5 33h77l-3-22q-8-48-39.5-75t-69.5-27q-21 0-39 6.5t-33.5 14.5-29 14.5-25.5 6.5q-19 0-29-10t-16-33h-77z" glyph-name="ntilde" horiz-adv-x="587" unicode="&#xf1;"/><glyph d="M298-8q-56 0-103.5 20t-82 55-54.5 82-20 101 20 101 54.5 82 82 55 103.5 20q55 0 103-20t82.5-55 54.5-82 20-101-20-101-54.5-82-82.5-55-103-20zM298 95q33 0 60 12t46.5 32.5 30 49 10.5 61.5-10.5 61.5-30 49-46.5 32.5-60 12-60-12-46.5-32.5-30.5-49-11-61.5 11-61.5 30.5-49 46.5-32.5 60-12zM135 710h132l85-160h-85z" glyph-name="ograve" horiz-adv-x="596" unicode="&#xf2;"/><glyph d="M298-8q-56 0-103.5 20t-82 55-54.5 82-20 101 20 101 54.5 82 82 55 103.5 20q55 0 103-20t82.5-55 54.5-82 20-101-20-101-54.5-82-82.5-55-103-20zM298 95q33 0 60 12t46.5 32.5 30 49 10.5 61.5-10.5 61.5-30 49-46.5 32.5-60 12-60-12-46.5-32.5-30.5-49-11-61.5 11-61.5 30.5-49 46.5-32.5 60-12zM469.972 710h-131.992l-84.9951-160h84.9951z" glyph-name="oacute" horiz-adv-x="596" unicode="&#xf3;"/><glyph d="M298-8q-56 0-103.5 20t-82 55-54.5 82-20 101 20 101 54.5 82 82 55 103.5 20q55 0 103-20t82.5-55 54.5-82 20-101-20-101-54.5-82-82.5-55-103-20zM298 95q33 0 60 12t46.5 32.5 30 49 10.5 61.5-10.5 61.5-30 49-46.5 32.5-60 12-60-12-46.5-32.5-30.5-49-11-61.5 11-61.5 30.5-49 46.5-32.5 60-12zM462 619l-41-68-123 75-123-75-41 68 164 103z" glyph-name="ocircumflex" horiz-adv-x="596" unicode="&#xf4;"/><glyph d="M298-8q-56 0-103.5 20t-82 55-54.5 82-20 101 20 101 54.5 82 82 55 103.5 20q55 0 103-20t82.5-55 54.5-82 20-101-20-101-54.5-82-82.5-55-103-20zM298 95q33 0 60 12t46.5 32.5 30 49 10.5 61.5-10.5 61.5-30 49-46.5 32.5-60 12-60-12-46.5-32.5-30.5-49-11-61.5 11-61.5 30.5-49 46.5-32.5 60-12zM122 584q8 49 40 75.5t68 26.5q21 0 39-6.5t33.5-14.5 28.5-14.5 25-6.5q20 0 30.5 10t15.5 33h77l-3-22q-8-48-39.5-75t-69.5-27q-21 0-39 6.5t-33.5 14.5-29 14.5-25.5 6.5q-19 0-29-10t-16-33h-77z" glyph-name="otilde" horiz-adv-x="596" unicode="&#xf5;"/><glyph d="M298-8q-56 0-103.5 20t-82 55-54.5 82-20 101 20 101 54.5 82 82 55 103.5 20q55 0 103-20t82.5-55 54.5-82 20-101-20-101-54.5-82-82.5-55-103-20zM298 95q33 0 60 12t46.5 32.5 30 49 10.5 61.5-10.5 61.5-30 49-46.5 32.5-60 12-60-12-46.5-32.5-30.5-49-11-61.5 11-61.5 30.5-49 46.5-32.5 60-12zM414 570q-28 0-48 19t-20 48 20 48 48 19q27 0 47-19t20-48-20-48-47-19zM184 570q-28 0-48 19t-20 48 20 48 48 19q27 0 47-19t20-48-20-48-47-19z" glyph-name="odieresis" horiz-adv-x="596" unicode="&#xf6;"/><glyph d="M296 356q-29 0-50.5 20t-21.5 52q0 29 21 50t51 21 50.5-21 20.5-50q0-32-21-52t-50-20zM77 321h437v-87h-437v87zM296 56q-29 0-50.5 20t-21.5 52q0 29 21 50t51 21 50.5-21 20.5-50q0-32-21-52t-50-20z" glyph-name="divide" horiz-adv-x="590" unicode="&#xf7;"/><glyph d="M35-13l72 87q-29 32-47 75-20 47-20 101t20 101 54.5 82 82 55 103.5 20q55 0 103-20 18-8 34-18l74 89 54-45-73-88q30-33 48-75 20-47 20-101t-20-101-54.5-82-82.5-55-103-20q-56 0-104 20-18 8-35 17l-72-87zM300 95q33 0 60 12t46.5 32.5 30 49 10.5 61.5-11 61q-6 17-15 30l-191-229 10-5q27-12 60-12zM360 393q-27 12-60 12t-60-12-46.5-32.5-30.5-49-11-61.5 11-62q6-16 15-30l191 230q-4 3-9 5z" glyph-name="oslash" horiz-adv-x="600" unicode="&#xf8;"/><glyph d="M405 49q-27-31-64.5-44t-76.5-13q-45 0-82 15t-63.5 43-40.5 67.5-14 87.5v295h110v-282q0-54 28.5-89t82.5-35q43 0 74 21.5t46 60.5v324h110v-500h-110v49zM126 710h132l85-160h-85z" glyph-name="ugrave" horiz-adv-x="585" unicode="&#xf9;"/><glyph d="M405 49q-27-31-64.5-44t-76.5-13q-45 0-82 15t-63.5 43-40.5 67.5-14 87.5v295h110v-282q0-54 28.5-89t82.5-35q43 0 74 21.5t46 60.5v324h110v-500h-110v49zM460.972 710h-131.992l-84.9941-160h84.9941z" glyph-name="uacute" horiz-adv-x="585" unicode="&#xfa;"/><glyph d="M405 49q-27-31-64.5-44t-76.5-13q-45 0-82 15t-63.5 43-40.5 67.5-14 87.5v295h110v-282q0-54 28.5-89t82.5-35q43 0 74 21.5t46 60.5v324h110v-500h-110v49zM453 619l-41-68-123 75-123-75-41 68 164 103z" glyph-name="ucircumflex" horiz-adv-x="585" unicode="&#xfb;"/><glyph d="M405 49q-27-31-64.5-44t-76.5-13q-45 0-82 15t-63.5 43-40.5 67.5-14 87.5v295h110v-282q0-54 28.5-89t82.5-35q43 0 74 21.5t46 60.5v324h110v-500h-110v49zM405 570q-28 0-48 19t-20 48 20 48 48 19q27 0 47-19t20-48-20-48-47-19zM175 570q-28 0-48 19t-20 48 20 48 48 19q27 0 47-19t20-48-20-48-47-19z" glyph-name="udieresis" horiz-adv-x="585" unicode="&#xfc;"/><glyph d="M201 27l-197 473h118l137-347 137 347h118l-287-684h-117zM431.974 710h-131.992l-84.9941-160h84.9941z" glyph-name="yacute" horiz-adv-x="515" unicode="&#xfd;"/><glyph d="M70-184v894h110v-253q28 25 64 38t77 13q55 0 101-20.5t79-55.5 51.5-82 18.5-100-18.5-100-51.5-82-79-55.5-101-20.5q-41 0-77 12.5t-64 37.5v-226h-110zM311 406q-45 0-78.5-18.5t-52.5-48.5v-179q19-29 52.5-47.5t78.5-18.5q33 0 60 12t46.5 33 30.5 49.5 11 61.5-11 61.5-30.5 49.5-46.5 33-60 12z" glyph-name="thorn" horiz-adv-x="610" unicode="&#xfe;"/><glyph d="M201 27l-197 473h118l137-347 137 347h118l-287-684h-117zM376 570q-28 0-48 19t-20 48 20 48 48 19q27 0 47-19t20-48-20-48-47-19zM146 570q-28 0-48 19t-20 48 20 48 48 19q27 0 47-19t20-48-20-48-47-19z" glyph-name="ydieresis" horiz-adv-x="515" unicode="&#xff;"/><glyph d="M337 718l348-718h-124l-75 158h-298l-74-158h-124zM438 259l-101 214-101-214h202zM336 770q-36 0-66 12t-52 33-34.5 49-13.5 60h76q2-35 25.5-60.5t65.5-25.5 66 25.5 26 60.5h76q-2-32-14.5-60t-34.5-49-52.5-33-67.5-12z" glyph-name="Abreve" horiz-adv-x="674" unicode="&#x102;"/><glyph d="M337 718l348-718h-124l-75 158h-298l-74-158h-124zM438 259l-101 214-101-214h202zM184 881h306v-81h-306v81z" glyph-name="Amacron" horiz-adv-x="674" unicode="&#x100;"/><glyph d="M337 718l348-718q-77-34-77-75 0-17 12-27t32-10q10 0 19.5 3.5t14.5 5.5v-69q-31-19-73-19-45 0-78 24t-33 68q0 33 19 59t40 40l-75 158h-298l-74-158h-124zM438 259l-101 214-101-214h202z" glyph-name="Aogonek" horiz-adv-x="674" unicode="&#x104;"/><glyph d="M406-8q-76 0-142 28t-115 77-77.5 115-28.5 143q0 76 28.5 142.5t77.5 115.5 115 77 142 28q46 0 88.5-11t79.5-30 67.5-45 52.5-56l-85-73q-32 47-84.5 75t-118.5 28q-53 0-98-19.5t-77.5-53-51-79.5-18.5-99 18.5-99 51-79.5 77.5-53 98-19.5q66 0 118.5 28t84.5 75l85-73q-22-30-52.5-56t-67.5-45-79.5-30-88.5-11zM571.965 913h-129.992l-74.9951-145h86.9951z" glyph-name="Cacute" horiz-adv-x="719" unicode="&#x106;"/><glyph d="M406-8q-76 0-142 28t-115 77-77.5 115-28.5 143q0 76 28.5 142.5t77.5 115.5 115 77 142 28q46 0 88.5-11t79.5-30 67.5-45 52.5-56l-85-73q-32 47-84.5 75t-118.5 28q-53 0-98-19.5t-77.5-53-51-79.5-18.5-99 18.5-99 51-79.5 77.5-53 98-19.5q66 0 118.5 28t84.5 75l85-73q-22-30-52.5-56t-67.5-45-79.5-30-88.5-11zM579.965 853.948l-173.989-90.9951-173.989 90.9951 36.9971 73.9951 136.992-73.9951 136.991 73.9951z" glyph-name="Ccaron" horiz-adv-x="719" unicode="&#x10c;"/><glyph d="M406-8q-76 0-142 28t-115 77-77.5 115-28.5 143q0 76 28.5 142.5t77.5 115.5 115 77 142 28q46 0 88.5-11t79.5-30 67.5-45 52.5-56l-85-73q-32 47-84.5 75t-118.5 28q-53 0-98-19.5t-77.5-53-51-79.5-18.5-99 18.5-99 51-79.5 77.5-53 98-19.5q66 0 118.5 28t84.5 75l85-73q-22-30-52.5-56t-67.5-45-79.5-30-88.5-11zM232 837l174 91 174-91-37-74-137 74-137-74z" glyph-name="Ccircumflex" horiz-adv-x="719" unicode="&#x108;"/><glyph d="M406-8q-76 0-142 28t-115 77-77.5 115-28.5 143q0 76 28.5 142.5t77.5 115.5 115 77 142 28q46 0 88.5-11t79.5-30 67.5-45 52.5-56l-85-73q-32 47-84.5 75t-118.5 28q-53 0-98-19.5t-77.5-53-51-79.5-18.5-99 18.5-99 51-79.5 77.5-53 98-19.5q66 0 118.5 28t84.5 75l85-73q-22-30-52.5-56t-67.5-45-79.5-30-88.5-11zM406 780q-27 0-47.5 18.5t-20.5 48.5q0 28 19.5 47.5t48.5 19.5q28 0 47-19.5t19-47.5q0-29-19.5-48t-46.5-19z" glyph-name="Cdotaccent" horiz-adv-x="719" unicode="&#x10a;"/><glyph d="M88 710h225q79 0 147.5-27.5t118-75 78-112.5 28.5-140-28.5-140-78-112.5-118-75-147.5-27.5h-225v710zM313 108q57 0 104 19t80 52 51.5 78 18.5 98q0 52-18.5 97.5t-51.5 78.5-80 52-104 19h-109v-494h109zM508.969 853.948l-173.989-90.9951-173.989 90.9951 36.998 73.9951 136.991-73.9951 136.991 73.9951z" glyph-name="Dcaron" horiz-adv-x="728" unicode="&#x10e;"/><glyph d="M121 710h225q79 0 147.5-27.5t118-75 78-112.5 28.5-140-28.5-140-78-112.5-118-75-147.5-27.5h-225v710zM346 108q57 0 104 19t80 52 51.5 78 18.5 98q0 52-18.5 97.5t-51.5 78.5-80 52-104 19h-109v-494h109zM12 393h335v-74h-335v74z" glyph-name="Dcroat" horiz-adv-x="761" unicode="&#x110;"/><glyph d="M88 710h421v-114h-305v-180h245v-112h-245v-190h305v-114h-421v710zM302 770q-36 0-66 12t-52 33-34.5 49-13.5 60h76q2-35 25.5-60.5t65.5-25.5 66 25.5 26 60.5h76q-2-32-14.5-60t-34.5-49-52.5-33-67.5-12z" glyph-name="Ebreve" horiz-adv-x="559" unicode="&#x114;"/><glyph d="M88 710h421v-114h-305v-180h245v-112h-245v-190h305v-114h-421v710zM476.971 853.948l-173.989-90.9951-173.989 90.9951 36.998 73.9951 136.991-73.9951 136.991 73.9951z" glyph-name="Ecaron" horiz-adv-x="559" unicode="&#x11a;"/><glyph d="M88 710h421v-114h-305v-180h245v-112h-245v-190h305v-114h-421v710zM150 881h306v-81h-306v81z" glyph-name="Emacron" horiz-adv-x="559" unicode="&#x112;"/><glyph d="M88 710h421v-114h-305v-180h245v-112h-245v-190h305v-114h-421v710zM437-191q-45 0-78 24t-33 68q0 33 21 59.5t46 39.5h116q-76-33-76-75 0-37 43-37 11 0 20 3.5t14 5.5v-69q-31-19-73-19z" glyph-name="Eogonek" horiz-adv-x="559" unicode="&#x118;"/><glyph d="M88 710h421v-114h-305v-180h245v-112h-245v-190h305v-114h-421v710zM303 780q-27 0-47.5 18.5t-20.5 48.5q0 28 19.5 47.5t48.5 19.5q28 0 47-19.5t19-47.5q0-29-19.5-48t-46.5-19z" glyph-name="Edotaccent" horiz-adv-x="559" unicode="&#x116;"/><glyph d="M406-8q-76 0-142 28t-115 77-77.5 115-28.5 143q0 76 28.5 142.5t77.5 115.5 115 77 142 28q86 0 157.5-33.5t117.5-88.5l-86-73q-35 40-81 61.5t-108 21.5q-53 0-98-19.5t-77.5-53-51-79.5-18.5-99 18.5-99 51-79.5 77.5-53 98-19.5q54 0 95.5 13t68.5 33v155h-200l49 110h266v-318q-40-46-114-75.5t-165-29.5zM400 770q-36 0-66 12t-52 33-34.5 49-13.5 60h76q2-35 25.5-60.5t65.5-25.5 66 25.5 26 60.5h76q-2-32-14.5-60t-34.5-49-52.5-33-67.5-12z" glyph-name="Gbreve" horiz-adv-x="743" unicode="&#x11e;"/><glyph d="M406-8q-76 0-142 28t-115 77-77.5 115-28.5 143q0 76 28.5 142.5t77.5 115.5 115 77 142 28q86 0 157.5-33.5t117.5-88.5l-86-73q-35 40-81 61.5t-108 21.5q-53 0-98-19.5t-77.5-53-51-79.5-18.5-99 18.5-99 51-79.5 77.5-53 98-19.5q54 0 95.5 13t68.5 33v155h-200l49 110h266v-318q-40-46-114-75.5t-165-29.5zM227 837l174 91 174-91-37-74-137 74-137-74z" glyph-name="Gcircumflex" horiz-adv-x="743" unicode="&#x11c;"/><glyph d="M406-8q-76 0-142 28t-115 77-77.5 115-28.5 143q0 76 28.5 142.5t77.5 115.5 115 77 142 28q86 0 157.5-33.5t117.5-88.5l-86-73q-35 40-81 61.5t-108 21.5q-53 0-98-19.5t-77.5-53-51-79.5-18.5-99 18.5-99 51-79.5 77.5-53 98-19.5q54 0 95.5 13t68.5 33v155h-200l49 110h266v-318q-40-46-114-75.5t-165-29.5zM344-50h114l-94-165h-73z" glyph-name="uni0122" horiz-adv-x="743" unicode="&#x122;"/><glyph d="M406-8q-76 0-142 28t-115 77-77.5 115-28.5 143q0 76 28.5 142.5t77.5 115.5 115 77 142 28q86 0 157.5-33.5t117.5-88.5l-86-73q-35 40-81 61.5t-108 21.5q-53 0-98-19.5t-77.5-53-51-79.5-18.5-99 18.5-99 51-79.5 77.5-53 98-19.5q54 0 95.5 13t68.5 33v155h-200l49 110h266v-318q-40-46-114-75.5t-165-29.5zM401 780q-27 0-47.5 18.5t-20.5 48.5q0 28 19.5 47.5t48.5 19.5q28 0 47-19.5t19-47.5q0-29-19.5-48t-46.5-19z" glyph-name="Gdotaccent" horiz-adv-x="743" unicode="&#x120;"/><glyph d="M93 710h116v-294h353v294h116v-710h-116v304h-353v-304h-116v710zM28 600h714v-74h-714v74z" glyph-name="Hbar" horiz-adv-x="770" unicode="&#x126;"/><glyph d="M88 710h116v-294h353v294h116v-710h-116v304h-353v-304h-116v710zM207 837l174 91 174-91-37-74-137 74-137-74z" glyph-name="Hcircumflex" horiz-adv-x="761" unicode="&#x124;"/><glyph d="M88 710h116v-710h-116v710zM145 770q-36 0-66 12t-52 33-34.5 49-13.5 60h76q2-35 25.5-60.5t65.5-25.5 66 25.5 26 60.5h76q-2-32-14.5-60t-34.5-49-52.5-33-67.5-12z" glyph-name="Ibreve" horiz-adv-x="292" unicode="&#x12c;"/><glyph d="M88 710h116v-710h-116v710zM146 780q-27 0-47.5 18.5t-20.5 48.5q0 28 19.5 47.5t48.5 19.5q28 0 47-19.5t19-47.5q0-29-19.5-48t-46.5-19z" glyph-name="Idotaccent" horiz-adv-x="292" unicode="&#x130;"/><glyph d="M88 710h116v-710h-116v710zM-7 881h306v-81h-306v81z" glyph-name="Imacron" horiz-adv-x="292" unicode="&#x12a;"/><glyph d="M88 710h116v-710h-116v710zM132-191q-45 0-78 24t-33 68q0 33 21 59.5t46 39.5h116q-76-33-76-75 0-37 43-37 11 0 20 3.5t14 5.5v-69q-31-19-73-19z" glyph-name="Iogonek" horiz-adv-x="292" unicode="&#x12e;"/><glyph d="M88 710h116v-710h-116v710zM-31 804q8 49 40 75.5t68 26.5q21 0 39-6.5t33.5-14.5 28.5-14.5 25-6.5q20 0 30.5 10t15.5 33h77l-3-22q-8-48-39.5-75t-69.5-27q-21 0-39 6.5t-33.5 14.5-29 14.5-25.5 6.5q-19 0-29-10t-16-33h-77z" glyph-name="Itilde" horiz-adv-x="292" unicode="&#x128;"/><glyph d="M88 710h116v-710h-116v710zM147-195q-27 0-47.5 18.5t-20.5 48.5q0 28 19.5 47.5t48.5 19.5q28 0 47-19.5t19-47.5q0-29-19.5-48t-46.5-19z" glyph-name="uni1ECA" horiz-adv-x="292" unicode="&#x1eca;"/><glyph d="M231-8q-44 0-82.5 13t-67 39.5-45.5 66-17 92.5h116q0-52 27-76.5t68-24.5q42 0 69 24.5t27 76.5v507h117v-514q0-52-17-90.5t-46-63.5-67.5-37.5-81.5-12.5zM210 837l174 91 174-91-37-74-137 74-137-74z" glyph-name="Jcircumflex" horiz-adv-x="525" unicode="&#x134;"/><glyph d="M88 710h116v-356l296 356h139l-299-360 328-350h-150l-314 335v-335h-116v710zM297-50h114l-94-165h-73z" glyph-name="uni0136" horiz-adv-x="656" unicode="&#x136;"/><glyph d="M88 710h116v-595h299v-115h-415v710zM310.981 913h-129.992l-74.9961-145h86.9951z" glyph-name="Lacute" horiz-adv-x="522" unicode="&#x139;"/><glyph d="M88 710h116v-595h299v-115h-415v710zM295 710h111l-58-163h-76z" glyph-name="Lcaron" horiz-adv-x="523" unicode="&#x13d;"/><glyph d="M88 710h116v-595h299v-115h-415v710zM235-50h114l-94-165h-73z" glyph-name="uni013B" horiz-adv-x="522" unicode="&#x13b;"/><glyph d="M88 710h116v-595h299v-115h-415v710zM400 329q-27 0-47.5 18.5t-20.5 48.5q0 28 19.5 47.5t48.5 19.5q28 0 47-19.5t19-47.5q0-29-19.5-48t-46.5-19z" glyph-name="Ldot" horiz-adv-x="528" unicode="&#x13f;"/><glyph d="M167 710h116v-595h299v-115h-415v710zM10 278l400 248 40-65-400-248z" glyph-name="Lslash" horiz-adv-x="602" unicode="&#x141;"/><glyph d="M204 456v-456h-116v718l485-464v456h116v-718zM538.967 913h-129.992l-74.9951-145h86.9951z" glyph-name="Nacute" horiz-adv-x="777" unicode="&#x143;"/><glyph d="M204 456v-456h-116v718l485-464v456h116v-718zM546.967 853.948l-173.989-90.9951-173.989 90.9951 36.9971 73.9951 136.992-73.9951 136.991 73.9951z" glyph-name="Ncaron" horiz-adv-x="777" unicode="&#x147;"/><glyph d="M204 456v-456h-116v718l485-464v456h116v-718zM371-50h114l-94-165h-73z" glyph-name="uni0145" horiz-adv-x="777" unicode="&#x145;"/><glyph d="M406-8q-76 0-142 28t-115 77-77.5 115-28.5 143q0 76 28.5 142.5t77.5 115.5 115 77 142 28q49 0 94.5-12t85.5-35v39h422v-114h-305v-31q23-33 38.5-70t22.5-79h190v-112h-189q-6-45-22-85t-40-75v-30h305v-114h-422v39q-40-23-85.5-35t-94.5-12zM406 104q52 0 97 19.5t77.5 53 51 79.5 18.5 99-18.5 99-51 79.5-77.5 53-97 19.5q-53 0-98-19.5t-77.5-53-51-79.5-18.5-99 18.5-99 51-79.5 77.5-53 98-19.5z" glyph-name="OE" horiz-adv-x="1058" unicode="&#x152;"/><glyph d="M406-8q-76 0-142 28t-115 77-77.5 115-28.5 143q0 76 28.5 142.5t77.5 115.5 115 77 142 28q75 0 141.5-28t115.5-77 77.5-115.5 28.5-142.5q0-77-28.5-143t-77.5-115-115.5-77-141.5-28zM406 104q52 0 97 19.5t77.5 53 51 79.5 18.5 99-18.5 99-51 79.5-77.5 53-97 19.5q-53 0-98-19.5t-77.5-53-51-79.5-18.5-99 18.5-99 51-79.5 77.5-53 98-19.5zM405 770q-36 0-66 12t-52 33-34.5 49-13.5 60h76q2-35 25.5-60.5t65.5-25.5 66 25.5 26 60.5h76q-2-32-14.5-60t-34.5-49-52.5-33-67.5-12z" glyph-name="Obreve" horiz-adv-x="812" unicode="&#x14e;"/><glyph d="M406-8q-76 0-142 28t-115 77-77.5 115-28.5 143q0 76 28.5 142.5t77.5 115.5 115 77 142 28q75 0 141.5-28t115.5-77 77.5-115.5 28.5-142.5q0-77-28.5-143t-77.5-115-115.5-77-141.5-28zM406 104q52 0 97 19.5t77.5 53 51 79.5 18.5 99-18.5 99-51 79.5-77.5 53-97 19.5q-53 0-98-19.5t-77.5-53-51-79.5-18.5-99 18.5-99 51-79.5 77.5-53 98-19.5zM351 913h121l-114-145h-81zM543 913h120l-113-145h-81z" glyph-name="Ohungarumlaut" horiz-adv-x="812" unicode="&#x150;"/><glyph d="M406-8q-76 0-142 28t-115 77-77.5 115-28.5 143q0 76 28.5 142.5t77.5 115.5 115 77 142 28q75 0 141.5-28t115.5-77 77.5-115.5 28.5-142.5q0-77-28.5-143t-77.5-115-115.5-77-141.5-28zM406 104q52 0 97 19.5t77.5 53 51 79.5 18.5 99-18.5 99-51 79.5-77.5 53-97 19.5q-53 0-98-19.5t-77.5-53-51-79.5-18.5-99 18.5-99 51-79.5 77.5-53 98-19.5zM253 881h306v-81h-306v81z" glyph-name="Omacron" horiz-adv-x="812" unicode="&#x14c;"/><glyph d="M406-8q-76 0-142 28t-115 77-77.5 115-28.5 143q0 76 28.5 142.5t77.5 115.5 115 77 142 28q75 0 141.5-28t115.5-77 77.5-115.5 28.5-142.5q0-77-28.5-143t-77.5-115-115.5-77-141.5-28zM406 104q52 0 97 19.5t77.5 53 51 79.5 18.5 99-18.5 99-51 79.5-77.5 53-97 19.5q-53 0-98-19.5t-77.5-53-51-79.5-18.5-99 18.5-99 51-79.5 77.5-53 98-19.5zM407-195q-27 0-47.5 18.5t-20.5 48.5q0 28 19.5 47.5t48.5 19.5q28 0 47-19.5t19-47.5q0-29-19.5-48t-46.5-19z" glyph-name="uni1ECC" horiz-adv-x="812" unicode="&#x1ecc;"/><glyph d="M88 710h232q49 0 90-15t70-42 45.5-64.5 16.5-82.5q0-32-9.5-63t-29-57.5-49-46-69.5-29.5l240-310h-140l-231 302h-50v-302h-116v710zM310 403q56 0 85.5 27t29.5 72q0 47-29.5 74t-85.5 27h-106v-200h106zM460.972 913h-129.992l-74.9951-145h86.9951z" glyph-name="Racute" horiz-adv-x="629" unicode="&#x154;"/><glyph d="M88 710h232q49 0 90-15t70-42 45.5-64.5 16.5-82.5q0-32-9.5-63t-29-57.5-49-46-69.5-29.5l240-310h-140l-231 302h-50v-302h-116v710zM310 403q56 0 85.5 27t29.5 72q0 47-29.5 74t-85.5 27h-106v-200h106zM474.971 853.948l-173.989-90.9951-173.989 90.9951 36.998 73.9951 136.991-73.9951 136.992 73.9951z" glyph-name="Rcaron" horiz-adv-x="629" unicode="&#x158;"/><glyph d="M88 710h232q49 0 90-15t70-42 45.5-64.5 16.5-82.5q0-32-9.5-63t-29-57.5-49-46-69.5-29.5l240-310h-140l-231 302h-50v-302h-116v710zM310 403q56 0 85.5 27t29.5 72q0 47-29.5 74t-85.5 27h-106v-200h106zM279-50h114l-94-165h-73z" glyph-name="uni0156" horiz-adv-x="629" unicode="&#x156;"/><glyph d="M268-8q-81 0-143.5 33.5t-96.5 87.5l88 74q25-35 64.5-60t85.5-25q52 0 81 22t29 60q0 40-25.5 65t-78.5 48l-56 24q-159 70-159 209 0 43 18 77.5t47 59 67 38 79 13.5q61 0 110-21.5t89-68.5l-81-83q-27 33-54.5 48t-65.5 15q-36 0-64-20t-28-57q0-35 24-59.5t78-47.5l55-24q73-32 117.5-82t44.5-124q0-45-16-82t-45.5-64-71-41.5-92.5-14.5zM435.974 913h-129.992l-74.9951-145h86.9941z" glyph-name="Sacute" horiz-adv-x="529" unicode="&#x15a;"/><glyph d="M268-8q-81 0-143.5 33.5t-96.5 87.5l88 74q25-35 64.5-60t85.5-25q52 0 81 22t29 60q0 40-25.5 65t-78.5 48l-56 24q-159 70-159 209 0 43 18 77.5t47 59 67 38 79 13.5q61 0 110-21.5t89-68.5l-81-83q-27 33-54.5 48t-65.5 15q-36 0-64-20t-28-57q0-35 24-59.5t78-47.5l55-24q73-32 117.5-82t44.5-124q0-45-16-82t-45.5-64-71-41.5-92.5-14.5zM442.973 853.948l-173.989-90.9951-173.989 90.9951 36.998 73.9951 136.991-73.9951 136.992 73.9951z" glyph-name="Scaron" horiz-adv-x="529" unicode="&#x160;"/><glyph d="M268-8q-81 0-143.5 33.5t-96.5 87.5l88 74q25-35 64.5-60t85.5-25q52 0 81 22t29 60q0 40-25.5 65t-78.5 48l-56 24q-159 70-159 209 0 43 18 77.5t47 59 67 38 79 13.5q61 0 110-21.5t89-68.5l-81-83q-27 33-54.5 48t-65.5 15q-36 0-64-20t-28-57q0-35 24-59.5t78-47.5l55-24q73-32 117.5-82t44.5-124q0-45-16-82t-45.5-64-71-41.5-92.5-14.5zM257 0h75l-52-165h-108z" glyph-name="Scedilla" horiz-adv-x="529" unicode="&#x15e;"/><glyph d="M268-8q-81 0-143.5 33.5t-96.5 87.5l88 74q25-35 64.5-60t85.5-25q52 0 81 22t29 60q0 40-25.5 65t-78.5 48l-56 24q-159 70-159 209 0 43 18 77.5t47 59 67 38 79 13.5q61 0 110-21.5t89-68.5l-81-83q-27 33-54.5 48t-65.5 15q-36 0-64-20t-28-57q0-35 24-59.5t78-47.5l55-24q73-32 117.5-82t44.5-124q0-45-16-82t-45.5-64-71-41.5-92.5-14.5zM95 837l174 91 174-91-37-74-137 74-137-74z" glyph-name="Scircumflex" horiz-adv-x="529" unicode="&#x15c;"/><glyph d="M268-8q-81 0-143.5 33.5t-96.5 87.5l88 74q25-35 64.5-60t85.5-25q52 0 81 22t29 60q0 40-25.5 65t-78.5 48l-56 24q-159 70-159 209 0 43 18 77.5t47 59 67 38 79 13.5q61 0 110-21.5t89-68.5l-81-83q-27 33-54.5 48t-65.5 15q-36 0-64-20t-28-57q0-35 24-59.5t78-47.5l55-24q73-32 117.5-82t44.5-124q0-45-16-82t-45.5-64-71-41.5-92.5-14.5zM206-50h114l-94-165h-73z" glyph-name="uni0218" horiz-adv-x="529" unicode="&#x218;"/><glyph d="M208 596h-189v114h496v-114h-190v-596h-117v596zM439.973 853.948l-173.989-90.9951-173.989 90.9951 36.998 73.9951 136.991-73.9951 136.992 73.9951z" glyph-name="Tcaron" horiz-adv-x="534" unicode="&#x164;"/><glyph d="M208 596h-189v114h496v-114h-190v-596h-117v596zM206-50h114l-94-165h-73z" glyph-name="uni0162" horiz-adv-x="534" unicode="&#x162;"/><glyph d="M208 596h-189v114h496v-114h-190v-596h-117v596zM206-50h114l-94-165h-73z" glyph-name="uni021A" horiz-adv-x="534" unicode="&#x21a;"/><glyph d="M366-8q-63 0-115.5 20t-90.5 56.5-59 89.5-21 119v433h116v-437q0-82 47-125.5t123-43.5q75 0 122 43.5t47 125.5v437h117v-434q0-66-21-118.5t-59-89-90.5-56.5-115.5-20zM363 770q-36 0-66 12t-52 33-34.5 49-13.5 60h76q2-35 25.5-60.5t65.5-25.5 66 25.5 26 60.5h76q-2-32-14.5-60t-34.5-49-52.5-33-67.5-12z" glyph-name="Ubreve" horiz-adv-x="732" unicode="&#x16c;"/><glyph d="M366-8q-63 0-115.5 20t-90.5 56.5-59 89.5-21 119v433h116v-437q0-82 47-125.5t123-43.5q75 0 122 43.5t47 125.5v437h117v-434q0-66-21-118.5t-59-89-90.5-56.5-115.5-20zM310 913h121l-114-145h-81zM502 913h120l-113-145h-81z" glyph-name="Uhungarumlaut" horiz-adv-x="732" unicode="&#x170;"/><glyph d="M366-8q-63 0-115.5 20t-90.5 56.5-59 89.5-21 119v433h116v-437q0-82 47-125.5t123-43.5q75 0 122 43.5t47 125.5v437h117v-434q0-66-21-118.5t-59-89-90.5-56.5-115.5-20zM211 881h306v-81h-306v81z" glyph-name="Umacron" horiz-adv-x="732" unicode="&#x16a;"/><glyph d="M366-8q-63 0-115.5 20t-90.5 56.5-59 89.5-21 119v433h116v-437q0-82 47-125.5t123-43.5q75 0 122 43.5t47 125.5v437h117v-434q0-66-21-118.5t-59-89-90.5-56.5-115.5-20zM370-190q-45 0-78 24t-33 68q0 33 21 59.5t46 39.5h116q-76-33-76-75 0-37 43-37 11 0 20 3.5t14 5.5v-69q-31-19-73-19z" glyph-name="Uogonek" horiz-adv-x="732" unicode="&#x172;"/><glyph d="M366-8q-63 0-115.5 20t-90.5 56.5-59 89.5-21 119v433h116v-437q0-82 47-125.5t123-43.5q75 0 122 43.5t47 125.5v437h117v-434q0-66-21-118.5t-59-89-90.5-56.5-115.5-20zM364 754q-22 0-41.5 8t-34 22-23 32.5-8.5 40.5 8.5 41 23 33 34 22 41.5 8 41.5-8 34-22 23-33 8.5-41-8.5-40.5-23-32.5-34-22-41.5-8zM364 810q20 0 34 13.5t14 33.5q0 21-14 34.5t-34 13.5-34-13.5-14-34.5q0-20 14-33.5t34-13.5z" glyph-name="Uring" horiz-adv-x="732" unicode="&#x16e;"/><glyph d="M366-8q-63 0-115.5 20t-90.5 56.5-59 89.5-21 119v433h116v-437q0-82 47-125.5t123-43.5q75 0 122 43.5t47 125.5v437h117v-434q0-66-21-118.5t-59-89-90.5-56.5-115.5-20zM187 804q8 49 40 75.5t68 26.5q21 0 39-6.5t33.5-14.5 28.5-14.5 25-6.5q20 0 30.5 10t15.5 33h77l-3-22q-8-48-39.5-75t-69.5-27q-21 0-39 6.5t-33.5 14.5-29 14.5-25.5 6.5q-19 0-29-10t-16-33h-77z" glyph-name="Utilde" horiz-adv-x="732" unicode="&#x168;"/><glyph d="M366-8q-63 0-115.5 20t-90.5 56.5-59 89.5-21 119v433h116v-437q0-82 47-125.5t123-43.5q75 0 122 43.5t47 125.5v437h117v-434q0-66-21-118.5t-59-89-90.5-56.5-115.5-20zM367-195q-27 0-47.5 18.5t-20.5 48.5q0 28 19.5 47.5t48.5 19.5q28 0 47-19.5t19-47.5q0-29-19.5-48t-46.5-19z" glyph-name="uni1EE4" horiz-adv-x="732" unicode="&#x1ee4;"/><glyph d="M4 710h120l139-423 176 431 177-431 139 423h120l-245-718-190 467-191-467zM605.963 913h-129.992l-74.9951-145h86.9951z" glyph-name="Wacute" horiz-adv-x="879" unicode="&#x1e82;"/><glyph d="M4 710h120l139-423 176 431 177-431 139 423h120l-245-718-190 467-191-467zM265 837l174 91 174-91-37-74-137 74-137-74z" glyph-name="Wcircumflex" horiz-adv-x="879" unicode="&#x174;"/><glyph d="M4 710h120l139-423 176 431 177-431 139 423h120l-245-718-190 467-191-467zM555 780q-28 0-48 19t-20 48 20 48 48 19q27 0 47-19t20-48-20-48-47-19zM325 780q-28 0-48 19t-20 48 20 48 48 19q27 0 47-19t20-48-20-48-47-19z" glyph-name="Wdieresis" horiz-adv-x="879" unicode="&#x1e84;"/><glyph d="M4 710h120l139-423 176 431 177-431 139 423h120l-245-718-190 467-191-467zM275 913h130l75-145h-87z" glyph-name="Wgrave" horiz-adv-x="879" unicode="&#x1e80;"/><glyph d="M266 300l-261 410h136l183-294 184 294h136l-261-410v-300h-117v300zM151 837l174 91 174-91-37-74-137 74-137-74z" glyph-name="Ycircumflex" horiz-adv-x="649" unicode="&#x176;"/><glyph d="M266 300l-261 410h136l183-294 184 294h136l-261-410v-300h-117v300zM441 780q-28 0-48 19t-20 48 20 48 48 19q27 0 47-19t20-48-20-48-47-19zM211 780q-28 0-48 19t-20 48 20 48 48 19q27 0 47-19t20-48-20-48-47-19z" glyph-name="Ydieresis" horiz-adv-x="649" unicode="&#x178;"/><glyph d="M266 300l-261 410h136l183-294 184 294h136l-261-410v-300h-117v300zM161 913h130l75-145h-87z" glyph-name="Ygrave" horiz-adv-x="649" unicode="&#x1ef2;"/><glyph d="M266 300l-261 410h136l183-294 184 294h136l-261-410v-300h-117v300zM172 881h306v-81h-306v81z" glyph-name="uni0232" horiz-adv-x="649" unicode="&#x232;"/><glyph d="M380 596h-328v114h527l-370-596h364v-114h-564zM482.971 913h-129.992l-74.9951-145h86.9941z" glyph-name="Zacute" horiz-adv-x="607" unicode="&#x179;"/><glyph d="M380 596h-328v114h527l-370-596h364v-114h-564zM489.97 853.948l-173.989-90.9951-173.989 90.9951 36.998 73.9951 136.991-73.9951 136.992 73.9951z" glyph-name="Zcaron" horiz-adv-x="607" unicode="&#x17d;"/><glyph d="M380 596h-328v114h527l-370-596h364v-114h-564zM316 780q-27 0-47.5 18.5t-20.5 48.5q0 28 19.5 47.5t48.5 19.5q28 0 47-19.5t19-47.5q0-29-19.5-48t-46.5-19z" glyph-name="Zdotaccent" horiz-adv-x="607" unicode="&#x17b;"/><glyph d="M88 710h461l-124-257q83-20 128.5-73.5t45.5-144.5q0-57-19-101t-53.5-73.5-81.5-45-104-15.5h-41v112h44q29 0 54 7.5t43.5 23 29 38.5 10.5 54-10.5 54-29 38.5-43.5 23.5-54 8h-44v90l75 154h-170v-603h-117v710z" glyph-name="uni1E9E" horiz-adv-x="641" unicode="&#x1e9e;"/><glyph d="M430 42q-28-25-64-37.5t-77-12.5q-55 0-101 20.5t-79 55.5-51.5 82-18.5 100 18.5 100 51.5 82 79 55.5 101 20.5q41 0 77-13t64-38v43h110v-500h-110v42zM300 94q45 0 77.5 18.5t52.5 47.5v179q-20 30-52.5 48.5t-77.5 18.5q-33 0-60.5-12t-47-33-30.5-49.5-11-61.5 11-61.5 30.5-49.5 47-33 60.5-12zM311 563q-75 0-120 41t-48 106h78q2-35 25-56.5t65-21.5 65 21.5 25 56.5h78q-3-65-48-106t-120-41z" glyph-name="abreve" horiz-adv-x="610" unicode="&#x103;"/><glyph d="M430 42q-28-25-64-37.5t-77-12.5q-55 0-101 20.5t-79 55.5-51.5 82-18.5 100 18.5 100 51.5 82 79 55.5 101 20.5q41 0 77-13t64-38v43h110v-500h-110v42zM300 94q45 0 77.5 18.5t52.5 47.5v179q-20 30-52.5 48.5t-77.5 18.5q-33 0-60.5-12t-47-33-30.5-49.5-11-61.5 11-61.5 30.5-49.5 47-33 60.5-12zM158 678h306v-77h-306v77z" glyph-name="amacron" horiz-adv-x="610" unicode="&#x101;"/><glyph d="M430 42q-28-25-64-37.5t-77-12.5q-55 0-101 20.5t-79 55.5-51.5 82-18.5 100 18.5 100 51.5 82 79 55.5 101 20.5q41 0 77-13t64-38v43h110v-500h-110v42zM300 94q45 0 77.5 18.5t52.5 47.5v179q-20 30-52.5 48.5t-77.5 18.5q-33 0-60.5-12t-47-33-30.5-49.5-11-61.5 11-61.5 30.5-49.5 47-33 60.5-12zM471-191q-21 0-40 6.5t-33.5 18.5-23 29.5-8.5 39.5q0 32 20.5 58t43.5 39h110q-72-34-72-75 0-17 11-27t31-10q11 0 18.5 3.5t12.5 5.5v-69q-14-11-32-15t-38-4z" glyph-name="aogonek" horiz-adv-x="610" unicode="&#x105;"/><glyph d="M296-8q-55 0-102 20t-81.5 55-54.5 82-20 101 20 101 54.5 82 81.5 55 102 20q66 0 117-26t85-67l-79-70q-21 26-51.5 43t-71.5 17q-32 0-58.5-12t-46-32.5-30.5-49-11-61.5 11-61.5 30.5-49 46-32.5 58.5-12q41 0 71.5 17t51.5 43l79-70q-34-41-85-67t-117-26zM468.972 710h-131.992l-84.9951-160h84.9951z" glyph-name="cacute" horiz-adv-x="523" unicode="&#x107;"/><glyph d="M296-8q-55 0-102 20t-81.5 55-54.5 82-20 101 20 101 54.5 82 81.5 55 102 20q66 0 117-26t85-67l-79-70q-21 26-51.5 43t-71.5 17q-32 0-58.5-12t-46-32.5-30.5-49-11-61.5 11-61.5 30.5-49 46-32.5 58.5-12q41 0 71.5 17t51.5 43l79-70q-34-41-85-67t-117-26zM131.992 652.96l40.9971 67.9961 122.993-74.9951 122.992 74.9951 40.9971-67.9961-163.989-102.993z" glyph-name="ccaron" horiz-adv-x="523" unicode="&#x10d;"/><glyph d="M296-8q-55 0-102 20t-81.5 55-54.5 82-20 101 20 101 54.5 82 81.5 55 102 20q66 0 117-26t85-67l-79-70q-21 26-51.5 43t-71.5 17q-32 0-58.5-12t-46-32.5-30.5-49-11-61.5 11-61.5 30.5-49 46-32.5 58.5-12q41 0 71.5 17t51.5 43l79-70q-34-41-85-67t-117-26zM461 619l-41-68-123 75-123-75-41 68 164 103z" glyph-name="ccircumflex" horiz-adv-x="523" unicode="&#x109;"/><glyph d="M296-8q-55 0-102 20t-81.5 55-54.5 82-20 101 20 101 54.5 82 81.5 55 102 20q66 0 117-26t85-67l-79-70q-21 26-51.5 43t-71.5 17q-32 0-58.5-12t-46-32.5-30.5-49-11-61.5 11-61.5 30.5-49 46-32.5 58.5-12q41 0 71.5 17t51.5 43l79-70q-34-41-85-67t-117-26zM298 570q-27 0-47.5 18.5t-20.5 48.5q0 28 19.5 47.5t48.5 19.5q28 0 47-19.5t19-47.5q0-29-19.5-48t-46.5-19z" glyph-name="cdotaccent" horiz-adv-x="523" unicode="&#x10b;"/><glyph d="M430 0v42q-28-25-64-37.5t-77-12.5q-55 0-101 20.5t-79 55.5-51.5 82-18.5 100 18.5 100 51.5 82 79 55.5 101 20.5q41 0 77-13t64-38v253h110v-710h-110zM300 406q-33 0-60.5-12t-47-33-30.5-49.5-11-61.5 11-61.5 30.5-49.5 47-33 60.5-12q45 0 78 18.5t52 47.5v179q-19 30-52 48.5t-78 18.5zM612 710h111l-58-163h-76z" glyph-name="dcaron" horiz-adv-x="634" unicode="&#x10f;"/><glyph d="M430 0v42q-28-25-64-37.5t-77-12.5q-55 0-101 20.5t-79 55.5-51.5 82-18.5 100 18.5 100 51.5 82 79 55.5 101 20.5q41 0 77-13t64-38v253h110v-710h-110zM300 406q-33 0-60.5-12t-47-33-30.5-49.5-11-61.5 11-61.5 30.5-49.5 47-33 60.5-12q45 0 78 18.5t52 47.5v179q-19 30-52 48.5t-78 18.5zM275 640h335v-65h-335v65z" glyph-name="dcroat" horiz-adv-x="610" unicode="&#x111;"/><glyph d="M295-8q-53 0-100 19.5t-81.5 54-54.5 81.5-20 103q0 55 19.5 102t53.5 81.5 80.5 54.5 100.5 20q56 0 102-20.5t78-57 48.5-88.5 13.5-115h-386q3-32 16.5-56.5t33.5-41.5 45-26 51-9q45 0 78 17.5t54 43.5l79-68q-33-42-87.5-68.5t-123.5-26.5zM286 414q-20 0-40.5-6t-39-18.5-33-33-20.5-49.5h266q-8 54-45.5 80.5t-87.5 26.5zM294 563q-75 0-120 41t-48 106h78q2-35 25-56.5t65-21.5 65 21.5 25 56.5h78q-3-65-48-106t-120-41z" glyph-name="ebreve" horiz-adv-x="570" unicode="&#x115;"/><glyph d="M295-8q-53 0-100 19.5t-81.5 54-54.5 81.5-20 103q0 55 19.5 102t53.5 81.5 80.5 54.5 100.5 20q56 0 102-20.5t78-57 48.5-88.5 13.5-115h-386q3-32 16.5-56.5t33.5-41.5 45-26 51-9q45 0 78 17.5t54 43.5l79-68q-33-42-87.5-68.5t-123.5-26.5zM286 414q-20 0-40.5-6t-39-18.5-33-33-20.5-49.5h266q-8 54-45.5 80.5t-87.5 26.5zM128.992 652.96l40.9971 67.9961 122.993-74.9951 122.992 74.9951 40.9971-67.9961-163.989-102.993z" glyph-name="ecaron" horiz-adv-x="570" unicode="&#x11b;"/><glyph d="M295-8q-53 0-100 19.5t-81.5 54-54.5 81.5-20 103q0 55 19.5 102t53.5 81.5 80.5 54.5 100.5 20q56 0 102-20.5t78-57 48.5-88.5 13.5-115h-386q3-32 16.5-56.5t33.5-41.5 45-26 51-9q45 0 78 17.5t54 43.5l79-68q-33-42-87.5-68.5t-123.5-26.5zM286 414q-20 0-40.5-6t-39-18.5-33-33-20.5-49.5h266q-8 54-45.5 80.5t-87.5 26.5zM141 678h306v-77h-306v77z" glyph-name="emacron" horiz-adv-x="570" unicode="&#x113;"/><glyph d="M497-172q-15-11-32.5-15t-37.5-4q-23 0-43 7t-35 20-24 31.5-9 41.5q0 27 10.5 49t26.5 39q-14-3-27.5-4t-30.5-1q-53 0-100 19.5t-81.5 54-54.5 81.5-20 103q0 55 19.5 102t53.5 81.5 80.5 54.5 100.5 20 99.5-19.5 78-55.5 50-88 14.5-118h-386q3-33 17-58t35-41.5 45.5-25 48.5-8.5q45 0 78 17.5t54 43.5l79-68q-15-17-31-36t-28.5-39-21-40-8.5-39q0-24 14-34.5t35-10.5q10 0 18 3.5t13 5.5v-69zM286 414q-20 0-40.5-6t-39.5-18.5-33-33-20-49.5h266q-8 54-45.5 80.5t-87.5 26.5z" glyph-name="eogonek" horiz-adv-x="570" unicode="&#x119;"/><glyph d="M295-8q-53 0-100 19.5t-81.5 54-54.5 81.5-20 103q0 55 19.5 102t53.5 81.5 80.5 54.5 100.5 20q56 0 102-20.5t78-57 48.5-88.5 13.5-115h-386q3-32 16.5-56.5t33.5-41.5 45-26 51-9q45 0 78 17.5t54 43.5l79-68q-33-42-87.5-68.5t-123.5-26.5zM286 414q-20 0-40.5-6t-39-18.5-33-33-20.5-49.5h266q-8 54-45.5 80.5t-87.5 26.5zM295 570q-27 0-47.5 18.5t-20.5 48.5q0 28 19.5 47.5t48.5 19.5q28 0 47-19.5t19-47.5q0-29-19.5-48t-46.5-19z" glyph-name="edotaccent" horiz-adv-x="570" unicode="&#x117;"/><glyph d="M290-194q-55 0-112.5 13t-105.5 45l54 95q31-23 72.5-37.5t89.5-14.5q29 0 55.5 5.5t47 18.5 33 34 12.5 51q0 11-2.5 27t-10.5 29q-27-26-63-39t-78-13q-56 0-101 19.5t-76.5 52.5-48.5 77.5-17 94.5 17 94.5 48.5 77.5 76.5 52.5 101 19.5q82 0 139-51v43h110v-400q10-26 14.5-50.5t4.5-47.5q0-54-22.5-91t-59.5-60.5-83.5-34-94.5-10.5zM290 121q45 0 78.5 19t52.5 48v151q-19 30-52.5 48.5t-78.5 18.5q-32 0-57.5-11t-43.5-30.5-28-45.5-10-55q0-30 10-56t28-45.5 43.5-30.5 57.5-11zM288 563q-75 0-120 41t-48 106h78q2-35 25-56.5t65-21.5 65 21.5 25 56.5h78q-3-65-48-106t-120-41z" glyph-name="gbreve" horiz-adv-x="604" unicode="&#x11f;"/><glyph d="M290-194q-55 0-112.5 13t-105.5 45l54 95q31-23 72.5-37.5t89.5-14.5q29 0 55.5 5.5t47 18.5 33 34 12.5 51q0 11-2.5 27t-10.5 29q-27-26-63-39t-78-13q-56 0-101 19.5t-76.5 52.5-48.5 77.5-17 94.5 17 94.5 48.5 77.5 76.5 52.5 101 19.5q82 0 139-51v43h110v-400q10-26 14.5-50.5t4.5-47.5q0-54-22.5-91t-59.5-60.5-83.5-34-94.5-10.5zM290 121q45 0 78.5 19t52.5 48v151q-19 30-52.5 48.5t-78.5 18.5q-32 0-57.5-11t-43.5-30.5-28-45.5-10-55q0-30 10-56t28-45.5 43.5-30.5 57.5-11zM452 619l-41-68-123 75-123-75-41 68 164 103z" glyph-name="gcircumflex" horiz-adv-x="604" unicode="&#x11d;"/><glyph d="M290-194q-55 0-112.5 13t-105.5 45l54 95q31-23 72.5-37.5t89.5-14.5q29 0 55.5 5.5t47 18.5 33 34 12.5 51q0 11-2.5 27t-10.5 29q-27-26-63-39t-78-13q-56 0-101 19.5t-76.5 52.5-48.5 77.5-17 94.5 17 94.5 48.5 77.5 76.5 52.5 101 19.5q82 0 139-51v43h110v-400q10-26 14.5-50.5t4.5-47.5q0-54-22.5-91t-59.5-60.5-83.5-34-94.5-10.5zM290 121q45 0 78.5 19t52.5 48v151q-19 30-52.5 48.5t-78.5 18.5q-32 0-57.5-11t-43.5-30.5-28-45.5-10-55q0-30 10-56t28-45.5 43.5-30.5 57.5-11zM346.979 547.967h-113.993l93.9951 164.989h72.9951z" glyph-name="uni0123" horiz-adv-x="604" unicode="&#x123;"/><glyph d="M290-194q-55 0-112.5 13t-105.5 45l54 95q31-23 72.5-37.5t89.5-14.5q29 0 55.5 5.5t47 18.5 33 34 12.5 51q0 11-2.5 27t-10.5 29q-27-26-63-39t-78-13q-56 0-101 19.5t-76.5 52.5-48.5 77.5-17 94.5 17 94.5 48.5 77.5 76.5 52.5 101 19.5q82 0 139-51v43h110v-400q10-26 14.5-50.5t4.5-47.5q0-54-22.5-91t-59.5-60.5-83.5-34-94.5-10.5zM290 121q45 0 78.5 19t52.5 48v151q-19 30-52.5 48.5t-78.5 18.5q-32 0-57.5-11t-43.5-30.5-28-45.5-10-55q0-30 10-56t28-45.5 43.5-30.5 57.5-11zM289 570q-27 0-47.5 18.5t-20.5 48.5q0 28 19.5 47.5t48.5 19.5q28 0 47-19.5t19-47.5q0-29-19.5-48t-46.5-19z" glyph-name="gdotaccent" horiz-adv-x="604" unicode="&#x121;"/><glyph d="M70 710h110v-257q26 29 63.5 42t77.5 13q46 0 83.5-15.5t63.5-43 40.5-67 14.5-87.5v-295h-110v282q0 54-29 89t-85 35q-42 0-72.5-21.5t-46.5-60.5v-324h-110v710zM1 640h335v-65h-335v65z" glyph-name="hbar" horiz-adv-x="587" unicode="&#x127;"/><glyph d="M70 710h110v-257q26 29 63.5 42t77.5 13q46 0 83.5-15.5t63.5-43 40.5-67 14.5-87.5v-295h-110v282q0 54-29 89t-85 35q-42 0-72.5-21.5t-46.5-60.5v-324h-110v710zM148 837l174 91 174-91-37-74-137 74-137-74z" glyph-name="hcircumflex" horiz-adv-x="587" unicode="&#x125;"/><glyph d="M70 500h110v-500h-110v500z" glyph-name="dotlessi" horiz-adv-x="250" unicode="&#x131;"/><glyph d="M70 500h110v-500h-110v500zM126 563q-75 0-120 41t-48 106h78q2-35 25-56.5t65-21.5 65 21.5 25 56.5h78q-3-65-48-106t-120-41z" glyph-name="ibreve" horiz-adv-x="250" unicode="&#x12d;"/><glyph d="M70 500h110v-500h-110v500zM-27 678h306v-77h-306v77z" glyph-name="imacron" horiz-adv-x="250" unicode="&#x12b;"/><glyph d="M70 500h110v-500h-110v500zM73 595q-19 19-19 50t20.5 52 51.5 21 51.5-21 20.5-52-19-50h-106v0zM111-191q-21 0-40 6.5t-33.5 18.5-23 29.5-8.5 39.5q0 32 20.5 58t43.5 39h110q-72-34-72-75 0-17 11-27t31-10q11 0 18.5 3.5t12.5 5.5v-69q-14-11-32-15t-38-4z" glyph-name="iogonek" horiz-adv-x="250" unicode="&#x12f;"/><glyph d="M70 500h110v-500h-110v500zM-50 584q8 49 40 75.5t68 26.5q21 0 39-6.5t33.5-14.5 28.5-14.5 25-6.5q20 0 30.5 10t15.5 33h77l-3-22q-8-48-39.5-75t-69.5-27q-21 0-39 6.5t-33.5 14.5-29 14.5-25.5 6.5q-19 0-29-10t-16-33h-77z" glyph-name="itilde" horiz-adv-x="250" unicode="&#x129;"/><glyph d="M70 500h110v-500h-110v500zM73 595q-19 19-19 50t20.5 52 51.5 21 51.5-21 20.5-52-19-50h-106v0zM126-195q-27 0-47.5 18.5t-20.5 48.5q0 28 19.5 47.5t48.5 19.5q28 0 47-19.5t19-47.5q0-29-19.5-48t-46.5-19z" glyph-name="uni1ECB" horiz-adv-x="250" unicode="&#x1ecb;"/><glyph d="M-26-82h29q39 0 57 17.5t18 55.5v509h110v-525q0-79-47-119t-129-40h-38v102z" glyph-name="uni0237" horiz-adv-x="258" unicode="&#x237;"/><glyph d="M-26-82h29q39 0 57 17.5t18 55.5v509h110v-525q0-79-47-119t-129-40h-38v102zM297 619l-41-68-123 75-123-75-41 68 164 103z" glyph-name="jcircumflex" horiz-adv-x="258" unicode="&#x135;"/><glyph d="M70 710h110v-438l200 228h135l-209-236 234-264h-139l-221 250v-250h-110v710zM234-50h114l-94-165h-73z" glyph-name="uni0137" horiz-adv-x="530" unicode="&#x137;"/><glyph d="M70 710h110v-710h-110v710zM291.982 920h-131.992l-84.9951-160h84.9951z" glyph-name="lacute" horiz-adv-x="250" unicode="&#x13a;"/><glyph d="M70 710h110v-710h-110v710zM252 710h111l-58-163h-76z" glyph-name="lcaron" horiz-adv-x="274" unicode="&#x13e;"/><glyph d="M70 710h110v-710h-110v710zM68-50h114l-94-165h-73z" glyph-name="uni013C" horiz-adv-x="250" unicode="&#x13c;"/><glyph d="M70 710h110v-710h-110v710zM318 299q-27 0-47.5 18.5t-20.5 48.5q0 28 19.5 47.5t48.5 19.5q28 0 47-19.5t19-47.5q0-29-19.5-48t-46.5-19z" glyph-name="ldot" horiz-adv-x="380" unicode="&#x140;"/><glyph d="M138 710h110v-710h-110v710zM22 307l308 190 35-58-308-190z" glyph-name="lslash" horiz-adv-x="369" unicode="&#x142;"/><glyph d="M70 500h110v-47q26 29 63.5 42t77.5 13q46 0 83.5-15.5t63.5-43 40.5-67 14.5-87.5v-295h-110v282q0 54-29 89t-85 35q-42 0-72.5-21.5t-46.5-60.5v-324h-110v500zM481.971 710h-131.992l-84.9951-160h84.9951z" glyph-name="nacute" horiz-adv-x="587" unicode="&#x144;"/><glyph d="M70 500h110v-47q26 29 63.5 42t77.5 13q46 0 83.5-15.5t63.5-43 40.5-67 14.5-87.5v-295h-110v282q0 54-29 89t-85 35q-42 0-72.5-21.5t-46.5-60.5v-324h-110v500zM144.991 652.96l40.9971 67.9961 122.993-74.9951 122.992 74.9951 40.9971-67.9961-163.989-102.993z" glyph-name="ncaron" horiz-adv-x="587" unicode="&#x148;"/><glyph d="M70 500h110v-47q26 29 63.5 42t77.5 13q46 0 83.5-15.5t63.5-43 40.5-67 14.5-87.5v-295h-110v282q0 54-29 89t-85 35q-42 0-72.5-21.5t-46.5-60.5v-324h-110v500zM242-50h114l-94-165h-73z" glyph-name="uni0146" horiz-adv-x="587" unicode="&#x146;"/><glyph d="M912 87q-33-42-87-68.5t-123-26.5q-55 0-107 22.5t-94 73.5q-42-51-94-73.5t-109-22.5q-56 0-103.5 20t-82 55-54.5 82-20 101 20 101 54.5 82 82 55 103.5 20q57 0 109.5-23t92.5-72q40 49 91.5 72t108.5 23q53 0 98.5-19t78-55.5 50-88.5 14.5-118h-387q4-33 18-58t34.5-41.5 45-25 50.5-8.5q45 0 78 17.5t53 43.5zM693 414q-18 0-39-5.5t-39.5-18-34-33-22.5-50.5h268q-8 54-45.5 80.5t-87.5 26.5zM298 95q33 0 60 12t46.5 32.5 30.5 49 11 61.5-11 61.5-30.5 49-46.5 32.5-60 12-60-12-46.5-32.5-30.5-49-11-61.5 11-61.5 30.5-49 46.5-32.5 60-12z" glyph-name="oe" horiz-adv-x="976" unicode="&#x153;"/><glyph d="M298-8q-56 0-103.5 20t-82 55-54.5 82-20 101 20 101 54.5 82 82 55 103.5 20q55 0 103-20t82.5-55 54.5-82 20-101-20-101-54.5-82-82.5-55-103-20zM298 95q33 0 60 12t46.5 32.5 30 49 10.5 61.5-10.5 61.5-30 49-46.5 32.5-60 12-60-12-46.5-32.5-30.5-49-11-61.5 11-61.5 30.5-49 46.5-32.5 60-12zM298 563q-75 0-120 41t-48 106h78q2-35 25-56.5t65-21.5 65 21.5 25 56.5h78q-3-65-48-106t-120-41z" glyph-name="obreve" horiz-adv-x="596" unicode="&#x14f;"/><glyph d="M298-8q-56 0-103.5 20t-82 55-54.5 82-20 101 20 101 54.5 82 82 55 103.5 20q55 0 103-20t82.5-55 54.5-82 20-101-20-101-54.5-82-82.5-55-103-20zM298 95q33 0 60 12t46.5 32.5 30 49 10.5 61.5-10.5 61.5-30 49-46.5 32.5-60 12-60-12-46.5-32.5-30.5-49-11-61.5 11-61.5 30.5-49 46.5-32.5 60-12zM259 710h117l-126-161h-75zM430 710h116l-126-161h-74z" glyph-name="ohungarumlaut" horiz-adv-x="596" unicode="&#x151;"/><glyph d="M298-8q-56 0-103.5 20t-82 55-54.5 82-20 101 20 101 54.5 82 82 55 103.5 20q55 0 103-20t82.5-55 54.5-82 20-101-20-101-54.5-82-82.5-55-103-20zM298 95q33 0 60 12t46.5 32.5 30 49 10.5 61.5-10.5 61.5-30 49-46.5 32.5-60 12-60-12-46.5-32.5-30.5-49-11-61.5 11-61.5 30.5-49 46.5-32.5 60-12zM145 678h306v-77h-306v77z" glyph-name="omacron" horiz-adv-x="596" unicode="&#x14d;"/><glyph d="M298-8q-56 0-103.5 20t-82 55-54.5 82-20 101 20 101 54.5 82 82 55 103.5 20q55 0 103-20t82.5-55 54.5-82 20-101-20-101-54.5-82-82.5-55-103-20zM298 95q33 0 60 12t46.5 32.5 30 49 10.5 61.5-10.5 61.5-30 49-46.5 32.5-60 12-60-12-46.5-32.5-30.5-49-11-61.5 11-61.5 30.5-49 46.5-32.5 60-12zM299-195q-27 0-47.5 18.5t-20.5 48.5q0 28 19.5 47.5t48.5 19.5q28 0 47-19.5t19-47.5q0-29-19.5-48t-46.5-19z" glyph-name="uni1ECD" horiz-adv-x="596" unicode="&#x1ecd;"/><glyph d="M70 500h110v-53q48 59 129 59 11 0 21.5-1t20.5-4v-114q-24 10-58 10-35 0-65.5-15.5t-47.5-46.5v-335h-110v500zM386.977 710h-131.992l-84.9951-160h84.9951z" glyph-name="racute" horiz-adv-x="369" unicode="&#x155;"/><glyph d="M70 500h110v-53q48 59 129 59 11 0 21.5-1t20.5-4v-114q-24 10-58 10-35 0-65.5-15.5t-47.5-46.5v-335h-110v500zM49.9971 652.96l40.9971 67.9961 122.993-74.9951 122.992 74.9951 40.9971-67.9961-163.989-102.993z" glyph-name="rcaron" horiz-adv-x="369" unicode="&#x159;"/><glyph d="M70 500h110v-53q48 59 129 59 11 0 21.5-1t20.5-4v-114q-24 10-58 10-35 0-65.5-15.5t-47.5-46.5v-335h-110v500zM66-50h114l-94-165h-73z" glyph-name="uni0157" horiz-adv-x="369" unicode="&#x157;"/><glyph d="M213-8q-60 0-107.5 24.5t-78.5 77.5l86 58q17-31 41.5-48.5t62.5-17.5q29 0 49.5 12.5t20.5 35.5-17.5 37.5-59.5 29.5l-34 13q-66 25-95 65t-29 88q0 30 12 56t34 45 51.5 29.5 64.5 10.5q48 0 88-20.5t65-65.5l-74-56q-13 23-32.5 36.5t-46.5 13.5q-23 0-40.5-11.5t-17.5-32.5q0-20 14.5-34.5t55.5-29.5l34-13q67-25 99.5-61.5t32.5-92.5q0-33-13-60.5t-36.5-47-56.5-30.5-73-11zM388.977 710h-131.992l-84.9951-160h84.9951z" glyph-name="sacute" horiz-adv-x="427" unicode="&#x15b;"/><glyph d="M213-8q-60 0-107.5 24.5t-78.5 77.5l86 58q17-31 41.5-48.5t62.5-17.5q29 0 49.5 12.5t20.5 35.5-17.5 37.5-59.5 29.5l-34 13q-66 25-95 65t-29 88q0 30 12 56t34 45 51.5 29.5 64.5 10.5q48 0 88-20.5t65-65.5l-74-56q-13 23-32.5 36.5t-46.5 13.5q-23 0-40.5-11.5t-17.5-32.5q0-20 14.5-34.5t55.5-29.5l34-13q67-25 99.5-61.5t32.5-92.5q0-33-13-60.5t-36.5-47-56.5-30.5-73-11zM51.9971 652.96l40.9971 67.9961 122.992-74.9951 122.993 74.9951 40.9971-67.9961-163.99-102.993z" glyph-name="scaron" horiz-adv-x="427" unicode="&#x161;"/><glyph d="M213-8q-60 0-107.5 24.5t-78.5 77.5l86 58q17-31 41.5-48.5t62.5-17.5q29 0 49.5 12.5t20.5 35.5-17.5 37.5-59.5 29.5l-34 13q-66 25-95 65t-29 88q0 30 12 56t34 45 51.5 29.5 64.5 10.5q48 0 88-20.5t65-65.5l-74-56q-13 23-32.5 36.5t-46.5 13.5q-23 0-40.5-11.5t-17.5-32.5q0-20 14.5-34.5t55.5-29.5l34-13q67-25 99.5-61.5t32.5-92.5q0-33-13-60.5t-36.5-47-56.5-30.5-73-11zM185 0h75l-52-165h-108z" glyph-name="scedilla" horiz-adv-x="427" unicode="&#x15f;"/><glyph d="M213-8q-60 0-107.5 24.5t-78.5 77.5l86 58q17-31 41.5-48.5t62.5-17.5q29 0 49.5 12.5t20.5 35.5-17.5 37.5-59.5 29.5l-34 13q-66 25-95 65t-29 88q0 30 12 56t34 45 51.5 29.5 64.5 10.5q48 0 88-20.5t65-65.5l-74-56q-13 23-32.5 36.5t-46.5 13.5q-23 0-40.5-11.5t-17.5-32.5q0-20 14.5-34.5t55.5-29.5l34-13q67-25 99.5-61.5t32.5-92.5q0-33-13-60.5t-36.5-47-56.5-30.5-73-11zM381 619l-41-68-123 75-123-75-41 68 164 103z" glyph-name="scircumflex" horiz-adv-x="427" unicode="&#x15d;"/><glyph d="M213-8q-60 0-107.5 24.5t-78.5 77.5l86 58q17-31 41.5-48.5t62.5-17.5q29 0 49.5 12.5t20.5 35.5-17.5 37.5-59.5 29.5l-34 13q-66 25-95 65t-29 88q0 30 12 56t34 45 51.5 29.5 64.5 10.5q48 0 88-20.5t65-65.5l-74-56q-13 23-32.5 36.5t-46.5 13.5q-23 0-40.5-11.5t-17.5-32.5q0-20 14.5-34.5t55.5-29.5l34-13q67-25 99.5-61.5t32.5-92.5q0-33-13-60.5t-36.5-47-56.5-30.5-73-11zM159-50h114l-94-165h-73z" glyph-name="uni0219" horiz-adv-x="427" unicode="&#x219;"/><glyph d="M259 0q-72 0-112 38t-40 110v254h-74l-24 98h98v95l110 55v-150h154l-24-98h-130v-230q0-35 15-53.5t53-18.5h73v-100h-99v0zM299 710h111l-58-163h-76z" glyph-name="tcaron" horiz-adv-x="390" unicode="&#x165;"/><glyph d="M259 0q-72 0-112 38t-40 110v254h-74l-24 98h98v95l110 55v-150h154l-24-98h-130v-230q0-35 15-53.5t53-18.5h73v-100h-99v0zM175-50h114l-94-165h-73z" glyph-name="uni0163" horiz-adv-x="390" unicode="&#x163;"/><glyph d="M259 0q-72 0-112 38t-40 110v254h-74l-24 98h98v95l110 55v-150h154l-24-98h-130v-230q0-35 15-53.5t53-18.5h73v-100h-99v0zM175-50h114l-94-165h-73z" glyph-name="uni021B" horiz-adv-x="390" unicode="&#x21b;"/><glyph d="M405 49q-27-31-64.5-44t-76.5-13q-45 0-82 15t-63.5 43-40.5 67.5-14 87.5v295h110v-282q0-54 28.5-89t82.5-35q43 0 74 21.5t46 60.5v324h110v-500h-110v49zM289 563q-75 0-120 41t-48 106h78q2-35 25-56.5t65-21.5 65 21.5 25 56.5h78q-3-65-48-106t-120-41z" glyph-name="ubreve" horiz-adv-x="585" unicode="&#x16d;"/><glyph d="M405 49q-27-31-64.5-44t-76.5-13q-45 0-82 15t-63.5 43-40.5 67.5-14 87.5v295h110v-282q0-54 28.5-89t82.5-35q43 0 74 21.5t46 60.5v324h110v-500h-110v49zM250 710h117l-126-161h-75zM421 710h116l-126-161h-74z" glyph-name="uhungarumlaut" horiz-adv-x="585" unicode="&#x171;"/><glyph d="M405 49q-27-31-64.5-44t-76.5-13q-45 0-82 15t-63.5 43-40.5 67.5-14 87.5v295h110v-282q0-54 28.5-89t82.5-35q43 0 74 21.5t46 60.5v324h110v-500h-110v49zM136 678h306v-77h-306v77z" glyph-name="umacron" horiz-adv-x="585" unicode="&#x16b;"/><glyph d="M405 49q-27-31-64.5-44t-76.5-13q-45 0-82 15t-63.5 43-40.5 67.5-14 87.5v295h110v-282q0-54 28.5-89t82.5-35q43 0 74 21.5t46 60.5v324h110v-500h-110v49zM446-191q-21 0-40 6.5t-33.5 18.5-23 29.5-8.5 39.5q0 32 20.5 58t43.5 39h110q-72-34-72-75 0-17 11-27t31-10q11 0 18.5 3.5t12.5 5.5v-69q-14-11-32-15t-38-4z" glyph-name="uogonek" horiz-adv-x="585" unicode="&#x173;"/><glyph d="M405 49q-27-31-64.5-44t-76.5-13q-45 0-82 15t-63.5 43-40.5 67.5-14 87.5v295h110v-282q0-54 28.5-89t82.5-35q43 0 74 21.5t46 60.5v324h110v-500h-110v49zM289 559q-22 0-41.5 8t-34 22-23 32.5-8.5 40.5 8.5 41 23 33 34 22 41.5 8 41.5-8 34-22 23-33 8.5-41-8.5-40.5-23-32.5-34-22-41.5-8zM289 615q20 0 34 13.5t14 33.5q0 21-14 34.5t-34 13.5-34-13.5-14-34.5q0-20 14-33.5t34-13.5z" glyph-name="uring" horiz-adv-x="585" unicode="&#x16f;"/><glyph d="M405 49q-27-31-64.5-44t-76.5-13q-45 0-82 15t-63.5 43-40.5 67.5-14 87.5v295h110v-282q0-54 28.5-89t82.5-35q43 0 74 21.5t46 60.5v324h110v-500h-110v49zM113 584q8 49 40 75.5t68 26.5q21 0 39-6.5t33.5-14.5 28.5-14.5 25-6.5q20 0 30.5 10t15.5 33h77l-3-22q-8-48-39.5-75t-69.5-27q-21 0-39 6.5t-33.5 14.5-29 14.5-25.5 6.5q-19 0-29-10t-16-33h-77z" glyph-name="utilde" horiz-adv-x="585" unicode="&#x169;"/><glyph d="M405 49q-27-31-64.5-44t-76.5-13q-45 0-82 15t-63.5 43-40.5 67.5-14 87.5v295h110v-282q0-54 28.5-89t82.5-35q43 0 74 21.5t46 60.5v324h110v-500h-110v49zM285-195q-27 0-47.5 18.5t-20.5 48.5q0 28 19.5 47.5t48.5 19.5q28 0 47-19.5t19-47.5q0-29-19.5-48t-46.5-19z" glyph-name="uni1EE5" horiz-adv-x="585" unicode="&#x1ee5;"/><glyph d="M7 500h115l101-334 133 342 133-342 101 334h114l-158-500h-86l-104 266-104-266h-86zM527.968 710h-131.992l-84.9941-160h84.9941z" glyph-name="wacute" horiz-adv-x="712" unicode="&#x1e83;"/><glyph d="M7 500h115l101-334 133 342 133-342 101 334h114l-158-500h-86l-104 266-104-266h-86zM520 619l-41-68-123 75-123-75-41 68 164 103z" glyph-name="wcircumflex" horiz-adv-x="712" unicode="&#x175;"/><glyph d="M7 500h115l101-334 133 342 133-342 101 334h114l-158-500h-86l-104 266-104-266h-86zM472 570q-28 0-48 19t-20 48 20 48 48 19q27 0 47-19t20-48-20-48-47-19zM242 570q-28 0-48 19t-20 48 20 48 48 19q27 0 47-19t20-48-20-48-47-19z" glyph-name="wdieresis" horiz-adv-x="712" unicode="&#x1e85;"/><glyph d="M7 500h115l101-334 133 342 133-342 101 334h114l-158-500h-86l-104 266-104-266h-86zM192 710h132l85-160h-85z" glyph-name="wgrave" horiz-adv-x="712" unicode="&#x1e81;"/><glyph d="M201 27l-197 473h118l137-347 137 347h118l-287-684h-117zM424 619l-41-68-123 75-123-75-41 68 164 103z" glyph-name="ycircumflex" horiz-adv-x="515" unicode="&#x177;"/><glyph d="M201 27l-197 473h118l137-347 137 347h118l-287-684h-117zM96 710h132l85-160h-85z" glyph-name="ygrave" horiz-adv-x="515" unicode="&#x1ef3;"/><glyph d="M201 27l-197 473h118l137-347 137 347h118l-287-684h-117zM107 678h306v-77h-306v77z" glyph-name="uni0233" horiz-adv-x="515" unicode="&#x233;"/><glyph d="M285 403h-238v97h427l-269-402h257v-98h-447zM431.974 710h-131.992l-84.9941-160h84.9941z" glyph-name="zacute" horiz-adv-x="499" unicode="&#x17a;"/><glyph d="M285 403h-238v97h427l-269-402h257v-98h-447zM94.9941 652.96l40.998 67.9961 122.992-74.9951 122.992 74.9951 40.998-67.9961-163.99-102.993z" glyph-name="zcaron" horiz-adv-x="499" unicode="&#x17e;"/><glyph d="M285 403h-238v97h427l-269-402h257v-98h-447zM261 570q-27 0-47.5 18.5t-20.5 48.5q0 28 19.5 47.5t48.5 19.5q28 0 47-19.5t19-47.5q0-29-19.5-48t-46.5-19z" glyph-name="zdotaccent" horiz-adv-x="499" unicode="&#x17c;"/><glyph d="M133-8q-18 0-33.5 7t-27.5 18.5-19 27.5-7 34q0 37 26 61.5t61 24.5 60.5-24.5 25.5-61.5q0-18-7-34t-18.5-27.5-27-18.5-33.5-7zM398-8q-18 0-33.5 7t-27.5 18.5-19 27.5-7 34q0 37 26 61.5t61 24.5 60.5-24.5 25.5-61.5q0-18-7-34t-18.5-27.5-27-18.5-33.5-7zM663-8q-18 0-33.5 7t-27.5 18.5-19 27.5-7 34q0 37 26 61.5t61 24.5 60.5-24.5 25.5-61.5q0-18-7-34t-18.5-27.5-27-18.5-33.5-7z" glyph-name="ellipsis" horiz-adv-x="795" unicode="&#x2026;"/><glyph d="M64 329h452v-104h-452v104z" glyph-name="endash" horiz-adv-x="580" unicode="&#x2013;"/><glyph d="M64 329h748v-104h-748v104z" glyph-name="emdash" horiz-adv-x="876" unicode="&#x2014;"/><glyph d="M37 250l156 228 76-51-121-177 121-177-76-51z" glyph-name="guilsinglleft" horiz-adv-x="315" unicode="&#x2039;"/><glyph d="M46 73l121 177-121 177 76 51 156-228-156-228z" glyph-name="guilsinglright" horiz-adv-x="315" unicode="&#x203a;"/><glyph d="M141 564h56v-142h-141v143l60 145h68z" glyph-name="quoteleft" horiz-adv-x="255" unicode="&#x2018;"/><glyph d="M112 568h-56v142h141v-143l-60-145h-68z" glyph-name="quoteright" horiz-adv-x="245" unicode="&#x2019;"/><glyph d="M141 564h56v-142h-141v143l60 145h68zM346 564h56v-142h-141v143l60 145h68z" glyph-name="quotedblleft" horiz-adv-x="460" unicode="&#x201c;"/><glyph d="M112 568h-56v142h141v-143l-60-145h-68zM318 568h-56v142h141v-143l-60-145h-68z" glyph-name="quotedblright" horiz-adv-x="451" unicode="&#x201d;"/><glyph d="M120 0h-56v142h141v-143l-60-145h-68z" glyph-name="quotesinglbase" horiz-adv-x="270" unicode="&#x201a;"/><glyph d="M120 0h-56v142h141v-143l-60-145h-68zM326 0h-56v142h141v-143l-60-145h-68z" glyph-name="quotedblbase" horiz-adv-x="476" unicode="&#x201e;"/><glyph d="M205 166q-28 0-53 10.5t-43.5 29-29 43.5-10.5 53 10.5 53 29 43.5 43.5 29 53 10.5 53-10.5 43.5-29 29-43.5 10.5-53-10.5-53-29-43.5-43.5-29-53-10.5z" glyph-name="bullet" horiz-adv-x="410" unicode="&#x2022;"/><glyph d="M77 321h437v-87h-437v87z" glyph-name="minus" horiz-adv-x="590" unicode="&#x2212;"/><glyph d="M58 310h98q-3 22-3 45v14t1 14h-122l26 74h109q16 57 48.5 105t77.5 82.5 101 54 119 19.5q64 0 115.5-17t96.5-49l-38-101q-32 28-75.5 46.5t-98.5 18.5q-43 0-80-12t-66-33.5-50.5-50.5-34.5-63h378l-26-74h-370q-1-7-1-14v-14q0-23 3-45h344l-25-74h-297q29-64 88-103t137-39q50 0 93 14.5t78 41.5v-114q-32-19-76-31.5t-95-12.5q-60 0-114 18t-98.5 50-77.5 77-51 99h-140z" glyph-name="Euro" horiz-adv-x="757" unicode="&#x20ac;"/><glyph d="M109 402h-78v98h86q-19 14-30 37t-11 49q0 54 38.5 89t103.5 35h132v-98h-102q-30 0-48-14t-18-40q0-27 18-42t40-16h110v-98h-131v-402h-110v402zM435 500h110v-500h-110v500zM438 595q-19 19-19 50t20.5 52 51.5 21 51.5-21 20.5-52-19-50h-106v0z" glyph-name="uniFB01" horiz-adv-x="615" unicode="&#xfb01;"/><glyph d="M109 402h-78v98h86q-19 14-30 37t-11 49q0 54 38.5 89t103.5 35h132v-98h-102q-30 0-48-14t-18-40q0-27 18-42t40-16h110v-98h-131v-402h-110v402zM435 710h110v-710h-110v710z" glyph-name="uniFB02" horiz-adv-x="615" unicode="&#xfb02;"/><glyph d="M61 595q-19 19-19 50t20.5 52 51.5 21 51.5-21 20.5-52-19-50h-106v0z" glyph-name="glyph329" horiz-adv-x="228"/><glyph d="M0 563q-75 0-120 41t-48 106h78q2-35 25-56.5t65-21.5 65 21.5 25 56.5h78q-3-65-48-106t-120-41z" glyph-name="breve" unicode="&#x2d8;"/><glyph d="M-163.99 652.96l40.998 67.9961 122.992-74.9951 122.992 74.9951 40.998-67.9961-163.99-102.993z" glyph-name="caron" unicode="&#x2c7;"/><glyph d="M164 619l-41-68-123 75-123-75-41 68 164 103z" glyph-name="circumflex" unicode="&#x2c6;"/><glyph d="M1 570q-27 0-47.5 18.5t-20.5 48.5q0 28 19.5 47.5t48.5 19.5q28 0 47-19.5t19-47.5q0-29-19.5-48t-46.5-19z" glyph-name="dotaccent" unicode="&#x2d9;"/><glyph d="M-102 710h117l-126-161h-75zM69 710h116l-126-161h-74z" glyph-name="hungarumlaut" unicode="&#x2dd;"/><glyph d="M-34-50h114l-94-165h-73z" glyph-name="glyph335"/><glyph d="M18-191q-21 0-40 6.5t-33.5 18.5-23 29.5-8.5 39.5q0 32 20.5 58t43.5 39h110q-72-34-72-75 0-17 11-27t31-10q11 0 18.5 3.5t12.5 5.5v-69q-14-11-32-15t-38-4z" glyph-name="ogonek" unicode="&#x2db;"/><glyph d="M0 559q-22 0-41.5 8t-34 22-23 32.5-8.5 40.5 8.5 41 23 33 34 22 41.5 8 41.5-8 34-22 23-33 8.5-41-8.5-40.5-23-32.5-34-22-41.5-8zM0 615q20 0 34 13.5t14 33.5q0 21-14 34.5t-34 13.5-34-13.5-14-34.5q0-20 14-33.5t34-13.5z" glyph-name="ring" unicode="&#x2da;"/><glyph d="M-176 584q8 49 40 75.5t68 26.5q21 0 39-6.5t33.5-14.5 28.5-14.5 25-6.5q20 0 30.5 10t15.5 33h77l-3-22q-8-48-39.5-75t-69.5-27q-21 0-39 6.5t-33.5 14.5-29 14.5-25.5 6.5q-19 0-29-10t-16-33h-77z" glyph-name="tilde" unicode="&#x2dc;"/><glyph d="M-44 710h111l-58-163h-76z" glyph-name="glyph339"/><glyph d="M-98 570q-28 0-48 19t-20 48q0 27 19.5 47t48.5 20q28 0 47.5-20t19.5-47q0-29-20-48t-47-19zM99 570q-27 0-47.5 19t-20.5 48q0 27 19.5 47t48.5 20q28 0 47.5-20t19.5-47q0-29-20-48t-47-19z" glyph-name="glyph340"/><glyph d="M-167 640h335v-65h-335v65z" glyph-name="glyph341"/><glyph d="M-171 301l308 190 35-58-308-190z" glyph-name="glyph342"/><glyph d="M-1 770q-36 0-66 12t-52 33-34.5 49-13.5 60h76q2-35 25.5-60.5t65.5-25.5 66 25.5 26 60.5h76q-2-32-14.5-60t-34.5-49-52.5-33-67.5-12z" glyph-name="glyph343"/><glyph d="M-174 837l174 91 174-91-37-74-137 74-137-74z" glyph-name="glyph344"/><glyph d="M-103 913h130l75-145h-87z" glyph-name="glyph345"/><glyph d="M-120 913h121l-114-145h-81zM72 913h120l-113-145h-81z" glyph-name="glyph346"/><glyph d="M-153 881h306v-81h-306v81z" glyph-name="glyph347"/><glyph d="M20-191q-45 0-78 24t-33 68q0 33 21 59.5t46 39.5h116q-76-33-76-75 0-37 43-37 11 0 20 3.5t14 5.5v-69q-31-19-73-19z" glyph-name="glyph348"/><glyph d="M-167 393h335v-74h-335v74z" glyph-name="glyph349"/><glyph d="M-215 267l400 248 40-65-400-248z" glyph-name="glyph350"/><glyph d="M-357 600h714v-74h-714v74z" glyph-name="glyph351"/></font>
</defs>
</svg>
