<svg xmlns="http://www.w3.org/2000/svg"><defs><font horiz-adv-x="0"><font-face ascent="800" bbox="-248 -215 1143 934" cap-height="710" descent="-200" panose-1="2 11 3 4 0 0 0 0 0 0" slope="-12" underline-position="-120" underline-thickness="60" unicode-range="U+000D-FB02" x-height="500"/><missing-glyph d="M4 19l147 691h496l-4-19-147-691h-496zM325 370l281 321h-429zM25 29l288 328-149 325zM483 28l139 653-289-329zM40 19h429l-147 320z" horiz-adv-x="496"/><glyph d="M4 19l147 691h496l-4-19-147-691h-496zM325 370l281 321h-429zM25 29l288 328-149 325zM483 28l139 653-289-329zM40 19h429l-147 320z" glyph-name=".notdef" horiz-adv-x="496"/><glyph glyph-name="glyph1"/><glyph glyph-name="uni000D" horiz-adv-x="262" unicode="&#xd;"/><glyph glyph-name="space" horiz-adv-x="262" unicode="&#x20;"/><glyph d="M137 461l53 249h72l-53-249-68-252h-45zM80-8q-23 0-40 15.5t-17 38.5q0 22 11.5 38.5t28.5 27.5h75q8-7 12.5-19.5t4.5-24.5q0-35-22-55.5t-53-20.5z" glyph-name="exclam" horiz-adv-x="259" unicode="&#x21;"/><glyph d="M135 710h62v-247h-62v247zM337 710h62v-247h-62v247z" glyph-name="quotedbl" horiz-adv-x="406" unicode="&#x22;"/><glyph d="M104 0l64 206h-129v58h148l58 187h-131v58h149l63 201h63l-63-201h192l63 201h62l-63-201h129v-58h-147l-58-187h129v-58h-148l-64-206h-62l64 206h-192l-64-206h-63zM442 264l58 187h-192l-58-187h192z" glyph-name="numbersign" horiz-adv-x="703" unicode="&#x23;"/><glyph d="M177-1q-65 15-106.5 52.5t-60.5 77.5l63 37q9-21 25-40.5t37.5-35 49.5-24.5 63-9q39 0 68 10t48.5 27 29.5 39.5 10 46.5q0 45-24 77t-72 61l-74 46q-54 39-83 81.5t-29 98.5q0 39 15 70.5t42 54 65.5 35.5 85.5 14l18 80h68l-19-88q44-11 79-37.5t57-62.5l-60-37q-25 42-64.5 61t-84.5 19q-27 0-51-6.5t-42.5-20-29.5-34-10-48.5q2-39 22-66.5t62-56.5l74-47q28-20 51-40t39.5-43 26-49.5 9.5-58.5q0-38-14.5-72.5t-44-61-72.5-42-100-15.5l-18-80h-68z" glyph-name="dollar" horiz-adv-x="528" unicode="&#x24;"/><glyph d="M421 591q0-31-11.5-58.5t-32-47.5-48.5-32-60-12q-30 0-53.5 10.5t-39.5 27.5-24.5 40-8.5 47q0 31 11.5 58.5t31.5 48 48 32 60 11.5q30 0 54-10.5t40-27.5 24.5-39.5 8.5-47.5zM195 571q0-38 23.5-59t55.5-21q39 0 66.5 27t27.5 69q0 38-23.5 59t-55.5 21q-20 0-37-7.5t-29.5-20-20-30-7.5-38.5zM107 384h271l-12-58h-272zM324 142q0-31-11.5-58.5t-32-47.5-48-32-59.5-12q-30 0-54 10.5t-40 27.5-24.5 40-8.5 47q0 31 11.5 58.5t31.5 47.5 48 32 60 12q30 0 54-10.5t40-27.5 24.5-40 8.5-47zM98 121q0-38 24-58.5t56-20.5q40 0 67 27t27 69q0 38-24 58.5t-56 20.5q-20 0-37-7.5t-29.5-20-20-30-7.5-38.5z" glyph-name="percent" horiz-adv-x="423" unicode="&#x25;"/><glyph d="M440 126q-27-65-83-99.5t-128-34.5q-49 0-87 17t-64.5 45.5-40 65.5-13.5 77q0 48 18 92t50.5 77.5 78 53.5 101.5 20q19 0 37.5-4t41.5-14l-88 288h358l-13-64h-255l198-646h-72zM94 203q0-32 10.5-58.5t29.5-46 44.5-30 55.5-10.5q37 0 69 13.5t54.5 37 35.5 55 13 67.5q0 31-11 57.5t-29.5 45.5-44.5 29.5-56 10.5q-37 0-68-13.5t-54-37-36-54.5-13-66z" glyph-name="ampersand" horiz-adv-x="602" unicode="&#x26;"/><glyph d="M135 710h62v-247h-62v247z" glyph-name="quotesingle" horiz-adv-x="204" unicode="&#x27;"/><glyph d="M80-136q-17 65-26.5 128.5t-9.5 124.5q0 80 12.5 157t39.5 153.5 69 153.5 101 157l56-26q-56-77-96-149.5t-66.5-143.5-39-143-12.5-148q0-57 8-118.5t24-121.5z" glyph-name="parenleft" horiz-adv-x="256" unicode="&#x28;"/><glyph d="M198 738q17-65 26.5-128.5t9.5-124.5q0-80-12.5-157t-39.5-153.5-69-153.5-101-157l-56 26q55 77 95.5 149.5t67 143.5 39 143 12.5 148q0 57-8 118.5t-24 121.5z" glyph-name="parenright" horiz-adv-x="256" unicode="&#x29;"/><glyph d="M156 411l82 112-133 46 16 52 134-46v135h53v-134l133 43 16-49-132-45 82-112-44-32-82 113-81-112z" glyph-name="asterisk" horiz-adv-x="443" unicode="&#x2a;"/><glyph d="M81 303h190v183h58v-183h190v-58h-190v-188h-58v188h-190v58z" glyph-name="plus" horiz-adv-x="590" unicode="&#x2b;"/><glyph d="M73 0h-46l24 112h107l-24-113-85-139h-50z" glyph-name="comma" horiz-adv-x="250" unicode="&#x2c;"/><glyph d="M80 309h239l-15-72h-239z" glyph-name="hyphen" horiz-adv-x="375" unicode="&#x2d;"/><glyph d="M91-8q-27 0-46.5 19.5t-19.5 46.5 19.5 47 46.5 20 46.5-20 19.5-47-19.5-46.5-46.5-19.5z" glyph-name="period" horiz-adv-x="241" unicode="&#x2e;"/><glyph d="M342 710h65l-342-710h-67z" glyph-name="slash" horiz-adv-x="359" unicode="&#x2f;"/><glyph d="M812 385q0-75-28-146t-81-125.5-128.5-88-170.5-33.5q-80 0-141.5 27.5t-103.5 74-64 106.5-22 125q0 75 28 146t81 125.5 128.5 88 170.5 33.5q79 0 141-27.5t104-74 64-106.5 22-125zM146 331q0-54 17.5-103.5t51-87 82.5-59.5 113-22q75 0 136 26t104 69.5 66 101.5 23 123q0 54-17 103t-50.5 86.5-82.5 60-113 22.5q-75 0-136-25.5t-104-69.5-66.5-102-23.5-123z" glyph-name="zero" horiz-adv-x="841" unicode="&#x30;"/><glyph d="M181 647l85 71-153-718h-70z" glyph-name="one" horiz-adv-x="266" unicode="&#x31;"/><glyph d="M316 308q-5-1-10-1h-9q-41 1-74 17t-55.5 41.5-34.5 58.5-12 69q0 45 16.5 85.5t46.5 71.5 72.5 49.5 94.5 18.5q45 0 80.5-15.5t60-42 37-60.5 12.5-71q0-43-20.5-93t-67.5-92l-307-278h311l-14-66h-466zM190 499q0-28 9.5-51.5t26.5-40.5 40-26.5 50-9.5q34 0 62.5 12t49.5 32.5 32.5 48.5 11.5 61q0 28-9.5 51t-26.5 39.5-40 26-50 9.5q-34 0-62.5-12t-49.5-32.5-32.5-48-11.5-59.5z" glyph-name="two" horiz-adv-x="542" unicode="&#x32;"/><glyph d="M456 240q0-50-16.5-94.5t-49-79-79.5-54.5-108-20q-71 0-121 29.5t-75 76.5l63 36q19-36 55-55.5t84-19.5q39 0 71 13.5t55 37 35.5 55.5 12.5 69q0 33-11 60.5t-31.5 47.5-50 31-66.5 11h-45l213 260h-261l14 66h378l-224-274q40-9 70-29t49-46.5 28.5-57.5 9.5-63z" glyph-name="three" horiz-adv-x="513" unicode="&#x33;"/><glyph d="M404 199h-407l587 519-96-454h95l-14-65h-95l-42-199h-70zM418 264l60 282-317-282h257z" glyph-name="four" horiz-adv-x="619" unicode="&#x34;"/><glyph d="M474 241q0-53-18-98.5t-51-79-80.5-52.5-106.5-19q-69 0-118.5 30.5t-73.5 77.5l64 35q17-35 53-55.5t81-20.5q40 0 72.5 13.5t56 37 36.5 55.5 13 70q0 33-11 60t-30.5 46.5-46.5 30.5-58 11q-72 0-119-45l-44 24 78 348h350l-14-66h-281l-48-211q26 10 46 13t39 3q51 0 90-17.5t66-46 41-66.5 14-78z" glyph-name="five" horiz-adv-x="521" unicode="&#x35;"/><glyph d="M508 241q0-52-18-97.5t-51.5-79-81-53-106.5-19.5q-50 0-89.5 17.5t-66.5 46-41 66-14 78.5q0 52 19.5 96t58.5 93l260 321h88l-219-267q14 4 25.5 5t23.5 1q50 0 89.5-17.5t66.5-46 41.5-66.5 14.5-78zM112 206q0-33 11-60t30.5-46.5 46-30 57.5-10.5q40 0 73 13.5t56 37 36 55.5 13 70q0 33-11 60t-30 46.5-46 30-58 10.5q-39 0-71.5-13.5t-56.5-37.5-37-56-13-69z" glyph-name="six" horiz-adv-x="544" unicode="&#x36;"/><glyph d="M468 644h-354l14 66h465l-503-710h-80z" glyph-name="seven" horiz-adv-x="502" unicode="&#x37;"/><glyph d="M501 569q0-45-19.5-86.5t-63.5-70.5q48-31 70-77.5t22-92.5q0-51-17.5-96.5t-50-79.5-79-54-103.5-20q-51 0-91 17t-68 45-42.5 65-14.5 78q0 37 10 73t29.5 67 49 55.5 68.5 39.5q-23 25-32 51t-9 50q0 38 13 72t36.5 59 57 39.5 74.5 14.5q37 0 66.5-12.5t50.5-33 32-47.5 11-56zM230 541q0-41 24.5-67t66.5-26q25 0 45.5 9t35 25 22 36.5 7.5 43.5q0 43-26 67.5t-67 24.5q-24 0-44-9t-34-25-22-36.5-8-42.5zM116 205q0-67 41.5-106.5t107.5-39.5q38 0 70 14t55 38 35.5 56.5 12.5 68.5q0 33-11 59.5t-30.5 46-47 30-60.5 10.5q-38 0-70-14t-55-38-35.5-56.5-12.5-68.5z" glyph-name="eight" horiz-adv-x="563" unicode="&#x38;"/><glyph d="M81 469q0 52 18 97t51.5 79 81 53.5 106.5 19.5q50 0 89.5-17.5t66.5-46 41-66.5 14-78q0-52-19.5-96t-58.5-93l-260-321h-88l219 267q-14-4-25.5-5t-23.5-1q-50 0-89.5 17.5t-66.5 46-41.5 66-14.5 78.5zM477 504q0 33-11 60t-30.5 46.5-46 30-57.5 10.5q-40 0-73-13.5t-56-37-36-56-13-69.5q0-33 11-60t30-46.5 45.5-30 58.5-10.5q39 0 71.5 13.5t56.5 37.5 37 56 13 69z" glyph-name="nine" horiz-adv-x="544" unicode="&#x39;"/><glyph d="M94-8q-27 0-46.5 19.5t-19.5 46.5 19.5 47 46.5 20 46.5-20 19.5-47-19.5-46.5-46.5-19.5zM176 375q-27 0-46.5 19.5t-19.5 46.5 19.5 47 46.5 20 46.5-20 19.5-47-19.5-46.5-46.5-19.5z" glyph-name="colon" horiz-adv-x="270" unicode="&#x3a;"/><glyph d="M176 375q-27 0-46.5 19.5t-19.5 46.5 19.5 47 46.5 20 46.5-20 19.5-47-19.5-46.5-46.5-19.5zM75 0h-46l24 112h107l-24-113-85-139h-50z" glyph-name="semicolon" horiz-adv-x="272" unicode="&#x3b;"/><glyph d="M76 415h446v-58h-446v58zM76 191h446v-57h-446v57z" glyph-name="equal" horiz-adv-x="590" unicode="&#x3d;"/><glyph d="M223 364h46q41 0 74 12.5t56 33.5 35.5 49.5 12.5 61.5q0 59-36.5 95t-92.5 36q-34 0-62-11t-48.5-30-32.5-45-13-57h-68q2 43 19.5 81t47.5 66.5 71 45 92 16.5q46 0 82-15.5t60.5-42 37-61.5 12.5-74q0-45-17-85.5t-49-71.5-78-49.5-104-18.5h-59zM266 112q8-7 13-19.5t5-24.5q0-35-22-55.5t-53-20.5q-24 0-40.5 15.5t-16.5 38.5q0 22 11 38.5t29 27.5h74z" glyph-name="question" horiz-adv-x="515" unicode="&#x3f;"/><glyph d="M423-8q-81 0-146 26.5t-110.5 73.5-70 110-24.5 137q0 84 31.5 153.5t85 120 124.5 78 149 27.5q74 0 136.5-22t108.5-62.5 71.5-98 25.5-129.5q0-63-15.5-109t-40.5-76-57-44-65-14q-32 0-58 14.5t-40 40.5q-23-23-56.5-38t-78.5-15q-37 0-66.5 13.5t-50 37-31.5 54-11 65.5q0 45 16.5 85.5t45.5 70.5 68.5 47.5 86.5 17.5q38 0 67-12t49-32l6 31h60l-52-241q-8-37 6-61t48-24q22 0 42 12.5t35.5 37 25 60 9.5 81.5q0 61-22 109t-60 81-90.5 50.5-113.5 17.5q-69 0-129-24t-105-67-71-103-26-133q0-62 20-115.5t58-92.5 92-61.5 123-22.5q47 0 96.5 10t91.5 31l21-52q-47-21-103.5-32.5t-105.5-11.5zM298 341q0-56 29-88.5t80-32.5q31 0 60.5 14t49.5 43l3 18 33 154q-17 27-46.5 39.5t-58.5 12.5q-30 0-57.5-12t-48-33.5-32.5-51-12-63.5z" glyph-name="at" horiz-adv-x="809" unicode="&#x40;"/><glyph d="M494 201h-332l-136-201h-85l493 718 187-718h-76zM477 269l-73 288-195-288h268z" glyph-name="A" horiz-adv-x="668" unicode="&#x41;"/><glyph d="M197 710h204q49 0 86-14t62-37.5 37-54 12-62.5q0-65-35-111t-90-67q45-16 75.5-52.5t30.5-91.5q0-102-73-161t-209-59h-251zM355 396q39 0 69.5 10.5t52.5 29 33.5 43.5 11.5 54q0 22-8 41.5t-23.5 34.5-39 24-54.5 9h-141l-53-246h152zM310 69q47 0 83 11.5t61 31 37.5 46.5 12.5 59q0 24-9 44.5t-27.5 36.5-46 25-64.5 9h-167l-56-263h176z" glyph-name="B" horiz-adv-x="639" unicode="&#x42;"/><glyph d="M639 61q-48-34-107-51.5t-128-17.5q-80 0-142 27.5t-104.5 74-64.5 106.5-22 125q0 75 27.5 146t80 125.5 128 88 172.5 33.5q82 0 143.5-28.5t103.5-77.5l-56-49q-34 38-83 61t-113 23q-73 0-133-26t-103-69.5-66.5-100.5-23.5-120q0-53 16.5-101t49.5-85.5 81.5-59.5 112.5-22q57 0 105 16t86 43z" glyph-name="C" horiz-adv-x="689" unicode="&#x43;"/><glyph d="M197 710h196q78 0 138.5-23t102.5-62.5 64-93.5 22-116q0-87-34-162.5t-95.5-131.5-146-88.5-185.5-32.5h-213zM261 69q87 0 158 28t120.5 75.5 76.5 109 27 128.5q0 49-17 91.5t-48.5 73.5-78 48.5-104.5 17.5h-139l-122-572h127z" glyph-name="D" horiz-adv-x="740" unicode="&#x44;"/><glyph d="M197 710h407l-15-71h-334l-51-239h274l-16-72h-273l-55-257h334l-15-71h-407z" glyph-name="E" horiz-adv-x="554" unicode="&#x45;"/><glyph d="M197 710h401l-16-72h-328l-50-238h259l-15-72h-258l-70-328h-74z" glyph-name="F" horiz-adv-x="524" unicode="&#x46;"/><glyph d="M677 73q-58-39-128-60t-145-21q-80 0-142 27.5t-104.5 74-64.5 106.5-22 125q0 75 27.5 146t80 125.5 128 88 172.5 33.5q82 0 149-27.5t109-78.5l-55-49q-33 40-88.5 62t-119.5 22q-73 0-133-26t-103-69.5-66.5-100.5-23.5-120q0-53 16.5-101t49.5-85.5 81.5-59.5 112.5-22q123 0 204 56l45 209h-207l47 72h250z" glyph-name="G" horiz-adv-x="770" unicode="&#x47;"/><glyph d="M197 710h74l-67-310h418l67 310h74l-151-710h-74l70 328h-418l-70-328h-74z" glyph-name="H" horiz-adv-x="764" unicode="&#x48;"/><glyph d="M197 710h74l-151-710h-74z" glyph-name="I" horiz-adv-x="272" unicode="&#x49;"/><glyph d="M423 198q-24-112-84.5-159t-151.5-47q-46 0-83.5 14t-62.5 41-34.5 65.5.5 86.5h74q-13-69 17.5-102.5t92.5-33.5q60 0 101.5 34t55.5 102l109 511h75z" glyph-name="J" horiz-adv-x="525" unicode="&#x4a;"/><glyph d="M197 710h74l-75-355 407 355h94l-419-367 294-343h-84l-295 341-73-341h-74z" glyph-name="K" horiz-adv-x="616" unicode="&#x4b;"/><glyph d="M197 710h74l-136-638h331l-15-72h-405z" glyph-name="L" horiz-adv-x="518" unicode="&#x4c;"/><glyph d="M199 718l251-391 428 391-153-718h-74l112 525-329-302-200 314-114-537h-74z" glyph-name="M" horiz-adv-x="877" unicode="&#x4d;"/><glyph d="M236 547l-116-547h-74l153 718 394-558 117 550h73l-153-718z" glyph-name="N" horiz-adv-x="784" unicode="&#x4e;"/><glyph d="M810 385q0-75-27.5-146t-79.5-125.5-128-88-173-33.5q-80 0-141.5 27.5t-103.5 74-64 106.5-22 125q0 75 27.5 146t80 125.5 128 88 172.5 33.5q79 0 141-27.5t104-74 64-106.5 22-125zM148 331q0-54 16.5-102.5t49.5-85 81.5-58.5 112.5-22q73 0 133.5 25.5t103 69 66 101 23.5 120.5q0 54-16.5 102.5t-49.5 85-81.5 58.5-112.5 22q-73 0-133-26t-103-69.5-66.5-100.5-23.5-120z" glyph-name="O" horiz-adv-x="836" unicode="&#x4f;"/><glyph d="M197 710h189q53 0 92-14t65-38.5 39-58 13-72.5q0-52-18.5-95.5t-54.5-75-89.5-49-123.5-17.5h-128l-61-290h-74zM325 359q46 0 82.5 12.5t61.5 34.5 38 53 13 67q0 51-33.5 83.5t-106.5 32.5h-124l-60-283h129z" glyph-name="P" horiz-adv-x="573" unicode="&#x50;"/><glyph d="M810 385q0-78-29-151t-86-129l82-94-53-47-83 97q-48-32-107.5-50.5t-131.5-18.5q-80 0-141.5 27.5t-103.5 74-64 106.5-22 125q0 75 27.5 146t80 125.5 128 88 172.5 33.5q79 0 141-27.5t104-74 64-106.5 22-125zM558 265l89-104q42 43 64.5 99t22.5 119q0 54-16.5 102.5t-49.5 85-81.5 58.5-112.5 22q-73 0-133-26t-103-69.5-66.5-100.5-23.5-120q0-54 16.5-102.5t49.5-85 81.5-58.5 112.5-22q54 0 101 13.5t85 39.5l-88 103z" glyph-name="Q" horiz-adv-x="843" unicode="&#x51;"/><glyph d="M297 324h-108l-69-324h-74l151 710h194q50 0 87.5-13t62.5-35.5 37.5-54 12.5-68.5q0-89-56.5-145.5t-160.5-67.5l182-326h-81zM331 389q91 0 138 41t47 105q0 49-33 78t-102 29h-125l-54-253h129z" glyph-name="R" horiz-adv-x="619" unicode="&#x52;"/><glyph d="M474 183q0-39-15.5-73.5t-45.5-60.5-73.5-41.5-98.5-15.5q-41 0-77 10.5t-66 29-52.5 43.5-36.5 54l68 41q9-21 25-40.5t37.5-34.5 48.5-24 59-9q72 0 111 33t39 81q0 47-25 79.5t-71 64.5l-67 46q-56 38-84 80t-28 98q0 40 16 72.5t43.5 55 65.5 34.5 83 12q60 0 113-25t89-83l-66-42q-26 42-61.5 61t-80.5 19q-54 0-91-27t-37-77q0-39 21.5-66.5t63.5-56.5l67-47q28-20 51-40t39.5-43 26-49.5 9.5-58.5z" glyph-name="S" horiz-adv-x="526" unicode="&#x53;"/><glyph d="M295 638h-200l15 72h474l-15-72h-201l-135-638h-74z" glyph-name="T" horiz-adv-x="501" unicode="&#x54;"/><glyph d="M642 269q-28-133-104-205t-212-72q-63 0-112.5 19t-80.5 55-42 87 3 116l93 441h74l-94-442q-11-51-4.5-89.5t28.5-64 57-38.5 81-13q91 0 154.5 51t84.5 154l94 442h74z" glyph-name="U" horiz-adv-x="727" unicode="&#x55;"/><glyph d="M99 710h75l126-552 360 552h83l-475-718z" glyph-name="V" horiz-adv-x="646" unicode="&#x56;"/><glyph d="M115 710h70l54-514 302 522 77-526 271 518h78l-384-718-77 541-313-541z" glyph-name="W" horiz-adv-x="884" unicode="&#x57;"/><glyph d="M298 372l-174 338h79l146-283 266 283h91l-325-346 188-364h-80l-159 309-290-309h-91z" glyph-name="X" horiz-adv-x="627" unicode="&#x58;"/><glyph d="M280 300l-174 410h81l139-338 282 338h93l-347-410-64-300h-74z" glyph-name="Y" horiz-adv-x="612" unicode="&#x59;"/><glyph d="M506 638h-367l15 72h503l-551-638h412l-16-72h-547z" glyph-name="Z" horiz-adv-x="586" unicode="&#x5a;"/><glyph d="M196 735h175l-12-59h-111l-160-752h110l-12-59h-175z" glyph-name="bracketleft" horiz-adv-x="296" unicode="&#x5b;"/><glyph d="M120-134h-175l12 59h111l160 752h-110l12 59h175z" glyph-name="bracketright" horiz-adv-x="294" unicode="&#x5d;"/><glyph d="M15 0h423l-13-60h-423z" glyph-name="underscore" horiz-adv-x="549" unicode="&#x5f;"/><glyph d="M63 710h84l59-160h-55z" glyph-name="grave" unicode="&#x60;"/><glyph d="M420 50q-31-26-70.5-42t-90.5-16q-52 0-92.5 18.5t-68 49.5-42 72-14.5 87q0 57 21.5 109.5t59.5 92 91.5 63.5 117.5 24q55 0 97.5-18.5t70.5-49.5l13 60h71l-106-500h-68zM274 59q45 0 87.5 19t73.5 54l48 230q-23 38-64.5 58.5t-89.5 20.5q-45 0-83.5-17t-67.5-46-45.5-68.5-16.5-85.5q0-36 11-66.5t31.5-52 49.5-34 66-12.5z" glyph-name="a" horiz-adv-x="610" unicode="&#x61;"/><glyph d="M177 710h70l-56-258q30 25 69.5 40.5t89.5 15.5q51 0 91.5-18.5t68-49.5 42-72 14.5-87q0-57-21-109.5t-59.5-92-91.5-63.5-117-24q-56 0-98 18t-71 49l-12-59h-70zM335 441q-45 0-88-19.5t-74-54.5l-49-229q23-38 65-58.5t90-20.5q45 0 84 16.5t68 46 45.5 69 16.5 85.5q0 36-11 66.5t-31.5 52-50 34-65.5 12.5z" glyph-name="b" horiz-adv-x="608" unicode="&#x62;"/><glyph d="M474 66q-38-34-86-54t-108-20q-57 0-101 19.5t-74 52-45.5 75-15.5 88.5q0 58 21.5 109.5t59.5 89.5 89.5 60 112.5 22q65 0 115.5-26t79.5-75l-59-41q-23 37-59.5 56t-81.5 19q-44 0-81-16t-65-43.5-43.5-66-15.5-83.5q0-42 14-74t37-54 54-33.5 65-11.5q42 0 76.5 15t63.5 41z" glyph-name="c" horiz-adv-x="529" unicode="&#x63;"/><glyph d="M420 50q-32-26-71.5-42t-90.5-16-91.5 18.5-68 49.5-42 72-14.5 87q0 57 21.5 109.5t59.5 92 91.5 63.5 117.5 24q54 0 96.5-18.5t71.5-50.5l58 271h71l-151-710h-68zM274 59q45 0 87.5 19t73.5 54l48 229q-23 38-64.5 59t-89.5 21q-45 0-83.5-17t-67.5-46-45.5-68.5-16.5-85.5q0-36 11-66.5t31.5-52 49.5-34 66-12.5z" glyph-name="d" horiz-adv-x="610" unicode="&#x64;"/><glyph d="M286 59q43 0 79.5 15.5t64.5 42.5l47-50q-38-35-87.5-55t-109.5-20q-57 0-101 19.5t-74 52-45.5 75-15.5 88.5q0 58 21.5 109.5t59.5 89.5 89.5 60 112.5 22q60 0 104-22.5t71-60.5 36-87-2-102h-419q-1-45 13-78.5t38-55 54.5-32.5 63.5-11zM322 443q-32 0-63.5-9.5t-57.5-28-46-45.5-29-62h339q3 68-37.5 106.5t-105.5 38.5z" glyph-name="e" horiz-adv-x="572" unicode="&#x65;"/><glyph d="M158 436h-97l13 64h104q-15 14-24.5 35.5t-9.5 45.5q0 57 45 93t123 36h108l-14-64h-91q-48 0-77-20t-29-59q0-27 17-46t51-21h98l-13-64h-133l-93-436h-71z" glyph-name="f" horiz-adv-x="336" unicode="&#x66;"/><glyph d="M489 112q10-74-5.5-131t-51.5-96-90.5-59-123.5-20q-28 0-57 4t-56.5 12.5-51.5 21.5-42 31l45 59q26-27 69.5-43.5t95.5-16.5q54 0 93.5 15.5t63.5 42.5 33.5 63 4.5 78q-37-29-77-42.5t-82-13.5q-50 0-89 16.5t-66 45.5-41.5 68.5-14.5 84.5q0 57 20 107t57.5 87.5 89.5 59.5 117 22q52 0 91.5-16.5t67.5-44.5l11 53h71zM271 84q44 0 84.5 18.5t71.5 51.5l46 216q-23 34-62.5 52.5t-84.5 18.5q-44 0-81.5-15t-65.5-42-44-64.5-16-82.5q0-73 40-113t112-40z" glyph-name="g" horiz-adv-x="601" unicode="&#x67;"/><glyph d="M177 710h70l-57-265q32 30 72 46.5t88 16.5q45 0 81-16.5t59-47 31.5-72.5-2.5-93l-59-279h-71l58 274q16 78-18 122.5t-103 44.5q-47 0-86-22t-69-61l-75-358h-70z" glyph-name="h" horiz-adv-x="584" unicode="&#x68;"/><glyph d="M132 500h71l-106-500h-71zM165 619q-13 11-13 32 0 29 19 48t45 19q20 0 34-12.5t14-31.5q0-17-9.5-32t-20.5-23h-69z" glyph-name="i" horiz-adv-x="229" unicode="&#x69;"/><glyph d="M-102-117h26q27 0 45 5.5t29.5 17 18.5 29.5 12 44l111 521h70l-112-531q-9-41-22.5-70t-34.5-47.5-51-27-72-8.5h-34zM173 619q-13 11-13 32 0 29 19 48t45 19q20 0 34-12.5t14-31.5q0-17-9.5-32t-20.5-23h-69z" glyph-name="j" horiz-adv-x="236" unicode="&#x6a;"/><glyph d="M177 710h70l-94-442 289 232h93l-304-242 220-258h-82l-219 256-54-256h-70z" glyph-name="k" horiz-adv-x="499" unicode="&#x6b;"/><glyph d="M177 710h70l-151-710h-70z" glyph-name="l" horiz-adv-x="228" unicode="&#x6c;"/><glyph d="M341 508q47 0 85-21.5t57-63.5q44 46 91.5 65.5t98.5 19.5q43 0 76-16t53.5-45.5 26-70.5-4.5-91l-61-285h-71l60 280q17 78-10 119.5t-94 41.5q-41 0-81-23.5t-69-69.5q0-30-7-62l-61-286h-70l59 280q17 76-10 118.5t-94 42.5q-42 0-78-21t-64-60l-77-360h-70l106 500h67l-11-57q65 65 153 65z" glyph-name="m" horiz-adv-x="888" unicode="&#x6d;"/><glyph d="M132 500h67l-12-57q33 31 74 48t89 17q45 0 81-16.5t59-46.5 31.5-72-2.5-94l-60-279h-70l58 278q16 75-18 119t-103 44q-47 0-86-21.5t-68-61.5l-76-358h-70z" glyph-name="n" horiz-adv-x="584" unicode="&#x6e;"/><glyph d="M566 274q0-59-21.5-110.5t-59.5-89.5-90-60-112-22q-57 0-101.5 19.5t-75 52-46.5 75-16 88.5q0 58 21.5 109.5t59.5 89.5 90 60 112 22q57 0 101.5-19.5t75-52 46.5-74.5 16-88zM117 232q0-41 14-73t37.5-54.5 54.5-34 65-11.5q43 0 80.5 15.5t65.5 43.5 43.5 66.5 15.5 83.5q0 41-14 73t-37.5 54.5-54.5 34-65 11.5q-43 0-80.5-15.5t-65-43.5-43.5-66.5-16-83.5z" glyph-name="o" horiz-adv-x="609" unicode="&#x6f;"/><glyph d="M132 500h67l-10-50q31 26 71 42t91 16 91.5-18.5 68-49.5 42-72 14.5-87q0-57-21.5-109.5t-59.5-92-91-63.5-117-24q-55 0-98 18t-71 50l-52-244h-70zM336 441q-45 0-87.5-19t-73.5-54l-49-230q23-38 64.5-58.5t89.5-20.5q45 0 84 16.5t67.5 46 45 69 16.5 85.5q0 36-11 66.5t-31 52-49.5 34-65.5 12.5z" glyph-name="p" horiz-adv-x="609" unicode="&#x70;"/><glyph d="M416 47q-30-25-69-40t-88-15q-52 0-92.5 18.5t-68 49.5-42 72-14.5 87q0 57 21.5 109.5t59.5 92 91.5 63.5 117.5 24q55 0 97-18.5t71-49.5l13 60h70l-145-684h-70zM274 59q45 0 87.5 19t73.5 54l48 230q-23 38-64.5 58.5t-89.5 20.5q-45 0-83.5-17t-67.5-46-45.5-68.5-16.5-85.5q0-36 11-66.5t31.5-52 49.5-34 66-12.5z" glyph-name="q" horiz-adv-x="609" unicode="&#x71;"/><glyph d="M132 500h70l-14-68q29 35 70.5 55t92.5 20q8 0 16.5-.5t16.5-1.5l-16-74q-20 5-44 5-48 0-88-23t-66-65l-74-348h-70z" glyph-name="r" horiz-adv-x="354" unicode="&#x72;"/><glyph d="M357 133q0-31-13-57t-35.5-44.5-53.5-29-66-10.5q-74 0-118.5 32.5t-63.5 86.5l62 28q14-41 45-62.5t79-21.5q39 0 66.5 19t27.5 51q0 31-19.5 51t-54.5 40l-42 25q-39 23-66.5 56t-27.5 78q0 29 11.5 53.5t32.5 42 49.5 27.5 63.5 10q54 0 94-25t59-70l-64-29q-11 26-33.5 43t-59.5 17q-36 0-59-17.5t-23-47.5q0-26 16-45.5t45-36.5l43-26q20-12 39-25.5t33.5-30.5 23.5-37.5 9-44.5z" glyph-name="s" horiz-adv-x="417" unicode="&#x73;"/><glyph d="M60 500h102l25 113 80 37-32-150h134l-15-64h-133l-59-272q-11-52 1-76t64-24h53l-14-64h-55q-80 0-109 37.5t-12 119.5l59 279h-89v64z" glyph-name="t" horiz-adv-x="344" unicode="&#x74;"/><glyph d="M391 57q-32-31-73.5-48t-87.5-17q-45 0-80.5 15.5t-58 44.5-30.5 70 3 92l61 286h71l-60-280q-17-80 14-120.5t102-40.5q94 0 154 83l76 358h70l-106-500h-67z" glyph-name="u" horiz-adv-x="578" unicode="&#x75;"/><glyph d="M51 500h77l100-365 251 365h86l-364-508z" glyph-name="v" horiz-adv-x="510" unicode="&#x76;"/><glyph d="M62 500h70l41-385 228 393 62-394 204 386h71l-262-502h-56l-52 337-192-337h-57z" glyph-name="w" horiz-adv-x="698" unicode="&#x77;"/><glyph d="M219 261l-140 239h75l113-192 195 192h87l-250-247 149-253h-75l-121 207-210-207h-88z" glyph-name="x" horiz-adv-x="513" unicode="&#x78;"/><glyph d="M169 25l-110 475h73l90-400 261 400h80l-452-684h-80z" glyph-name="y" horiz-adv-x="513" unicode="&#x79;"/><glyph d="M371 436h-281l13 64h414l-408-436h305l-14-64h-437z" glyph-name="z" horiz-adv-x="490" unicode="&#x7a;"/><glyph d="M152-135q-68 0-92 38t-7 121l37 170q7 34-.5 56.5t-44.5 22.5h-8l11 56h9q40 0 55.5 22t23.5 57l41 194q8 39 21 64.5t32 40.5 45 21.5 61 6.5h39l-12-57h-26q-25 0-42-4.5t-28-14.5-18.5-27.5-12.5-42.5l-38-178q-9-41-25-69t-51-41q28-14 33-42.5t-4-67.5l-36-170q-5-27-5.5-46t6-30.5 21-17 39.5-5.5h27l-13-57h-38z" glyph-name="braceleft" horiz-adv-x="299" unicode="&#x7b;"/><glyph d="M125 710h63v-894h-63v894z" glyph-name="bar" horiz-adv-x="306" unicode="&#x7c;"/><glyph d="M169 735q68 0 92-38t7-121l-37-170q-3-17-3.5-31.5t4-25 15-16.5 29.5-6h8l-11-56h-9q-40 0-55.5-22t-23.5-57l-41-194q-8-39-21-64.5t-32-40.5-45.5-21.5-60.5-6.5h-39l12 57h26q25 0 42 4.5t28 14.5 18.5 27 12.5 43l38 178q9 41 25 69t51 41q-28 14-33 42.5t4 67.5l36 170q5 27 5.5 46t-6 30.5-21 17-39.5 5.5h-27l13 57h38z" glyph-name="braceright" horiz-adv-x="299" unicode="&#x7d;"/><glyph glyph-name="uni00A0" horiz-adv-x="262" unicode="&#xa0;"/><glyph d="M172 508q23 0 39.5-15.5t16.5-38.5q0-22-11-38.5t-28-27.5h-75q-8 7-12.5 19.5t-4.5 24.5q0 35 22 55.5t53 20.5zM121 66l-53-249h-72l52 249 66 238h45z" glyph-name="exclamdown" horiz-adv-x="245" unicode="&#xa1;"/><glyph d="M20 67h112l52 248h-111l14 61h121q-26 20-40 54.5t-14 72.5q0 45 17 84t47.5 68.5 71.5 46 89 16.5q46 0 81-15.5t59-42 36.5-62 12.5-75.5h-69q0 31-10.5 55t-28 40.5-40 25-47.5 8.5q-31 0-58.5-11t-48-30.5-32.5-46.5-12-58 10.5-55 28-40.5 40-25.5 47.5-9h85l-13-61h-164l-53-248h292l-13-67h-476z" glyph-name="sterling" horiz-adv-x="570" unicode="&#xa3;"/><glyph d="M115 192h160l17 82h-160l13 61h138l-159 375h77l142-337 284 337h88l-318-375h140l-13-61h-163l-17-82h162l-13-61h-162l-28-131h-69l28 131h-161z" glyph-name="yen" horiz-adv-x="649" unicode="&#xa5;"/><glyph d="M296 632q0-24-16.5-40t-39.5-16-39.5 16-16.5 40q0 23 16.5 39t39.5 16 39.5-16 16.5-39zM74 632q0-24-16.5-40t-39.5-16-39.5 16-16.5 40q0 23 16.5 39t39.5 16 39.5-16 16.5-39z" glyph-name="dieresis" unicode="&#xa8;"/><glyph d="M439-9q-75 0-141 28.5t-115.5 78-78 115.5-28.5 141 28.5 141 78 115.5 115.5 78.5 141 29 140.5-29 115-78.5 78-115.5 28.5-141-28.5-141-78-115.5-115-78-140.5-28.5zM439 44q63 0 118.5 24.5t97 66.5 65.5 98.5 24 121.5-24 121.5-65.5 98.5-97 66.5-118.5 24.5-118.5-24.5-97-66.5-65.5-98.5-24-121.5 24-121.5 65.5-98.5 97-66.5 118.5-24.5zM456 183q-36 0-67.5 13t-54.5 36-36.5 54.5-13.5 68.5q0 36 13.5 67.5t36.5 55 54.5 36.5 67.5 13q35 0 64-12t50-35l-33-41q-14 14-34.5 24t-46.5 10q-51 0-82.5-34t-31.5-84 31.5-84 82.5-34q26 0 46.5 10t34.5 25l33-42q-20-23-49.5-35t-64.5-12z" glyph-name="copyright" horiz-adv-x="832" unicode="&#xa9;"/><glyph d="M47 254l199 216 42-40-169-184 89-191-55-25zM251 254l199 216 42-40-169-184 89-191-55-25z" glyph-name="guillemotleft" horiz-adv-x="509" unicode="&#xab;"/><glyph d="M80 309h239l-15-72h-239z" glyph-name="uni00AD" horiz-adv-x="375" unicode="&#xad;"/><glyph d="M-12 679h289l-12-54h-289z" glyph-name="macron" unicode="&#xaf;"/><glyph d="M237 470q-25 0-47.5 9.5t-39 26-26 39-9.5 47.5 9.5 47.5 26 39 39 26 47.5 9.5 47.5-9.5 39-26 26-39 9.5-47.5-9.5-47.5-26-39-39-26-47.5-9.5zM237 516q32 0 53.5 22.5t21.5 53.5-21.5 53-53.5 22q-31 0-53.5-22t-22.5-53 22.5-53.5 53.5-22.5z" glyph-name="degree" horiz-adv-x="337" unicode="&#xb0;"/><glyph d="M135 710h94l-148-160h-57z" glyph-name="acute" unicode="&#xb4;"/><glyph d="M131 184q-27 0-46.5 19.5t-19.5 46.5 19.5 47 46.5 20 46.5-20 19.5-47-19.5-46.5-46.5-19.5z" glyph-name="periodcentered" horiz-adv-x="262" unicode="&#xb7;"/><glyph d="M-3 0h54l-87-165h-83z" glyph-name="cedilla" unicode="&#xb8;"/><glyph d="M258 246l-199-216-42 40 169 184-89 191 55 25zM461 246l-199-216-42 40 169 184-89 191 55 25z" glyph-name="guillemotright" horiz-adv-x="507" unicode="&#xbb;"/><glyph d="M296 508q23 0 39.5-15.5t16.5-38.5q0-22-11-38.5t-28-27.5h-75q-8 7-12.5 19.5t-4.5 24.5q0 35 22 55.5t53 20.5zM185-193q-46 0-82 15.5t-60.5 42-37.5 61.5-13 74q0 45 17 85.5t49 71.5 78 49.5 104 18.5h59l-13-64h-47q-41 0-74-12.5t-56-33.5-35.5-49.5-12.5-61.5q0-59 36.5-95t92.5-36q34 0 62 11t48.5 30 32.5 45 13 57h68q-2-43-19-81t-47-66.5-71-45-92-16.5z" glyph-name="questiondown" horiz-adv-x="499" unicode="&#xbf;"/><glyph d="M494 201h-332l-136-201h-85l493 718 187-718h-76zM477 269l-73 288-195-288h268zM324 913h82l64-145h-59z" glyph-name="Agrave" horiz-adv-x="668" unicode="&#xc0;"/><glyph d="M494 201h-332l-136-201h-85l493 718 187-718h-76zM477 269l-73 288-195-288h268zM529 913h92l-143-145h-62z" glyph-name="Aacute" horiz-adv-x="668" unicode="&#xc1;"/><glyph d="M494 201h-332l-136-201h-85l493 718 187-718h-76zM477 269l-73 288-195-288h268zM288 818l194 108 146-111-33-47-118 92-163-92z" glyph-name="Acircumflex" horiz-adv-x="668" unicode="&#xc2;"/><glyph d="M494 201h-332l-136-201h-85l493 718 187-718h-76zM477 269l-73 288-195-288h268zM278 789q35 107 114 107 22 0 40-8t34-17 30-17 28-8q23 0 36.5 12.5t23.5 37.5h57q-19-55-46-80.5t-69-25.5q-22 0-39.5 8t-33.5 17-30.5 17-29.5 8q-21 0-34.5-13t-23.5-38h-57z" glyph-name="Atilde" horiz-adv-x="668" unicode="&#xc3;"/><glyph d="M494 201h-332l-136-201h-85l493 718 187-718h-76zM477 269l-73 288-195-288h268zM634 843q0-24-16.5-40t-39.5-16-39.5 16-16.5 40q0 23 16.5 39t39.5 16 39.5-16 16.5-39zM412 843q0-24-16.5-40t-39.5-16-39.5 16-16.5 40q0 23 16.5 39t39.5 16 39.5-16 16.5-39z" glyph-name="Adieresis" horiz-adv-x="668" unicode="&#xc4;"/><glyph d="M494 201h-332l-136-201h-85l493 718 187-718h-76zM477 269l-73 288-195-288h268zM554 843q0-19-7.5-35.5t-20-29-30-19.5-37.5-7-37 7-29.5 19.5-20 29-7.5 35.5 7.5 36 20.5 29 30 19 36 7q39 0 67-26t28-65zM408 843q0-23 15-37t36-14q22 0 37 14t15 37-15 37-37 14q-21 0-36-14t-15-37z" glyph-name="Aring" horiz-adv-x="668" unicode="&#xc5;"/><glyph d="M501 201h-332l-137-201h-84l441 641-18 69h392l19-72h-320l62-238h273l19-72h-273l66-256h320l20-72h-397zM483 270l-73 286-194-286h267z" glyph-name="AE" horiz-adv-x="998" unicode="&#xc6;"/><glyph d="M639 61q-48-34-107-51.5t-128-17.5q-80 0-142 27.5t-104.5 74-64.5 106.5-22 125q0 75 27.5 146t80 125.5 128 88 172.5 33.5q82 0 143.5-28.5t103.5-77.5l-56-49q-34 38-83 61t-113 23q-73 0-133-26t-103-69.5-66.5-100.5-23.5-120q0-53 16.5-101t49.5-85.5 81.5-59.5 112.5-22q57 0 105 16t86 43zM365 0h54l-87-165h-83z" glyph-name="Ccedilla" horiz-adv-x="689" unicode="&#xc7;"/><glyph d="M197 710h407l-15-71h-334l-51-239h274l-16-72h-273l-55-257h334l-15-71h-407zM292 913h82l64-145h-59z" glyph-name="Egrave" horiz-adv-x="554" unicode="&#xc8;"/><glyph d="M197 710h407l-15-71h-334l-51-239h274l-16-72h-273l-55-257h334l-15-71h-407zM498 913h92l-143-145h-62z" glyph-name="Eacute" horiz-adv-x="554" unicode="&#xc9;"/><glyph d="M197 710h407l-15-71h-334l-51-239h274l-16-72h-273l-55-257h334l-15-71h-407zM257 818l194 108 146-111-33-47-118 92-163-92z" glyph-name="Ecircumflex" horiz-adv-x="554" unicode="&#xca;"/><glyph d="M197 710h407l-15-71h-334l-51-239h274l-16-72h-273l-55-257h334l-15-71h-407zM603 843q0-24-16.5-40t-39.5-16-39.5 16-16.5 40q0 23 16.5 39t39.5 16 39.5-16 16.5-39zM381 843q0-24-16.5-40t-39.5-16-39.5 16-16.5 40q0 23 16.5 39t39.5 16 39.5-16 16.5-39z" glyph-name="Edieresis" horiz-adv-x="554" unicode="&#xcb;"/><glyph d="M197 710h74l-151-710h-74zM124 913h82l64-145h-59z" glyph-name="Igrave" horiz-adv-x="272" unicode="&#xcc;"/><glyph d="M197 710h74l-151-710h-74zM330 913h92l-143-145h-62z" glyph-name="Iacute" horiz-adv-x="272" unicode="&#xcd;"/><glyph d="M197 710h74l-151-710h-74zM88 818l194 108 146-111-33-47-118 92-163-92z" glyph-name="Icircumflex" horiz-adv-x="272" unicode="&#xce;"/><glyph d="M197 710h74l-151-710h-74zM434 843q0-24-16.5-40t-39.5-16-39.5 16-16.5 40q0 23 16.5 39t39.5 16 39.5-16 16.5-39zM212 843q0-24-16.5-40t-39.5-16-39.5 16-16.5 40q0 23 16.5 39t39.5 16 39.5-16 16.5-39z" glyph-name="Idieresis" horiz-adv-x="272" unicode="&#xcf;"/><glyph d="M222 710h196q78 0 138.5-23t102.5-62.5 64-93.5 22-116q0-87-34-162.5t-95.5-131.5-146-88.5-185.5-32.5h-213zM286 69q87 0 158 28t120.5 75.5 76.5 109 27 128.5q0 49-17 91.5t-48.5 73.5-78 48.5-104.5 17.5h-139l-122-572h127zM35 389h333l-12-61h-333z" glyph-name="Eth" horiz-adv-x="765" unicode="&#xd0;"/><glyph d="M236 547l-116-547h-74l153 718 394-558 117 550h73l-153-718zM319 789q35 107 114 107 22 0 40-8t34-17 30-17 28-8q23 0 36.5 12.5t23.5 37.5h57q-19-55-46-80.5t-69-25.5q-22 0-39.5 8t-33.5 17-30.5 17-29.5 8q-21 0-34.5-13t-23.5-38h-57z" glyph-name="Ntilde" horiz-adv-x="784" unicode="&#xd1;"/><glyph d="M810 385q0-75-27.5-146t-79.5-125.5-128-88-173-33.5q-80 0-141.5 27.5t-103.5 74-64 106.5-22 125q0 75 27.5 146t80 125.5 128 88 172.5 33.5q79 0 141-27.5t104-74 64-106.5 22-125zM148 331q0-54 16.5-102.5t49.5-85 81.5-58.5 112.5-22q73 0 133.5 25.5t103 69 66 101 23.5 120.5q0 54-16.5 102.5t-49.5 85-81.5 58.5-112.5 22q-73 0-133-26t-103-69.5-66.5-100.5-23.5-120zM371 913h82l64-145h-59z" glyph-name="Ograve" horiz-adv-x="836" unicode="&#xd2;"/><glyph d="M810 385q0-75-27.5-146t-79.5-125.5-128-88-173-33.5q-80 0-141.5 27.5t-103.5 74-64 106.5-22 125q0 75 27.5 146t80 125.5 128 88 172.5 33.5q79 0 141-27.5t104-74 64-106.5 22-125zM148 331q0-54 16.5-102.5t49.5-85 81.5-58.5 112.5-22q73 0 133.5 25.5t103 69 66 101 23.5 120.5q0 54-16.5 102.5t-49.5 85-81.5 58.5-112.5 22q-73 0-133-26t-103-69.5-66.5-100.5-23.5-120zM576 913h92l-143-145h-62z" glyph-name="Oacute" horiz-adv-x="836" unicode="&#xd3;"/><glyph d="M810 385q0-75-27.5-146t-79.5-125.5-128-88-173-33.5q-80 0-141.5 27.5t-103.5 74-64 106.5-22 125q0 75 27.5 146t80 125.5 128 88 172.5 33.5q79 0 141-27.5t104-74 64-106.5 22-125zM148 331q0-54 16.5-102.5t49.5-85 81.5-58.5 112.5-22q73 0 133.5 25.5t103 69 66 101 23.5 120.5q0 54-16.5 102.5t-49.5 85-81.5 58.5-112.5 22q-73 0-133-26t-103-69.5-66.5-100.5-23.5-120zM335 818l194 108 146-111-33-47-118 92-163-92z" glyph-name="Ocircumflex" horiz-adv-x="836" unicode="&#xd4;"/><glyph d="M810 385q0-75-27.5-146t-79.5-125.5-128-88-173-33.5q-80 0-141.5 27.5t-103.5 74-64 106.5-22 125q0 75 27.5 146t80 125.5 128 88 172.5 33.5q79 0 141-27.5t104-74 64-106.5 22-125zM148 331q0-54 16.5-102.5t49.5-85 81.5-58.5 112.5-22q73 0 133.5 25.5t103 69 66 101 23.5 120.5q0 54-16.5 102.5t-49.5 85-81.5 58.5-112.5 22q-73 0-133-26t-103-69.5-66.5-100.5-23.5-120zM325 789q35 107 114 107 22 0 40-8t34-17 30-17 28-8q23 0 36.5 12.5t23.5 37.5h57q-19-55-46-80.5t-69-25.5q-22 0-39.5 8t-33.5 17-30.5 17-29.5 8q-21 0-34.5-13t-23.5-38h-57z" glyph-name="Otilde" horiz-adv-x="836" unicode="&#xd5;"/><glyph d="M810 385q0-75-27.5-146t-79.5-125.5-128-88-173-33.5q-80 0-141.5 27.5t-103.5 74-64 106.5-22 125q0 75 27.5 146t80 125.5 128 88 172.5 33.5q79 0 141-27.5t104-74 64-106.5 22-125zM148 331q0-54 16.5-102.5t49.5-85 81.5-58.5 112.5-22q73 0 133.5 25.5t103 69 66 101 23.5 120.5q0 54-16.5 102.5t-49.5 85-81.5 58.5-112.5 22q-73 0-133-26t-103-69.5-66.5-100.5-23.5-120zM681 843q0-24-16.5-40t-39.5-16-39.5 16-16.5 40q0 23 16.5 39t39.5 16 39.5-16 16.5-39zM459 843q0-24-16.5-40t-39.5-16-39.5 16-16.5 40q0 23 16.5 39t39.5 16 39.5-16 16.5-39z" glyph-name="Odieresis" horiz-adv-x="836" unicode="&#xd6;"/><glyph d="M110 120l148 147-150 150 41 41 150-150 146 146 40-40-146-146 149-150-40-40-150 149-147-147z" glyph-name="multiply" horiz-adv-x="590" unicode="&#xd7;"/><glyph d="M122-58l-43 42 87 100q-5 4-9 9-42 47-64 107t-22 125q0 75 27.5 146t80 125.5 128 88 172.5 33.5q79 0 141-28 25-11 48-26l90 104 44-42-87-100q4-5 9-10 42-46 64-106t22-125q0-75-27.5-146t-79.5-125.5-128-88-173-33.5q-80 0-142 27-26 12-48 26zM295 85q49-22 113-22 73 0 133.5 25.5t103 69 66 101 23.5 120.5q0 54-16.5 102.5t-49.5 84.5q-1 1-2 3l-404-466q16-10 33-18zM148 331q0-54 16.5-102.5t49.5-85.5q1-1 1-2l404 466q-16 10-33 18-48 22-112 22-73 0-133-26t-103-69.5-66.5-100.5-23.5-120z" glyph-name="Oslash" horiz-adv-x="836" unicode="&#xd8;"/><glyph d="M642 269q-28-133-104-205t-212-72q-63 0-112.5 19t-80.5 55-42 87 3 116l93 441h74l-94-442q-11-51-4.5-89.5t28.5-64 57-38.5 81-13q91 0 154.5 51t84.5 154l94 442h74zM350 913h82l64-145h-59z" glyph-name="Ugrave" horiz-adv-x="727" unicode="&#xd9;"/><glyph d="M642 269q-28-133-104-205t-212-72q-63 0-112.5 19t-80.5 55-42 87 3 116l93 441h74l-94-442q-11-51-4.5-89.5t28.5-64 57-38.5 81-13q91 0 154.5 51t84.5 154l94 442h74zM556 913h92l-143-145h-62z" glyph-name="Uacute" horiz-adv-x="727" unicode="&#xda;"/><glyph d="M642 269q-28-133-104-205t-212-72q-63 0-112.5 19t-80.5 55-42 87 3 116l93 441h74l-94-442q-11-51-4.5-89.5t28.5-64 57-38.5 81-13q91 0 154.5 51t84.5 154l94 442h74zM315 818l194 108 146-111-33-47-118 92-163-92z" glyph-name="Ucircumflex" horiz-adv-x="727" unicode="&#xdb;"/><glyph d="M642 269q-28-133-104-205t-212-72q-63 0-112.5 19t-80.5 55-42 87 3 116l93 441h74l-94-442q-11-51-4.5-89.5t28.5-64 57-38.5 81-13q91 0 154.5 51t84.5 154l94 442h74zM661 843q0-24-16.5-40t-39.5-16-39.5 16-16.5 40q0 23 16.5 39t39.5 16 39.5-16 16.5-39zM439 843q0-24-16.5-40t-39.5-16-39.5 16-16.5 40q0 23 16.5 39t39.5 16 39.5-16 16.5-39z" glyph-name="Udieresis" horiz-adv-x="727" unicode="&#xdc;"/><glyph d="M280 300l-174 410h81l139-338 282 338h93l-347-410-64-300h-74zM495 913h92l-143-145h-62z" glyph-name="Yacute" horiz-adv-x="612" unicode="&#xdd;"/><glyph d="M197 710h74l-31-141h122q51 0 89-14t63.5-39 38.5-58.5 13-72.5q0-52-20-95.5t-56.5-74.5-89-48.5-117.5-17.5h-132l-31-149h-74zM294 218q46 0 82.5 12t61.5 34 38.5 52 13.5 66q0 51-34 84.5t-107 33.5h-123l-59-282h127z" glyph-name="Thorn" horiz-adv-x="582" unicode="&#xde;"/><glyph d="M170-117q51 0 92 13t70 36.5 45 57.5 16 76q0 34-12 63t-32.5 50-49 33-61.5 12l12 55 142 157h-204l-92-436h-70l120 567q8 38 22 65t35 44.5 50.5 25.5 68.5 8h37l-14-64h-28q-49 0-71.5-23t-32.5-70l-11-53h333l-207-229q28-9 53.5-27t44-44.5 29.5-59.5 11-71q0-57-22-103.5t-62.5-80-98-51.5-127.5-18z" glyph-name="germandbls" horiz-adv-x="537" unicode="&#xdf;"/><glyph d="M420 50q-31-26-70.5-42t-90.5-16q-52 0-92.5 18.5t-68 49.5-42 72-14.5 87q0 57 21.5 109.5t59.5 92 91.5 63.5 117.5 24q55 0 97.5-18.5t70.5-49.5l13 60h71l-106-500h-68zM274 59q45 0 87.5 19t73.5 54l48 230q-23 38-64.5 58.5t-89.5 20.5q-45 0-83.5-17t-67.5-46-45.5-68.5-16.5-85.5q0-36 11-66.5t31.5-52 49.5-34 66-12.5zM237 710h84l59-160h-55z" glyph-name="agrave" horiz-adv-x="610" unicode="&#xe0;"/><glyph d="M420 50q-31-26-70.5-42t-90.5-16q-52 0-92.5 18.5t-68 49.5-42 72-14.5 87q0 57 21.5 109.5t59.5 92 91.5 63.5 117.5 24q55 0 97.5-18.5t70.5-49.5l13 60h71l-106-500h-68zM274 59q45 0 87.5 19t73.5 54l48 230q-23 38-64.5 58.5t-89.5 20.5q-45 0-83.5-17t-67.5-46-45.5-68.5-16.5-85.5q0-36 11-66.5t31.5-52 49.5-34 66-12.5zM442 710h94l-148-160h-57z" glyph-name="aacute" horiz-adv-x="610" unicode="&#xe1;"/><glyph d="M420 50q-31-26-70.5-42t-90.5-16q-52 0-92.5 18.5t-68 49.5-42 72-14.5 87q0 57 21.5 109.5t59.5 92 91.5 63.5 117.5 24q55 0 97.5-18.5t70.5-49.5l13 60h71l-106-500h-68zM274 59q45 0 87.5 19t73.5 54l48 230q-23 38-64.5 58.5t-89.5 20.5q-45 0-83.5-17t-67.5-46-45.5-68.5-16.5-85.5q0-36 11-66.5t31.5-52 49.5-34 66-12.5zM205 604l195 114 144-119-34-43-116 96-163-96z" glyph-name="acircumflex" horiz-adv-x="610" unicode="&#xe2;"/><glyph d="M420 50q-31-26-70.5-42t-90.5-16q-52 0-92.5 18.5t-68 49.5-42 72-14.5 87q0 57 21.5 109.5t59.5 92 91.5 63.5 117.5 24q55 0 97.5-18.5t70.5-49.5l13 60h71l-106-500h-68zM274 59q45 0 87.5 19t73.5 54l48 230q-23 38-64.5 58.5t-89.5 20.5q-45 0-83.5-17t-67.5-46-45.5-68.5-16.5-85.5q0-36 11-66.5t31.5-52 49.5-34 66-12.5zM191 570q35 107 114 107 22 0 40-8t34-17 30-17 28-8q23 0 36.5 12.5t23.5 37.5h57q-19-55-46-80.5t-69-25.5q-22 0-39.5 8t-33.5 17-30.5 17-29.5 8q-21 0-34.5-13t-23.5-38h-57z" glyph-name="atilde" horiz-adv-x="610" unicode="&#xe3;"/><glyph d="M420 50q-31-26-70.5-42t-90.5-16q-52 0-92.5 18.5t-68 49.5-42 72-14.5 87q0 57 21.5 109.5t59.5 92 91.5 63.5 117.5 24q55 0 97.5-18.5t70.5-49.5l13 60h71l-106-500h-68zM274 59q45 0 87.5 19t73.5 54l48 230q-23 38-64.5 58.5t-89.5 20.5q-45 0-83.5-17t-67.5-46-45.5-68.5-16.5-85.5q0-36 11-66.5t31.5-52 49.5-34 66-12.5zM548 632q0-24-16.5-40t-39.5-16-39.5 16-16.5 40q0 23 16.5 39t39.5 16 39.5-16 16.5-39zM326 632q0-24-16.5-40t-39.5-16-39.5 16-16.5 40q0 23 16.5 39t39.5 16 39.5-16 16.5-39z" glyph-name="adieresis" horiz-adv-x="610" unicode="&#xe4;"/><glyph d="M420 50q-31-26-70.5-42t-90.5-16q-52 0-92.5 18.5t-68 49.5-42 72-14.5 87q0 57 21.5 109.5t59.5 92 91.5 63.5 117.5 24q55 0 97.5-18.5t70.5-49.5l13 60h71l-106-500h-68zM274 59q45 0 87.5 19t73.5 54l48 230q-23 38-64.5 58.5t-89.5 20.5q-45 0-83.5-17t-67.5-46-45.5-68.5-16.5-85.5q0-36 11-66.5t31.5-52 49.5-34 66-12.5zM475 663q0-19-7.5-35.5t-20-29-30-19.5-37.5-7-37 7-29.5 19.5-20 29-7.5 35.5 7.5 36 20.5 29 30 19 36 7q39 0 67-26t28-65zM329 663q0-23 15-37t36-14q22 0 37 14t15 37-15 37-37 14q-21 0-36-14t-15-37z" glyph-name="aring" horiz-adv-x="610" unicode="&#xe5;"/><glyph d="M838 67q-38-35-87.5-55t-109.5-20q-63 0-114 26t-83 79q-56-54-114.5-79.5t-128.5-25.5q-47 0-82.5 11.5t-58.5 31-34.5 46-11.5 56.5q0 38 16 71.5t46.5 58 75.5 39 103 14.5q54 0 92-13.5t64-33.5l9 44q7 36 0 60t-24 38.5-42.5 20.5-54.5 6q-47 0-89-16t-74-40l-24 63q42 26 88 42.5t105 16.5q27 0 53.5-4.5t49.5-16 40.5-30.5 25.5-48q41 50 97.5 74.5t116.5 24.5 104-22.5 71-60 36-87-2-102.5h-420q0-44 13.5-77t37-55 54-33.5 65.5-11.5q43 0 79.5 15.5t64.5 42.5zM683 443q-34 0-65.5-10t-57.5-29-45.5-46-28.5-60h340q1 33-9 60t-29 46-46 29-59 10zM201 58q60 0 110 25.5t83 66.5q-1 2 0 10.5t2.5 18.5 2.5 18.5 1 10.5q-25 25-62 38.5t-89 13.5q-33 0-62.5-8t-51-23-34-36.5-12.5-47.5q0-45 32-66t80-21z" glyph-name="ae" horiz-adv-x="933" unicode="&#xe6;"/><glyph d="M474 66q-38-34-86-54t-108-20q-57 0-101 19.5t-74 52-45.5 75-15.5 88.5q0 58 21.5 109.5t59.5 89.5 89.5 60 112.5 22q65 0 115.5-26t79.5-75l-59-41q-23 37-59.5 56t-81.5 19q-44 0-81-16t-65-43.5-43.5-66-15.5-83.5q0-42 14-74t37-54 54-33.5 65-11.5q42 0 76.5 15t63.5 41zM256 0h54l-87-165h-83z" glyph-name="ccedilla" horiz-adv-x="529" unicode="&#xe7;"/><glyph d="M286 59q43 0 79.5 15.5t64.5 42.5l47-50q-38-35-87.5-55t-109.5-20q-57 0-101 19.5t-74 52-45.5 75-15.5 88.5q0 58 21.5 109.5t59.5 89.5 89.5 60 112.5 22q60 0 104-22.5t71-60.5 36-87-2-102h-419q-1-45 13-78.5t38-55 54.5-32.5 63.5-11zM322 443q-32 0-63.5-9.5t-57.5-28-46-45.5-29-62h339q3 68-37.5 106.5t-105.5 38.5zM218 710h84l59-160h-55z" glyph-name="egrave" horiz-adv-x="572" unicode="&#xe8;"/><glyph d="M286 59q43 0 79.5 15.5t64.5 42.5l47-50q-38-35-87.5-55t-109.5-20q-57 0-101 19.5t-74 52-45.5 75-15.5 88.5q0 58 21.5 109.5t59.5 89.5 89.5 60 112.5 22q60 0 104-22.5t71-60.5 36-87-2-102h-419q-1-45 13-78.5t38-55 54.5-32.5 63.5-11zM322 443q-32 0-63.5-9.5t-57.5-28-46-45.5-29-62h339q3 68-37.5 106.5t-105.5 38.5zM423 710h94l-148-160h-57z" glyph-name="eacute" horiz-adv-x="572" unicode="&#xe9;"/><glyph d="M286 59q43 0 79.5 15.5t64.5 42.5l47-50q-38-35-87.5-55t-109.5-20q-57 0-101 19.5t-74 52-45.5 75-15.5 88.5q0 58 21.5 109.5t59.5 89.5 89.5 60 112.5 22q60 0 104-22.5t71-60.5 36-87-2-102h-419q-1-45 13-78.5t38-55 54.5-32.5 63.5-11zM322 443q-32 0-63.5-9.5t-57.5-28-46-45.5-29-62h339q3 68-37.5 106.5t-105.5 38.5zM186 604l195 114 144-119-34-43-116 96-163-96z" glyph-name="ecircumflex" horiz-adv-x="572" unicode="&#xea;"/><glyph d="M286 59q43 0 79.5 15.5t64.5 42.5l47-50q-38-35-87.5-55t-109.5-20q-57 0-101 19.5t-74 52-45.5 75-15.5 88.5q0 58 21.5 109.5t59.5 89.5 89.5 60 112.5 22q60 0 104-22.5t71-60.5 36-87-2-102h-419q-1-45 13-78.5t38-55 54.5-32.5 63.5-11zM322 443q-32 0-63.5-9.5t-57.5-28-46-45.5-29-62h339q3 68-37.5 106.5t-105.5 38.5zM529 632q0-24-16.5-40t-39.5-16-39.5 16-16.5 40q0 23 16.5 39t39.5 16 39.5-16 16.5-39zM307 632q0-24-16.5-40t-39.5-16-39.5 16-16.5 40q0 23 16.5 39t39.5 16 39.5-16 16.5-39z" glyph-name="edieresis" horiz-adv-x="572" unicode="&#xeb;"/><glyph d="M132 500h71l-106-500h-71zM59 710h84l59-160h-55z" glyph-name="igrave" horiz-adv-x="229" unicode="&#xec;"/><glyph d="M132 500h71l-106-500h-71zM263 710h94l-148-160h-57z" glyph-name="iacute" horiz-adv-x="229" unicode="&#xed;"/><glyph d="M132 500h71l-106-500h-71zM26 604l195 114 144-119-34-43-116 96-163-96z" glyph-name="icircumflex" horiz-adv-x="229" unicode="&#xee;"/><glyph d="M132 500h71l-106-500h-71zM95 576q-23 0-39 16t-16 40q0 23 16 39t39 16 39.5-16 16.5-39q0-24-16.5-40t-39.5-16zM308 576q-23 0-39.5 16t-16.5 40q0 23 16.5 39t39.5 16 39.5-16 16.5-39q0-24-16.5-40t-39.5-16z" glyph-name="idieresis" horiz-adv-x="229" unicode="&#xef;"/><glyph d="M257 624h96l-41 86h74l41-86h130l-12-54h-93l72-151q22-45 32-76.5t10-68.5q0-59-21.5-110.5t-59.5-89.5-90-60-112-22q-57 0-101.5 19.5t-75 52-46.5 75-16 88.5q0 58 21.5 109.5t59.5 89.5 90 60 112 22q20 0 43.5-4.5t49.5-18.5l-41 85h-135zM117 232q0-41 14-73t37.5-54 54.5-33.5 65-11.5q43 0 80.5 15.5t65.5 43 43.5 66 15.5 83.5q0 41-14 73t-37.5 54-54.5 33.5-65 11.5q-43 0-80.5-15.5t-65-43-43.5-66-16-83.5z" glyph-name="eth" horiz-adv-x="610" unicode="&#xf0;"/><glyph d="M132 500h67l-12-57q33 31 74 48t89 17q45 0 81-16.5t59-46.5 31.5-72-2.5-94l-60-279h-70l58 278q16 75-18 119t-103 44q-47 0-86-21.5t-68-61.5l-76-358h-70zM195 570q35 107 114 107 22 0 40-8t34-17 30-17 28-8q23 0 36.5 12.5t23.5 37.5h57q-19-55-46-80.5t-69-25.5q-22 0-39.5 8t-33.5 17-30.5 17-29.5 8q-21 0-34.5-13t-23.5-38h-57z" glyph-name="ntilde" horiz-adv-x="584" unicode="&#xf1;"/><glyph d="M566 274q0-59-21.5-110.5t-59.5-89.5-90-60-112-22q-57 0-101.5 19.5t-75 52-46.5 75-16 88.5q0 58 21.5 109.5t59.5 89.5 90 60 112 22q57 0 101.5-19.5t75-52 46.5-74.5 16-88zM117 232q0-41 14-73t37.5-54.5 54.5-34 65-11.5q43 0 80.5 15.5t65.5 43.5 43.5 66.5 15.5 83.5q0 41-14 73t-37.5 54.5-54.5 34-65 11.5q-43 0-80.5-15.5t-65-43.5-43.5-66.5-16-83.5zM218 710h84l59-160h-55z" glyph-name="ograve" horiz-adv-x="609" unicode="&#xf2;"/><glyph d="M566 274q0-59-21.5-110.5t-59.5-89.5-90-60-112-22q-57 0-101.5 19.5t-75 52-46.5 75-16 88.5q0 58 21.5 109.5t59.5 89.5 90 60 112 22q57 0 101.5-19.5t75-52 46.5-74.5 16-88zM117 232q0-41 14-73t37.5-54.5 54.5-34 65-11.5q43 0 80.5 15.5t65.5 43.5 43.5 66.5 15.5 83.5q0 41-14 73t-37.5 54.5-54.5 34-65 11.5q-43 0-80.5-15.5t-65-43.5-43.5-66.5-16-83.5zM423 710h94l-148-160h-57z" glyph-name="oacute" horiz-adv-x="609" unicode="&#xf3;"/><glyph d="M566 274q0-59-21.5-110.5t-59.5-89.5-90-60-112-22q-57 0-101.5 19.5t-75 52-46.5 75-16 88.5q0 58 21.5 109.5t59.5 89.5 90 60 112 22q57 0 101.5-19.5t75-52 46.5-74.5 16-88zM117 232q0-41 14-73t37.5-54.5 54.5-34 65-11.5q43 0 80.5 15.5t65.5 43.5 43.5 66.5 15.5 83.5q0 41-14 73t-37.5 54.5-54.5 34-65 11.5q-43 0-80.5-15.5t-65-43.5-43.5-66.5-16-83.5zM186 604l195 114 144-119-34-43-116 96-163-96z" glyph-name="ocircumflex" horiz-adv-x="609" unicode="&#xf4;"/><glyph d="M566 274q0-59-21.5-110.5t-59.5-89.5-90-60-112-22q-57 0-101.5 19.5t-75 52-46.5 75-16 88.5q0 58 21.5 109.5t59.5 89.5 90 60 112 22q57 0 101.5-19.5t75-52 46.5-74.5 16-88zM117 232q0-41 14-73t37.5-54.5 54.5-34 65-11.5q43 0 80.5 15.5t65.5 43.5 43.5 66.5 15.5 83.5q0 41-14 73t-37.5 54.5-54.5 34-65 11.5q-43 0-80.5-15.5t-65-43.5-43.5-66.5-16-83.5zM172 570q35 107 114 107 22 0 40-8t34-17 30-17 28-8q23 0 36.5 12.5t23.5 37.5h57q-19-55-46-80.5t-69-25.5q-22 0-39.5 8t-33.5 17-30.5 17-29.5 8q-21 0-34.5-13t-23.5-38h-57z" glyph-name="otilde" horiz-adv-x="609" unicode="&#xf5;"/><glyph d="M566 274q0-59-21.5-110.5t-59.5-89.5-90-60-112-22q-57 0-101.5 19.5t-75 52-46.5 75-16 88.5q0 58 21.5 109.5t59.5 89.5 90 60 112 22q57 0 101.5-19.5t75-52 46.5-74.5 16-88zM117 232q0-41 14-73t37.5-54.5 54.5-34 65-11.5q43 0 80.5 15.5t65.5 43.5 43.5 66.5 15.5 83.5q0 41-14 73t-37.5 54.5-54.5 34-65 11.5q-43 0-80.5-15.5t-65-43.5-43.5-66.5-16-83.5zM529 632q0-24-16.5-40t-39.5-16-39.5 16-16.5 40q0 23 16.5 39t39.5 16 39.5-16 16.5-39zM307 632q0-24-16.5-40t-39.5-16-39.5 16-16.5 40q0 23 16.5 39t39.5 16 39.5-16 16.5-39z" glyph-name="odieresis" horiz-adv-x="609" unicode="&#xf6;"/><glyph d="M299 349q-26 0-44.5 18.5t-18.5 44.5 18.5 44.5 44.5 18.5 44.5-18.5 18.5-44.5-18.5-44.5-44.5-18.5zM80 303h439v-61h-439v61zM299 70q-26 0-44.5 18.5t-18.5 44.5 18.5 44 44.5 18 44.5-18 18.5-44-18.5-44.5-44.5-18.5z" glyph-name="divide" horiz-adv-x="590" unicode="&#xf7;"/><glyph d="M562 560l42-41-91-94q23-28 37-63 16-42 16-88 0-59-21.5-110.5t-59.5-89.5-90-60-112-22q-57 0-102 19-23 10-42 23l-89-93-41 41 88 92q-24 29-37 64-16 43-16 89 0 58 21.5 109.5t59.5 89.5 90 60 112 22q57 0 101-20 23-10 42-23zM117 232q0-41 14-73 7-17 17-32l272 285q-15 11-33 17-31 12-65 12-43 0-80.5-15.5t-65-43.5-43.5-66.5-16-83.5zM223 70q31-11 65-11 43 0 80.5 15.5t65.5 43.5 43.5 66.5 15.5 83.5q0 41-14 73-7 16-17 30l-272-284q15-10 33-17z" glyph-name="oslash" horiz-adv-x="610" unicode="&#xf8;"/><glyph d="M391 57q-32-31-73.5-48t-87.5-17q-45 0-80.5 15.5t-58 44.5-30.5 70 3 92l61 286h71l-60-280q-17-80 14-120.5t102-40.5q94 0 154 83l76 358h70l-106-500h-67zM230 710h84l59-160h-55z" glyph-name="ugrave" horiz-adv-x="578" unicode="&#xf9;"/><glyph d="M391 57q-32-31-73.5-48t-87.5-17q-45 0-80.5 15.5t-58 44.5-30.5 70 3 92l61 286h71l-60-280q-17-80 14-120.5t102-40.5q94 0 154 83l76 358h70l-106-500h-67zM435 710h94l-148-160h-57z" glyph-name="uacute" horiz-adv-x="578" unicode="&#xfa;"/><glyph d="M391 57q-32-31-73.5-48t-87.5-17q-45 0-80.5 15.5t-58 44.5-30.5 70 3 92l61 286h71l-60-280q-17-80 14-120.5t102-40.5q94 0 154 83l76 358h70l-106-500h-67zM198 604l195 114 144-119-34-43-116 96-163-96z" glyph-name="ucircumflex" horiz-adv-x="578" unicode="&#xfb;"/><glyph d="M391 57q-32-31-73.5-48t-87.5-17q-45 0-80.5 15.5t-58 44.5-30.5 70 3 92l61 286h71l-60-280q-17-80 14-120.5t102-40.5q94 0 154 83l76 358h70l-106-500h-67zM541 632q0-24-16.5-40t-39.5-16-39.5 16-16.5 40q0 23 16.5 39t39.5 16 39.5-16 16.5-39zM319 632q0-24-16.5-40t-39.5-16-39.5 16-16.5 40q0 23 16.5 39t39.5 16 39.5-16 16.5-39z" glyph-name="udieresis" horiz-adv-x="578" unicode="&#xfc;"/><glyph d="M169 25l-110 475h73l90-400 261 400h80l-452-684h-80zM399 710h94l-148-160h-57z" glyph-name="yacute" horiz-adv-x="513" unicode="&#xfd;"/><glyph d="M177 710h67l-55-260q31 26 71 42t91 16 91.5-18.5 68-49.5 42-72 14.5-87q0-57-21.5-109.5t-59.5-92-91-63.5-117-24q-55 0-97.5 18t-71.5 50l-52-244h-70zM336 441q-45 0-87.5-19t-73.5-54l-49-230q23-38 64.5-58.5t89.5-20.5q45 0 84 16.5t67.5 46 45 69 16.5 85.5q0 36-11 66.5t-31 52-49.5 34-65.5 12.5z" glyph-name="thorn" horiz-adv-x="609" unicode="&#xfe;"/><glyph d="M169 25l-110 475h73l90-400 261 400h80l-452-684h-80zM505 632q0-24-16.5-40t-39.5-16-39.5 16-16.5 40q0 23 16.5 39t39.5 16 39.5-16 16.5-39zM283 632q0-24-16.5-40t-39.5-16-39.5 16-16.5 40q0 23 16.5 39t39.5 16 39.5-16 16.5-39z" glyph-name="ydieresis" horiz-adv-x="513" unicode="&#xff;"/><glyph d="M494 201h-332l-136-201h-85l493 718 187-718h-76zM477 269l-73 288-195-288h268zM618 907q-9-60-50.5-96.5t-119.5-36.5q-36 0-63.5 10t-45.5 28-26.5 42.5-7.5 52.5h52q1-45 28-64.5t67-19.5q44 0 74 20.5t41 63.5h51z" glyph-name="Abreve" horiz-adv-x="668" unicode="&#x102;"/><glyph d="M494 201h-332l-136-201h-85l493 718 187-718h-76zM477 269l-73 288-195-288h268zM320 864h289l-11-54h-289z" glyph-name="Amacron" horiz-adv-x="668" unicode="&#x100;"/><glyph d="M531-192q-35 0-58.5 19.5t-23.5 53.5q0 21 9 39.5t22.5 34 30.5 27.5 33 20l-50 199h-332l-136-201h-85l493 718 187-718h1q-48-22-74.5-49t-26.5-53q0-17 10.5-26t34.5-9q20 0 31 7l-11-54q-12-5-26-6.5t-29-1.5zM477 269l-73 288-195-288h268z" glyph-name="Aogonek" horiz-adv-x="668" unicode="&#x104;"/><glyph d="M639 61q-48-34-107-51.5t-128-17.5q-80 0-142 27.5t-104.5 74-64.5 106.5-22 125q0 75 27.5 146t80 125.5 128 88 172.5 33.5q82 0 143.5-28.5t103.5-77.5l-56-49q-34 38-83 61t-113 23q-73 0-133-26t-103-69.5-66.5-100.5-23.5-120q0-53 16.5-101t49.5-85.5 81.5-59.5 112.5-22q57 0 105 16t86 43zM576 913h92l-143-145h-62z" glyph-name="Cacute" horiz-adv-x="689" unicode="&#x106;"/><glyph d="M639 61q-48-34-107-51.5t-128-17.5q-80 0-142 27.5t-104.5 74-64.5 106.5-22 125q0 75 27.5 146t80 125.5 128 88 172.5 33.5q82 0 143.5-28.5t103.5-77.5l-56-49q-34 38-83 61t-113 23q-73 0-133-26t-103-69.5-66.5-100.5-23.5-120q0-53 16.5-101t49.5-85.5 81.5-59.5 112.5-22q57 0 105 16t86 43zM681 876l-194-109-146 112 33 46 118-91 164 92z" glyph-name="Ccaron" horiz-adv-x="689" unicode="&#x10c;"/><glyph d="M639 61q-48-34-107-51.5t-128-17.5q-80 0-142 27.5t-104.5 74-64.5 106.5-22 125q0 75 27.5 146t80 125.5 128 88 172.5 33.5q82 0 143.5-28.5t103.5-77.5l-56-49q-34 38-83 61t-113 23q-73 0-133-26t-103-69.5-66.5-100.5-23.5-120q0-53 16.5-101t49.5-85.5 81.5-59.5 112.5-22q57 0 105 16t86 43zM335 818l194 108 146-111-33-47-118 92-163-92z" glyph-name="Ccircumflex" horiz-adv-x="689" unicode="&#x108;"/><glyph d="M639 61q-48-34-107-51.5t-128-17.5q-80 0-142 27.5t-104.5 74-64.5 106.5-22 125q0 75 27.5 146t80 125.5 128 88 172.5 33.5q82 0 143.5-28.5t103.5-77.5l-56-49q-34 38-83 61t-113 23q-73 0-133-26t-103-69.5-66.5-100.5-23.5-120q0-53 16.5-101t49.5-85.5 81.5-59.5 112.5-22q57 0 105 16t86 43zM514 787q-23 0-39.5 15.5t-16.5 40.5q0 23 16.5 39t39.5 16 39-16 16-39q0-24-16-40t-39-16z" glyph-name="Cdotaccent" horiz-adv-x="689" unicode="&#x10a;"/><glyph d="M197 710h196q78 0 138.5-23t102.5-62.5 64-93.5 22-116q0-87-34-162.5t-95.5-131.5-146-88.5-185.5-32.5h-213zM261 69q87 0 158 28t120.5 75.5 76.5 109 27 128.5q0 49-17 91.5t-48.5 73.5-78 48.5-104.5 17.5h-139l-122-572h127zM653 876l-194-109-146 112 33 46 118-91 164 92z" glyph-name="Dcaron" horiz-adv-x="740" unicode="&#x10e;"/><glyph d="M221 710h196q78 0 138.5-23t102.5-62.5 64-93.5 22-116q0-87-34-162.5t-95.5-131.5-146-88.5-185.5-32.5h-213zM285 69q87 0 158 28t120.5 75.5 76.5 109 27 128.5q0 49-17 91.5t-48.5 73.5-78 48.5-104.5 17.5h-139l-122-572h127zM35 389h333l-12-61h-333z" glyph-name="Dcroat" horiz-adv-x="764" unicode="&#x110;"/><glyph d="M197 710h407l-15-71h-334l-51-239h274l-16-72h-273l-55-257h334l-15-71h-407zM587 907q-9-60-50.5-96.5t-119.5-36.5q-36 0-63.5 10t-45.5 28-26.5 42.5-7.5 52.5h52q1-45 28-64.5t67-19.5q44 0 74 20.5t41 63.5h51z" glyph-name="Ebreve" horiz-adv-x="554" unicode="&#x114;"/><glyph d="M197 710h407l-15-71h-334l-51-239h274l-16-72h-273l-55-257h334l-15-71h-407zM603 876l-194-109-146 112 33 46 118-91 164 92z" glyph-name="Ecaron" horiz-adv-x="554" unicode="&#x11a;"/><glyph d="M197 710h407l-15-71h-334l-51-239h274l-16-72h-273l-55-257h334l-15-71h-407zM289 864h289l-11-54h-289z" glyph-name="Emacron" horiz-adv-x="554" unicode="&#x112;"/><glyph d="M197 710h407l-15-71h-334l-51-239h274l-16-72h-273l-55-257h334l-15-71h-407zM363-192q-35 0-59 19.5t-24 53.5q0 21 9 39.5t23.5 34 32 27.5 35.5 20l73-2q-48-22-74-49t-26-53q0-35 44-35 21 0 32 7l-12-54q-12-5-26-6.5t-28-1.5z" glyph-name="Eogonek" horiz-adv-x="554" unicode="&#x118;"/><glyph d="M197 710h407l-15-71h-334l-51-239h274l-16-72h-273l-55-257h334l-15-71h-407zM436 787q-23 0-39.5 15.5t-16.5 40.5q0 23 16.5 39t39.5 16 39-16 16-39q0-24-16-40t-39-16z" glyph-name="Edotaccent" horiz-adv-x="554" unicode="&#x116;"/><glyph d="M677 73q-58-39-128-60t-145-21q-80 0-142 27.5t-104.5 74-64.5 106.5-22 125q0 75 27.5 146t80 125.5 128 88 172.5 33.5q82 0 149-27.5t109-78.5l-55-49q-33 40-88.5 62t-119.5 22q-73 0-133-26t-103-69.5-66.5-100.5-23.5-120q0-53 16.5-101t49.5-85.5 81.5-59.5 112.5-22q123 0 204 56l45 209h-207l47 72h250zM665 907q-9-60-50.5-96.5t-119.5-36.5q-36 0-63.5 10t-45.5 28-26.5 42.5-7.5 52.5h52q1-45 28-64.5t67-19.5q44 0 74 20.5t41 63.5h51z" glyph-name="Gbreve" horiz-adv-x="770" unicode="&#x11e;"/><glyph d="M677 73q-58-39-128-60t-145-21q-80 0-142 27.5t-104.5 74-64.5 106.5-22 125q0 75 27.5 146t80 125.5 128 88 172.5 33.5q82 0 149-27.5t109-78.5l-55-49q-33 40-88.5 62t-119.5 22q-73 0-133-26t-103-69.5-66.5-100.5-23.5-120q0-53 16.5-101t49.5-85.5 81.5-59.5 112.5-22q123 0 204 56l45 209h-207l47 72h250zM335 818l194 108 146-111-33-47-118 92-163-92z" glyph-name="Gcircumflex" horiz-adv-x="770" unicode="&#x11c;"/><glyph d="M677 73q-58-39-128-60t-145-21q-80 0-142 27.5t-104.5 74-64.5 106.5-22 125q0 75 27.5 146t80 125.5 128 88 172.5 33.5q82 0 149-27.5t109-78.5l-55-49q-33 40-88.5 62t-119.5 22q-73 0-133-26t-103-69.5-66.5-100.5-23.5-120q0-53 16.5-101t49.5-85.5 81.5-59.5 112.5-22q123 0 204 56l45 209h-207l47 72h250zM359-50h84l-132-165h-57z" glyph-name="uni0122" horiz-adv-x="770" unicode="&#x122;"/><glyph d="M677 73q-58-39-128-60t-145-21q-80 0-142 27.5t-104.5 74-64.5 106.5-22 125q0 75 27.5 146t80 125.5 128 88 172.5 33.5q82 0 149-27.5t109-78.5l-55-49q-33 40-88.5 62t-119.5 22q-73 0-133-26t-103-69.5-66.5-100.5-23.5-120q0-53 16.5-101t49.5-85.5 81.5-59.5 112.5-22q123 0 204 56l45 209h-207l47 72h250zM514 787q-23 0-39.5 15.5t-16.5 40.5q0 23 16.5 39t39.5 16 39-16 16-39q0-24-16-40t-39-16z" glyph-name="Gdotaccent" horiz-adv-x="770" unicode="&#x120;"/><glyph d="M198 710h74l-67-310h418l67 310h74l-151-710h-74l70 328h-418l-70-328h-74zM108 585h693l-14-61h-692z" glyph-name="Hbar" horiz-adv-x="766" unicode="&#x126;"/><glyph d="M197 710h74l-67-310h418l67 310h74l-151-710h-74l70 328h-418l-70-328h-74zM335 818l194 108 146-111-33-47-118 92-163-92z" glyph-name="Hcircumflex" horiz-adv-x="764" unicode="&#x124;"/><glyph d="M197 710h74l-151-710h-74zM418 907q-9-60-50.5-96.5t-119.5-36.5q-36 0-63.5 10t-45.5 28-26.5 42.5-7.5 52.5h52q1-45 28-64.5t67-19.5q44 0 74 20.5t41 63.5h51z" glyph-name="Ibreve" horiz-adv-x="272" unicode="&#x12c;"/><glyph d="M197 710h74l-151-710h-74zM267 787q-23 0-39.5 15.5t-16.5 40.5q0 23 16.5 39t39.5 16 39-16 16-39q0-24-16-40t-39-16z" glyph-name="Idotaccent" horiz-adv-x="272" unicode="&#x130;"/><glyph d="M197 710h74l-151-710h-74zM120 864h289l-11-54h-289z" glyph-name="Imacron" horiz-adv-x="272" unicode="&#x12a;"/><glyph d="M197 710h74l-151-710h-74zM29-192q-35 0-59 19.5t-24 53.5q0 21 9 39.5t23.5 34 32 27.5 35.5 20l73-2q-48-22-74-49t-26-53q0-35 44-35 21 0 32 7l-12-54q-12-5-26-6.5t-28-1.5z" glyph-name="Iogonek" horiz-adv-x="272" unicode="&#x12e;"/><glyph d="M197 710h74l-151-710h-74zM78 789q35 107 114 107 22 0 40-8t34-17 30-17 28-8q23 0 36.5 12.5t23.5 37.5h57q-19-55-46-80.5t-69-25.5q-22 0-39.5 8t-33.5 17-30.5 17-29.5 8q-21 0-34.5-13t-23.5-38h-57z" glyph-name="Itilde" horiz-adv-x="272" unicode="&#x128;"/><glyph d="M197 710h74l-151-710h-74zM61-191q-23 0-39.5 15.5t-16.5 40.5q0 23 16.5 39t39.5 16 39-16 16-39q0-24-16-40t-39-16z" glyph-name="uni1ECA" horiz-adv-x="272" unicode="&#x1eca;"/><glyph d="M423 198q-24-112-84.5-159t-151.5-47q-46 0-83.5 14t-62.5 41-34.5 65.5.5 86.5h74q-13-69 17.5-102.5t92.5-33.5q60 0 101.5 34t55.5 102l109 511h75zM350 818l194 108 146-111-33-47-118 92-163-92z" glyph-name="Jcircumflex" horiz-adv-x="525" unicode="&#x134;"/><glyph d="M197 710h74l-75-355 407 355h94l-419-367 294-343h-84l-295 341-73-341h-74zM261-50h84l-132-165h-57z" glyph-name="uni0136" horiz-adv-x="616" unicode="&#x136;"/><glyph d="M197 710h74l-136-638h331l-15-72h-405zM331 913h92l-143-145h-62z" glyph-name="Lacute" horiz-adv-x="518" unicode="&#x139;"/><glyph d="M197 710h74l-136-638h331l-15-72h-405zM466 710l-79-166h-53l60 166h72z" glyph-name="Lcaron" horiz-adv-x="519" unicode="&#x13d;"/><glyph d="M197 710h74l-136-638h331l-15-72h-405zM214-50h84l-132-165h-57z" glyph-name="uni013B" horiz-adv-x="518" unicode="&#x13b;"/><glyph d="M197 710h74l-136-638h331l-15-72h-405zM430 321q-23 0-39.5 15.5t-16.5 40.5q0 23 16.5 39t39.5 16 39-16 16-39q0-24-16-40t-39-16z" glyph-name="Ldot" horiz-adv-x="525" unicode="&#x13f;"/><glyph d="M270 710h74l-136-638h331l-15-72h-405zM20 281l409 226 29-53-408-226z" glyph-name="Lslash" horiz-adv-x="592" unicode="&#x141;"/><glyph d="M236 547l-116-547h-74l153 718 394-558 117 550h73l-153-718zM570 913h92l-143-145h-62z" glyph-name="Nacute" horiz-adv-x="784" unicode="&#x143;"/><glyph d="M236 547l-116-547h-74l153 718 394-558 117 550h73l-153-718zM675 876l-194-109-146 112 33 46 118-91 164 92z" glyph-name="Ncaron" horiz-adv-x="784" unicode="&#x147;"/><glyph d="M236 547l-116-547h-74l153 718 394-558 117 550h73l-153-718zM329-50h84l-132-165h-57z" glyph-name="uni0145" horiz-adv-x="784" unicode="&#x145;"/><glyph d="M592 33q-41-20-88.5-30.5t-101.5-10.5q-80 0-141.5 27.5t-103.5 74-64 106.5-22 125q0 75 27.5 146t80 125.5 128 88 172.5 33.5q77 0 136.5-25.5t101.5-69.5l19 87h407l-15-72h-334l-20-97q16-33 25-68.5t11-72.5h207l-16-72h-195q-11-72-45.5-135.5t-92.5-111.5l-2-9h342l-16-72h-407zM148 331q0-54 16.5-102.5t49.5-85 81.5-58.5 112.5-22q73 0 133.5 25.5t103 69 66 101 23.5 120.5q0 54-16.5 102.5t-49.5 85-81.5 58.5-112.5 22q-73 0-133-26t-103-69.5-66.5-100.5-23.5-120z" glyph-name="OE" horiz-adv-x="1093" unicode="&#x152;"/><glyph d="M810 385q0-75-27.5-146t-79.5-125.5-128-88-173-33.5q-80 0-141.5 27.5t-103.5 74-64 106.5-22 125q0 75 27.5 146t80 125.5 128 88 172.5 33.5q79 0 141-27.5t104-74 64-106.5 22-125zM148 331q0-54 16.5-102.5t49.5-85 81.5-58.5 112.5-22q73 0 133.5 25.5t103 69 66 101 23.5 120.5q0 54-16.5 102.5t-49.5 85-81.5 58.5-112.5 22q-73 0-133-26t-103-69.5-66.5-100.5-23.5-120zM665 907q-9-60-50.5-96.5t-119.5-36.5q-36 0-63.5 10t-45.5 28-26.5 42.5-7.5 52.5h52q1-45 28-64.5t67-19.5q44 0 74 20.5t41 63.5h51z" glyph-name="Obreve" horiz-adv-x="836" unicode="&#x14e;"/><glyph d="M810 385q0-75-27.5-146t-79.5-125.5-128-88-173-33.5q-80 0-141.5 27.5t-103.5 74-64 106.5-22 125q0 75 27.5 146t80 125.5 128 88 172.5 33.5q79 0 141-27.5t104-74 64-106.5 22-125zM148 331q0-54 16.5-102.5t49.5-85 81.5-58.5 112.5-22q73 0 133.5 25.5t103 69 66 101 23.5 120.5q0 54-16.5 102.5t-49.5 85-81.5 58.5-112.5 22q-73 0-133-26t-103-69.5-66.5-100.5-23.5-120zM676 913h89l-143-145h-61zM478 913h89l-143-145h-61z" glyph-name="Ohungarumlaut" horiz-adv-x="836" unicode="&#x150;"/><glyph d="M810 385q0-75-27.5-146t-79.5-125.5-128-88-173-33.5q-80 0-141.5 27.5t-103.5 74-64 106.5-22 125q0 75 27.5 146t80 125.5 128 88 172.5 33.5q79 0 141-27.5t104-74 64-106.5 22-125zM148 331q0-54 16.5-102.5t49.5-85 81.5-58.5 112.5-22q73 0 133.5 25.5t103 69 66 101 23.5 120.5q0 54-16.5 102.5t-49.5 85-81.5 58.5-112.5 22q-73 0-133-26t-103-69.5-66.5-100.5-23.5-120zM367 864h289l-11-54h-289z" glyph-name="Omacron" horiz-adv-x="836" unicode="&#x14c;"/><glyph d="M810 385q0-75-27.5-146t-79.5-125.5-128-88-173-33.5q-80 0-141.5 27.5t-103.5 74-64 106.5-22 125q0 75 27.5 146t80 125.5 128 88 172.5 33.5q79 0 141-27.5t104-74 64-106.5 22-125zM148 331q0-54 16.5-102.5t49.5-85 81.5-58.5 112.5-22q73 0 133.5 25.5t103 69 66 101 23.5 120.5q0 54-16.5 102.5t-49.5 85-81.5 58.5-112.5 22q-73 0-133-26t-103-69.5-66.5-100.5-23.5-120zM380-191q-23 0-39.5 15.5t-16.5 40.5q0 23 16.5 39t39.5 16 39-16 16-39q0-24-16-40t-39-16z" glyph-name="uni1ECC" horiz-adv-x="836" unicode="&#x1ecc;"/><glyph d="M297 324h-108l-69-324h-74l151 710h194q50 0 87.5-13t62.5-35.5 37.5-54 12.5-68.5q0-89-56.5-145.5t-160.5-67.5l182-326h-81zM331 389q91 0 138 41t47 105q0 49-33 78t-102 29h-125l-54-253h129zM489 913h92l-143-145h-62z" glyph-name="Racute" horiz-adv-x="619" unicode="&#x154;"/><glyph d="M297 324h-108l-69-324h-74l151 710h194q50 0 87.5-13t62.5-35.5 37.5-54 12.5-68.5q0-89-56.5-145.5t-160.5-67.5l182-326h-81zM331 389q91 0 138 41t47 105q0 49-33 78t-102 29h-125l-54-253h129zM594 876l-194-109-146 112 33 46 118-91 164 92z" glyph-name="Rcaron" horiz-adv-x="619" unicode="&#x158;"/><glyph d="M297 324h-108l-69-324h-74l151 710h194q50 0 87.5-13t62.5-35.5 37.5-54 12.5-68.5q0-89-56.5-145.5t-160.5-67.5l182-326h-81zM331 389q91 0 138 41t47 105q0 49-33 78t-102 29h-125l-54-253h129zM258-50h84l-132-165h-57z" glyph-name="uni0156" horiz-adv-x="619" unicode="&#x156;"/><glyph d="M474 183q0-39-15.5-73.5t-45.5-60.5-73.5-41.5-98.5-15.5q-41 0-77 10.5t-66 29-52.5 43.5-36.5 54l68 41q9-21 25-40.5t37.5-34.5 48.5-24 59-9q72 0 111 33t39 81q0 47-25 79.5t-71 64.5l-67 46q-56 38-84 80t-28 98q0 40 16 72.5t43.5 55 65.5 34.5 83 12q60 0 113-25t89-83l-66-42q-26 42-61.5 61t-80.5 19q-54 0-91-27t-37-77q0-39 21.5-66.5t63.5-56.5l67-47q28-20 51-40t39.5-43 26-49.5 9.5-58.5zM427 913h92l-143-145h-62z" glyph-name="Sacute" horiz-adv-x="526" unicode="&#x15a;"/><glyph d="M474 183q0-39-15.5-73.5t-45.5-60.5-73.5-41.5-98.5-15.5q-41 0-77 10.5t-66 29-52.5 43.5-36.5 54l68 41q9-21 25-40.5t37.5-34.5 48.5-24 59-9q72 0 111 33t39 81q0 47-25 79.5t-71 64.5l-67 46q-56 38-84 80t-28 98q0 40 16 72.5t43.5 55 65.5 34.5 83 12q60 0 113-25t89-83l-66-42q-26 42-61.5 61t-80.5 19q-54 0-91-27t-37-77q0-39 21.5-66.5t63.5-56.5l67-47q28-20 51-40t39.5-43 26-49.5 9.5-58.5zM532 876l-194-109-146 112 33 46 118-91 164 92z" glyph-name="Scaron" horiz-adv-x="526" unicode="&#x160;"/><glyph d="M474 183q0-39-15.5-73.5t-45.5-60.5-73.5-41.5-98.5-15.5q-41 0-77 10.5t-66 29-52.5 43.5-36.5 54l68 41q9-21 25-40.5t37.5-34.5 48.5-24 59-9q72 0 111 33t39 81q0 47-25 79.5t-71 64.5l-67 46q-56 38-84 80t-28 98q0 40 16 72.5t43.5 55 65.5 34.5 83 12q60 0 113-25t89-83l-66-42q-26 42-61.5 61t-80.5 19q-54 0-91-27t-37-77q0-39 21.5-66.5t63.5-56.5l67-47q28-20 51-40t39.5-43 26-49.5 9.5-58.5zM201 0h54l-87-165h-83z" glyph-name="Scedilla" horiz-adv-x="526" unicode="&#x15e;"/><glyph d="M474 183q0-39-15.5-73.5t-45.5-60.5-73.5-41.5-98.5-15.5q-41 0-77 10.5t-66 29-52.5 43.5-36.5 54l68 41q9-21 25-40.5t37.5-34.5 48.5-24 59-9q72 0 111 33t39 81q0 47-25 79.5t-71 64.5l-67 46q-56 38-84 80t-28 98q0 40 16 72.5t43.5 55 65.5 34.5 83 12q60 0 113-25t89-83l-66-42q-26 42-61.5 61t-80.5 19q-54 0-91-27t-37-77q0-39 21.5-66.5t63.5-56.5l67-47q28-20 51-40t39.5-43 26-49.5 9.5-58.5zM186 818l194 108 146-111-33-47-118 92-163-92z" glyph-name="Scircumflex" horiz-adv-x="526" unicode="&#x15c;"/><glyph d="M474 183q0-39-15.5-73.5t-45.5-60.5-73.5-41.5-98.5-15.5q-41 0-77 10.5t-66 29-52.5 43.5-36.5 54l68 41q9-21 25-40.5t37.5-34.5 48.5-24 59-9q72 0 111 33t39 81q0 47-25 79.5t-71 64.5l-67 46q-56 38-84 80t-28 98q0 40 16 72.5t43.5 55 65.5 34.5 83 12q60 0 113-25t89-83l-66-42q-26 42-61.5 61t-80.5 19q-54 0-91-27t-37-77q0-39 21.5-66.5t63.5-56.5l67-47q28-20 51-40t39.5-43 26-49.5 9.5-58.5zM195-50h84l-132-165h-57z" glyph-name="uni0218" horiz-adv-x="526" unicode="&#x218;"/><glyph d="M295 638h-200l15 72h474l-15-72h-201l-135-638h-74zM548 876l-194-109-146 112 33 46 118-91 164 92z" glyph-name="Tcaron" horiz-adv-x="501" unicode="&#x164;"/><glyph d="M295 638h-200l15 72h474l-15-72h-201l-135-638h-74zM143-50h84l-132-165h-57z" glyph-name="uni0162" horiz-adv-x="501" unicode="&#x162;"/><glyph d="M295 638h-200l15 72h474l-15-72h-201l-135-638h-74zM143-50h84l-132-165h-57z" glyph-name="uni021A" horiz-adv-x="501" unicode="&#x21a;"/><glyph d="M642 269q-28-133-104-205t-212-72q-63 0-112.5 19t-80.5 55-42 87 3 116l93 441h74l-94-442q-11-51-4.5-89.5t28.5-64 57-38.5 81-13q91 0 154.5 51t84.5 154l94 442h74zM645 907q-9-60-50.5-96.5t-119.5-36.5q-36 0-63.5 10t-45.5 28-26.5 42.5-7.5 52.5h52q1-45 28-64.5t67-19.5q44 0 74 20.5t41 63.5h51z" glyph-name="Ubreve" horiz-adv-x="727" unicode="&#x16c;"/><glyph d="M642 269q-28-133-104-205t-212-72q-63 0-112.5 19t-80.5 55-42 87 3 116l93 441h74l-94-442q-11-51-4.5-89.5t28.5-64 57-38.5 81-13q91 0 154.5 51t84.5 154l94 442h74zM655 913h89l-143-145h-61zM457 913h89l-143-145h-61z" glyph-name="Uhungarumlaut" horiz-adv-x="727" unicode="&#x170;"/><glyph d="M642 269q-28-133-104-205t-212-72q-63 0-112.5 19t-80.5 55-42 87 3 116l93 441h74l-94-442q-11-51-4.5-89.5t28.5-64 57-38.5 81-13q91 0 154.5 51t84.5 154l94 442h74zM347 864h289l-11-54h-289z" glyph-name="Umacron" horiz-adv-x="727" unicode="&#x16a;"/><glyph d="M642 269q-28-133-104-205t-212-72q-63 0-112.5 19t-80.5 55-42 87 3 116l93 441h74l-94-442q-11-51-4.5-89.5t28.5-64 57-38.5 81-13q91 0 154.5 51t84.5 154l94 442h74zM284-192q-35 0-59 19.5t-24 53.5q0 21 9 39.5t23.5 34 32 27.5 35.5 20l73-2q-48-22-74-49t-26-53q0-35 44-35 21 0 32 7l-12-54q-12-5-26-6.5t-28-1.5z" glyph-name="Uogonek" horiz-adv-x="727" unicode="&#x172;"/><glyph d="M642 269q-28-133-104-205t-212-72q-63 0-112.5 19t-80.5 55-42 87 3 116l93 441h74l-94-442q-11-51-4.5-89.5t28.5-64 57-38.5 81-13q91 0 154.5 51t84.5 154l94 442h74zM581 843q0-19-7.5-35.5t-20-29-30-19.5-37.5-7-37 7-29.5 19.5-20 29-7.5 35.5 7.5 36 20.5 29 30 19 36 7q39 0 67-26t28-65zM435 843q0-23 15-37t36-14q22 0 37 14t15 37-15 37-37 14q-21 0-36-14t-15-37z" glyph-name="Uring" horiz-adv-x="727" unicode="&#x16e;"/><glyph d="M642 269q-28-133-104-205t-212-72q-63 0-112.5 19t-80.5 55-42 87 3 116l93 441h74l-94-442q-11-51-4.5-89.5t28.5-64 57-38.5 81-13q91 0 154.5 51t84.5 154l94 442h74zM305 789q35 107 114 107 22 0 40-8t34-17 30-17 28-8q23 0 36.5 12.5t23.5 37.5h57q-19-55-46-80.5t-69-25.5q-22 0-39.5 8t-33.5 17-30.5 17-29.5 8q-21 0-34.5-13t-23.5-38h-57z" glyph-name="Utilde" horiz-adv-x="727" unicode="&#x168;"/><glyph d="M642 269q-28-133-104-205t-212-72q-63 0-112.5 19t-80.5 55-42 87 3 116l93 441h74l-94-442q-11-51-4.5-89.5t28.5-64 57-38.5 81-13q91 0 154.5 51t84.5 154l94 442h74zM304-191q-23 0-39.5 15.5t-16.5 40.5q0 23 16.5 39t39.5 16 39-16 16-39q0-24-16-40t-39-16z" glyph-name="uni1EE4" horiz-adv-x="727" unicode="&#x1ee4;"/><glyph d="M115 710h70l54-514 302 522 77-526 271 518h78l-384-718-77 541-313-541zM637 913h92l-143-145h-62z" glyph-name="Wacute" horiz-adv-x="884" unicode="&#x1e82;"/><glyph d="M115 710h70l54-514 302 522 77-526 271 518h78l-384-718-77 541-313-541zM396 818l194 108 146-111-33-47-118 92-163-92z" glyph-name="Wcircumflex" horiz-adv-x="884" unicode="&#x174;"/><glyph d="M115 710h70l54-514 302 522 77-526 271 518h78l-384-718-77 541-313-541zM742 843q0-24-16.5-40t-39.5-16-39.5 16-16.5 40q0 23 16.5 39t39.5 16 39.5-16 16.5-39zM520 843q0-24-16.5-40t-39.5-16-39.5 16-16.5 40q0 23 16.5 39t39.5 16 39.5-16 16.5-39z" glyph-name="Wdieresis" horiz-adv-x="884" unicode="&#x1e84;"/><glyph d="M115 710h70l54-514 302 522 77-526 271 518h78l-384-718-77 541-313-541zM431 913h82l64-145h-59z" glyph-name="Wgrave" horiz-adv-x="884" unicode="&#x1e80;"/><glyph d="M280 300l-174 410h81l139-338 282 338h93l-347-410-64-300h-74zM254 818l194 108 146-111-33-47-118 92-163-92z" glyph-name="Ycircumflex" horiz-adv-x="612" unicode="&#x176;"/><glyph d="M280 300l-174 410h81l139-338 282 338h93l-347-410-64-300h-74zM600 843q0-24-16.5-40t-39.5-16-39.5 16-16.5 40q0 23 16.5 39t39.5 16 39.5-16 16.5-39zM378 843q0-24-16.5-40t-39.5-16-39.5 16-16.5 40q0 23 16.5 39t39.5 16 39.5-16 16.5-39z" glyph-name="Ydieresis" horiz-adv-x="612" unicode="&#x178;"/><glyph d="M280 300l-174 410h81l139-338 282 338h93l-347-410-64-300h-74zM289 913h82l64-145h-59z" glyph-name="Ygrave" horiz-adv-x="612" unicode="&#x1ef2;"/><glyph d="M280 300l-174 410h81l139-338 282 338h93l-347-410-64-300h-74zM286 864h289l-11-54h-289z" glyph-name="uni0232" horiz-adv-x="612" unicode="&#x232;"/><glyph d="M506 638h-367l15 72h503l-551-638h412l-16-72h-547zM488 913h92l-143-145h-62z" glyph-name="Zacute" horiz-adv-x="586" unicode="&#x179;"/><glyph d="M506 638h-367l15 72h503l-551-638h412l-16-72h-547zM593 876l-194-109-146 112 33 46 118-91 164 92z" glyph-name="Zcaron" horiz-adv-x="586" unicode="&#x17d;"/><glyph d="M506 638h-367l15 72h503l-551-638h412l-16-72h-547zM426 787q-23 0-39.5 15.5t-16.5 40.5q0 23 16.5 39t39.5 16 39-16 16-39q0-24-16-40t-39-16z" glyph-name="Zdotaccent" horiz-adv-x="586" unicode="&#x17b;"/><glyph d="M196 710h429l-207-265q33-5 62.5-20.5t52-40.5 36-60 13.5-78q0-57-21-103t-58.5-77.5-90-48.5-114.5-17h-58l15 72h53q91 0 144.5 45t53.5 126q0 35-12.5 61.5t-33.5 44.5-49 27-58 9h-32l13 63 153 194h-230l-136-642h-75z" glyph-name="uni1E9E" horiz-adv-x="632" unicode="&#x1e9e;"/><glyph d="M420 50q-31-26-70.5-42t-90.5-16q-52 0-92.5 18.5t-68 49.5-42 72-14.5 87q0 57 21.5 109.5t59.5 92 91.5 63.5 117.5 24q55 0 97.5-18.5t70.5-49.5l13 60h71l-106-500h-68zM274 59q45 0 87.5 19t73.5 54l48 230q-23 38-64.5 58.5t-89.5 20.5q-45 0-83.5-17t-67.5-46-45.5-68.5-16.5-85.5q0-36 11-66.5t31.5-52 49.5-34 66-12.5zM534 710q-11-60-51-96.5t-119-36.5q-38 0-65 10t-44.5 28-25.5 42.5-8 52.5h52q1-45 28-64.5t67-19.5q44 0 74 20.5t41 63.5h51z" glyph-name="abreve" horiz-adv-x="610" unicode="&#x103;"/><glyph d="M420 50q-31-26-70.5-42t-90.5-16q-52 0-92.5 18.5t-68 49.5-42 72-14.5 87q0 57 21.5 109.5t59.5 92 91.5 63.5 117.5 24q55 0 97.5-18.5t70.5-49.5l13 60h71l-106-500h-68zM274 59q45 0 87.5 19t73.5 54l48 230q-23 38-64.5 58.5t-89.5 20.5q-45 0-83.5-17t-67.5-46-45.5-68.5-16.5-85.5q0-36 11-66.5t31.5-52 49.5-34 66-12.5zM240 679h289l-12-54h-289z" glyph-name="amacron" horiz-adv-x="610" unicode="&#x101;"/><glyph d="M387-192q-35 0-58.5 19.5t-23.5 53.5q0 21 10 39.5t25.5 34 34 27.5 35.5 20l10 48q-31-26-70.5-42t-90.5-16q-52 0-92.5 18.5t-68 49.5-42 72-14.5 87q0 57 21.5 109.5t59.5 92 91.5 63.5 117.5 24q55 0 97.5-18.5t70.5-49.5l13 60h71l-106-500q-48-22-74.5-49t-26.5-53q0-17 10.5-26t34.5-9q20 0 31 7l-12-54q-11-5-25.5-6.5t-28.5-1.5zM274 59q45 0 87.5 19t73.5 54l48 230q-23 38-64.5 58.5t-89.5 20.5q-45 0-83.5-17t-67.5-46-45.5-68.5-16.5-85.5q0-36 11-66.5t31.5-52 49.5-34 66-12.5z" glyph-name="aogonek" horiz-adv-x="610" unicode="&#x105;"/><glyph d="M474 66q-38-34-86-54t-108-20q-57 0-101 19.5t-74 52-45.5 75-15.5 88.5q0 58 21.5 109.5t59.5 89.5 89.5 60 112.5 22q65 0 115.5-26t79.5-75l-59-41q-23 37-59.5 56t-81.5 19q-44 0-81-16t-65-43.5-43.5-66-15.5-83.5q0-42 14-74t37-54 54-33.5 65-11.5q42 0 76.5 15t63.5 41zM423 710h94l-148-160h-57z" glyph-name="cacute" horiz-adv-x="529" unicode="&#x107;"/><glyph d="M474 66q-38-34-86-54t-108-20q-57 0-101 19.5t-74 52-45.5 75-15.5 88.5q0 58 21.5 109.5t59.5 89.5 89.5 60 112.5 22q65 0 115.5-26t79.5-75l-59-41q-23 37-59.5 56t-81.5 19q-44 0-81-16t-65-43.5-43.5-66-15.5-83.5q0-42 14-74t37-54 54-33.5 65-11.5q42 0 76.5 15t63.5 41zM528 682l-194-114-145 119 34 43 116-96 162 96z" glyph-name="ccaron" horiz-adv-x="529" unicode="&#x10d;"/><glyph d="M474 66q-38-34-86-54t-108-20q-57 0-101 19.5t-74 52-45.5 75-15.5 88.5q0 58 21.5 109.5t59.5 89.5 89.5 60 112.5 22q65 0 115.5-26t79.5-75l-59-41q-23 37-59.5 56t-81.5 19q-44 0-81-16t-65-43.5-43.5-66-15.5-83.5q0-42 14-74t37-54 54-33.5 65-11.5q42 0 76.5 15t63.5 41zM186 604l195 114 144-119-34-43-116 96-163-96z" glyph-name="ccircumflex" horiz-adv-x="529" unicode="&#x109;"/><glyph d="M474 66q-38-34-86-54t-108-20q-57 0-101 19.5t-74 52-45.5 75-15.5 88.5q0 58 21.5 109.5t59.5 89.5 89.5 60 112.5 22q65 0 115.5-26t79.5-75l-59-41q-23 37-59.5 56t-81.5 19q-44 0-81-16t-65-43.5-43.5-66-15.5-83.5q0-42 14-74t37-54 54-33.5 65-11.5q42 0 76.5 15t63.5 41zM362 576q-23 0-39.5 15.5t-16.5 40.5q0 23 16.5 39t39.5 16 39-16 16-39q0-24-16-40t-39-16z" glyph-name="cdotaccent" horiz-adv-x="529" unicode="&#x10b;"/><glyph d="M420 50q-32-26-71.5-42t-90.5-16-91.5 18.5-68 49.5-42 72-14.5 87q0 57 21.5 109.5t59.5 92 91.5 63.5 117.5 24q54 0 96.5-18.5t71.5-50.5l58 271h71l-151-710h-68zM274 59q45 0 87.5 19t73.5 54l48 229q-23 38-64.5 59t-89.5 21q-45 0-83.5-17t-67.5-46-45.5-68.5-16.5-85.5q0-36 11-66.5t31.5-52 49.5-34 66-12.5zM787 710l-79-166h-53l60 166h72z" glyph-name="dcaron" horiz-adv-x="634" unicode="&#x10f;"/><glyph d="M420 50q-32-26-71.5-42t-90.5-16-91.5 18.5-68 49.5-42 72-14.5 87q0 57 21.5 109.5t59.5 92 91.5 63.5 117.5 24q54 0 96.5-18.5t71.5-50.5l58 271h71l-151-710h-68zM274 59q45 0 87.5 19t73.5 54l48 229q-23 38-64.5 59t-89.5 21q-45 0-83.5-17t-67.5-46-45.5-68.5-16.5-85.5q0-36 11-66.5t31.5-52 49.5-34 66-12.5zM357 583l12 54h319l-12-54h-319z" glyph-name="dcroat" horiz-adv-x="610" unicode="&#x111;"/><glyph d="M286 59q43 0 79.5 15.5t64.5 42.5l47-50q-38-35-87.5-55t-109.5-20q-57 0-101 19.5t-74 52-45.5 75-15.5 88.5q0 58 21.5 109.5t59.5 89.5 89.5 60 112.5 22q60 0 104-22.5t71-60.5 36-87-2-102h-419q-1-45 13-78.5t38-55 54.5-32.5 63.5-11zM322 443q-32 0-63.5-9.5t-57.5-28-46-45.5-29-62h339q3 68-37.5 106.5t-105.5 38.5zM515 710q-11-60-51-96.5t-119-36.5q-38 0-65 10t-44.5 28-25.5 42.5-8 52.5h52q1-45 28-64.5t67-19.5q44 0 74 20.5t41 63.5h51z" glyph-name="ebreve" horiz-adv-x="572" unicode="&#x115;"/><glyph d="M286 59q43 0 79.5 15.5t64.5 42.5l47-50q-38-35-87.5-55t-109.5-20q-57 0-101 19.5t-74 52-45.5 75-15.5 88.5q0 58 21.5 109.5t59.5 89.5 89.5 60 112.5 22q60 0 104-22.5t71-60.5 36-87-2-102h-419q-1-45 13-78.5t38-55 54.5-32.5 63.5-11zM322 443q-32 0-63.5-9.5t-57.5-28-46-45.5-29-62h339q3 68-37.5 106.5t-105.5 38.5zM528 682l-194-114-145 119 34 43 116-96 162 96z" glyph-name="ecaron" horiz-adv-x="572" unicode="&#x11b;"/><glyph d="M286 59q43 0 79.5 15.5t64.5 42.5l47-50q-38-35-87.5-55t-109.5-20q-57 0-101 19.5t-74 52-45.5 75-15.5 88.5q0 58 21.5 109.5t59.5 89.5 89.5 60 112.5 22q60 0 104-22.5t71-60.5 36-87-2-102h-419q-1-45 13-78.5t38-55 54.5-32.5 63.5-11zM322 443q-32 0-63.5-9.5t-57.5-28-46-45.5-29-62h339q3 68-37.5 106.5t-105.5 38.5zM221 679h289l-12-54h-289z" glyph-name="emacron" horiz-adv-x="572" unicode="&#x113;"/><glyph d="M450-184q-12-5-26.5-6.5t-29.5-1.5q-35 0-61.5 21t-26.5 63q0 26 12.5 54t38.5 57q-26-6-43-8.5t-34-2.5q-57 0-101 19.5t-74 52-45.5 75-15.5 88.5q0 58 21.5 109.5t59.5 89.5 89.5 60 112.5 22q60 0 104-22.5t71-60.5 36-87-2-102h-418q-1-45 13-78.5t37.5-55 54-32.5 63.5-11q43 0 79.5 15.5t64.5 42.5l47-50q-44-43-73-82.5t-29-76.5q0-24 16.5-34.5t37.5-10.5q22 0 32 7zM465 298q3 68-37.5 106.5t-105.5 38.5q-32 0-63-9.5t-57-27.5-46-45-30-63h339z" glyph-name="eogonek" horiz-adv-x="572" unicode="&#x119;"/><glyph d="M286 59q43 0 79.5 15.5t64.5 42.5l47-50q-38-35-87.5-55t-109.5-20q-57 0-101 19.5t-74 52-45.5 75-15.5 88.5q0 58 21.5 109.5t59.5 89.5 89.5 60 112.5 22q60 0 104-22.5t71-60.5 36-87-2-102h-419q-1-45 13-78.5t38-55 54.5-32.5 63.5-11zM322 443q-32 0-63.5-9.5t-57.5-28-46-45.5-29-62h339q3 68-37.5 106.5t-105.5 38.5zM362 576q-23 0-39.5 15.5t-16.5 40.5q0 23 16.5 39t39.5 16 39-16 16-39q0-24-16-40t-39-16z" glyph-name="edotaccent" horiz-adv-x="572" unicode="&#x117;"/><glyph d="M489 112q10-74-5.5-131t-51.5-96-90.5-59-123.5-20q-28 0-57 4t-56.5 12.5-51.5 21.5-42 31l45 59q26-27 69.5-43.5t95.5-16.5q54 0 93.5 15.5t63.5 42.5 33.5 63 4.5 78q-37-29-77-42.5t-82-13.5q-50 0-89 16.5t-66 45.5-41.5 68.5-14.5 84.5q0 57 20 107t57.5 87.5 89.5 59.5 117 22q52 0 91.5-16.5t67.5-44.5l11 53h71zM271 84q44 0 84.5 18.5t71.5 51.5l46 216q-23 34-62.5 52.5t-84.5 18.5q-44 0-81.5-15t-65.5-42-44-64.5-16-82.5q0-73 40-113t112-40zM518 710q-11-60-51-96.5t-119-36.5q-38 0-65 10t-44.5 28-25.5 42.5-8 52.5h52q1-45 28-64.5t67-19.5q44 0 74 20.5t41 63.5h51z" glyph-name="gbreve" horiz-adv-x="601" unicode="&#x11f;"/><glyph d="M489 112q10-74-5.5-131t-51.5-96-90.5-59-123.5-20q-28 0-57 4t-56.5 12.5-51.5 21.5-42 31l45 59q26-27 69.5-43.5t95.5-16.5q54 0 93.5 15.5t63.5 42.5 33.5 63 4.5 78q-37-29-77-42.5t-82-13.5q-50 0-89 16.5t-66 45.5-41.5 68.5-14.5 84.5q0 57 20 107t57.5 87.5 89.5 59.5 117 22q52 0 91.5-16.5t67.5-44.5l11 53h71zM271 84q44 0 84.5 18.5t71.5 51.5l46 216q-23 34-62.5 52.5t-84.5 18.5q-44 0-81.5-15t-65.5-42-44-64.5-16-82.5q0-73 40-113t112-40zM189 604l195 114 144-119-34-43-116 96-163-96z" glyph-name="gcircumflex" horiz-adv-x="601" unicode="&#x11d;"/><glyph d="M489 112q10-74-5.5-131t-51.5-96-90.5-59-123.5-20q-28 0-57 4t-56.5 12.5-51.5 21.5-42 31l45 59q26-27 69.5-43.5t95.5-16.5q54 0 93.5 15.5t63.5 42.5 33.5 63 4.5 78q-37-29-77-42.5t-82-13.5q-50 0-89 16.5t-66 45.5-41.5 68.5-14.5 84.5q0 57 20 107t57.5 87.5 89.5 59.5 117 22q52 0 91.5-16.5t67.5-44.5l11 53h71zM271 84q44 0 84.5 18.5t71.5 51.5l46 216q-23 34-62.5 52.5t-84.5 18.5q-44 0-81.5-15t-65.5-42-44-64.5-16-82.5q0-73 40-113t112-40zM386.977 543.967h-83.9951l131.992 164.99h56.9961z" glyph-name="uni0123" horiz-adv-x="601" unicode="&#x123;"/><glyph d="M489 112q10-74-5.5-131t-51.5-96-90.5-59-123.5-20q-28 0-57 4t-56.5 12.5-51.5 21.5-42 31l45 59q26-27 69.5-43.5t95.5-16.5q54 0 93.5 15.5t63.5 42.5 33.5 63 4.5 78q-37-29-77-42.5t-82-13.5q-50 0-89 16.5t-66 45.5-41.5 68.5-14.5 84.5q0 57 20 107t57.5 87.5 89.5 59.5 117 22q52 0 91.5-16.5t67.5-44.5l11 53h71zM271 84q44 0 84.5 18.5t71.5 51.5l46 216q-23 34-62.5 52.5t-84.5 18.5q-44 0-81.5-15t-65.5-42-44-64.5-16-82.5q0-73 40-113t112-40zM365 576q-23 0-39.5 15.5t-16.5 40.5q0 23 16.5 39t39.5 16 39-16 16-39q0-24-16-40t-39-16z" glyph-name="gdotaccent" horiz-adv-x="601" unicode="&#x121;"/><glyph d="M177 710h70l-57-265q32 30 72 46.5t88 16.5q45 0 81-16.5t59-47 31.5-72.5-2.5-93l-59-279h-71l58 274q16 78-18 122.5t-103 44.5q-47 0-86-22t-69-61l-75-358h-70zM76 583l12 54h319l-12-54h-319z" glyph-name="hbar" horiz-adv-x="584" unicode="&#x127;"/><glyph d="M177 710h70l-57-265q32 30 72 46.5t88 16.5q45 0 81-16.5t59-47 31.5-72.5-2.5-93l-59-279h-71l58 274q16 78-18 122.5t-103 44.5q-47 0-86-22t-69-61l-75-358h-70zM249 818l194 108 146-111-33-47-118 92-163-92z" glyph-name="hcircumflex" horiz-adv-x="584" unicode="&#x125;"/><glyph d="M132 500h71l-106-500h-71z" glyph-name="dotlessi" horiz-adv-x="229" unicode="&#x131;"/><glyph d="M132 500h71l-106-500h-71zM355 710q-11-60-51-96.5t-119-36.5q-38 0-65 10t-44.5 28-25.5 42.5-8 52.5h52q1-45 28-64.5t67-19.5q44 0 74 20.5t41 63.5h51z" glyph-name="ibreve" horiz-adv-x="229" unicode="&#x12d;"/><glyph d="M132 500h71l-106-500h-71zM61 679h289l-12-54h-289z" glyph-name="imacron" horiz-adv-x="229" unicode="&#x12b;"/><glyph d="M132 500h71l-106-500h-71zM165 619q-13 11-13 32 0 29 19 48t45 19q20 0 34-12.5t14-31.5q0-17-9.5-32t-20.5-23h-69zM6-192q-35 0-59 19.5t-24 53.5q0 21 9.5 39.5t24.5 34 33 27.5 36 20l70-2q-48-22-74-49t-26-53q0-35 44-35 21 0 32 7l-12-54q-12-5-26-6.5t-28-1.5z" glyph-name="iogonek" horiz-adv-x="229" unicode="&#x12f;"/><glyph d="M132 500h71l-106-500h-71zM12 570q35 107 114 107 22 0 40-8t34-17 30-17 28-8q23 0 36.5 12.5t23.5 37.5h57q-19-55-46-80.5t-69-25.5q-22 0-39.5 8t-33.5 17-30.5 17-29.5 8q-21 0-34.5-13t-23.5-38h-57z" glyph-name="itilde" horiz-adv-x="229" unicode="&#x129;"/><glyph d="M132 500h71l-106-500h-71zM165 619q-13 11-13 32 0 29 19 48t45 19q20 0 34-12.5t14-31.5q0-17-9.5-32t-20.5-23h-69zM41-186q-23 0-39.5 15.5t-16.5 40.5q0 23 16.5 39t39.5 16 39-16 16-39q0-24-16-40t-39-16z" glyph-name="uni1ECB" horiz-adv-x="229" unicode="&#x1ecb;"/><glyph d="M-102-117h26q27 0 45 5.5t29.5 17 18.5 29.5 12 44l111 521h70l-112-531q-9-41-22.5-70t-34.5-47.5-51-27-72-8.5h-34z" glyph-name="uni0237" horiz-adv-x="236" unicode="&#x237;"/><glyph d="M-102-117h26q27 0 45 5.5t29.5 17 18.5 29.5 12 44l111 521h70l-112-531q-9-41-22.5-70t-34.5-47.5-51-27-72-8.5h-34zM33 604l195 114 144-119-34-43-116 96-163-96z" glyph-name="jcircumflex" horiz-adv-x="236" unicode="&#x135;"/><glyph d="M177 710h70l-94-442 289 232h93l-304-242 220-258h-82l-219 256-54-256h-70zM186-50h84l-132-165h-57z" glyph-name="uni0137" horiz-adv-x="499" unicode="&#x137;"/><glyph d="M177 710h70l-151-710h-70zM307 920h94l-148-160h-57z" glyph-name="lacute" horiz-adv-x="228" unicode="&#x13a;"/><glyph d="M177 710h70l-151-710h-70zM410 710l-79-166h-53l60 166h72z" glyph-name="lcaron" horiz-adv-x="252" unicode="&#x13e;"/><glyph d="M177 710h70l-151-710h-70zM9-50h84l-132-165h-57z" glyph-name="uni013C" horiz-adv-x="228" unicode="&#x13c;"/><glyph d="M177 710h70l-151-710h-70zM317 318q-23 0-39.5 15.5t-16.5 40.5q0 23 16.5 39t39.5 16 39-16 16-39q0-24-16-40t-39-16z" glyph-name="ldot" horiz-adv-x="353" unicode="&#x140;"/><glyph d="M242 710h70l-151-710h-70zM34 308l317 177 26-49-317-176z" glyph-name="lslash" horiz-adv-x="346" unicode="&#x142;"/><glyph d="M132 500h67l-12-57q33 31 74 48t89 17q45 0 81-16.5t59-46.5 31.5-72-2.5-94l-60-279h-70l58 278q16 75-18 119t-103 44q-47 0-86-21.5t-68-61.5l-76-358h-70zM446 710h94l-148-160h-57z" glyph-name="nacute" horiz-adv-x="584" unicode="&#x144;"/><glyph d="M132 500h67l-12-57q33 31 74 48t89 17q45 0 81-16.5t59-46.5 31.5-72-2.5-94l-60-279h-70l58 278q16 75-18 119t-103 44q-47 0-86-21.5t-68-61.5l-76-358h-70zM551 682l-194-114-145 119 34 43 116-96 162 96z" glyph-name="ncaron" horiz-adv-x="584" unicode="&#x148;"/><glyph d="M132 500h67l-12-57q33 31 74 48t89 17q45 0 81-16.5t59-46.5 31.5-72-2.5-94l-60-279h-70l58 278q16 75-18 119t-103 44q-47 0-86-21.5t-68-61.5l-76-358h-70zM204-50h84l-132-165h-57z" glyph-name="uni0146" horiz-adv-x="584" unicode="&#x146;"/><glyph d="M927 67q-38-35-88-55t-109-20q-72 0-126 32.5t-84 95.5q-42-65-104-96.5t-132-31.5q-57 0-101.5 19.5t-75.5 52-47 75-16 88.5q0 58 21.5 109.5t60 89.5 90 60 111.5 22q72 0 127-32t86-95q42 64 104 95.5t133 31.5q60 0 104-23t71-60.5 35.5-87-2.5-101.5h-419q1-46 15.5-79.5t38-55 53.5-32 62-10.5q43 0 80 15.5t65 42.5zM771 443q-66 0-119.5-36.5t-76.5-108.5h339q3 68-37 106.5t-106 38.5zM117 232q0-41 14-73t38-54 55-33.5 65-11.5q43 0 80.5 15.5t65 43 43.5 66 16 83.5q0 41-14 73t-37.5 54-55 33.5-65.5 11.5q-43 0-80.5-15.5t-65-43-43.5-66-16-83.5z" glyph-name="oe" horiz-adv-x="1021" unicode="&#x153;"/><glyph d="M566 274q0-59-21.5-110.5t-59.5-89.5-90-60-112-22q-57 0-101.5 19.5t-75 52-46.5 75-16 88.5q0 58 21.5 109.5t59.5 89.5 90 60 112 22q57 0 101.5-19.5t75-52 46.5-74.5 16-88zM117 232q0-41 14-73t37.5-54.5 54.5-34 65-11.5q43 0 80.5 15.5t65.5 43.5 43.5 66.5 15.5 83.5q0 41-14 73t-37.5 54.5-54.5 34-65 11.5q-43 0-80.5-15.5t-65-43.5-43.5-66.5-16-83.5zM515 710q-11-60-51-96.5t-119-36.5q-38 0-65 10t-44.5 28-25.5 42.5-8 52.5h52q1-45 28-64.5t67-19.5q44 0 74 20.5t41 63.5h51z" glyph-name="obreve" horiz-adv-x="609" unicode="&#x14f;"/><glyph d="M566 274q0-59-21.5-110.5t-59.5-89.5-90-60-112-22q-57 0-101.5 19.5t-75 52-46.5 75-16 88.5q0 58 21.5 109.5t59.5 89.5 90 60 112 22q57 0 101.5-19.5t75-52 46.5-74.5 16-88zM117 232q0-41 14-73t37.5-54.5 54.5-34 65-11.5q43 0 80.5 15.5t65.5 43.5 43.5 66.5 15.5 83.5q0 41-14 73t-37.5 54.5-54.5 34-65 11.5q-43 0-80.5-15.5t-65-43.5-43.5-66.5-16-83.5zM515 710h87l-151-161h-57zM344 710h87l-151-161h-56z" glyph-name="ohungarumlaut" horiz-adv-x="609" unicode="&#x151;"/><glyph d="M566 274q0-59-21.5-110.5t-59.5-89.5-90-60-112-22q-57 0-101.5 19.5t-75 52-46.5 75-16 88.5q0 58 21.5 109.5t59.5 89.5 90 60 112 22q57 0 101.5-19.5t75-52 46.5-74.5 16-88zM117 232q0-41 14-73t37.5-54.5 54.5-34 65-11.5q43 0 80.5 15.5t65.5 43.5 43.5 66.5 15.5 83.5q0 41-14 73t-37.5 54.5-54.5 34-65 11.5q-43 0-80.5-15.5t-65-43.5-43.5-66.5-16-83.5zM221 679h289l-12-54h-289z" glyph-name="omacron" horiz-adv-x="609" unicode="&#x14d;"/><glyph d="M566 274q0-59-21.5-110.5t-59.5-89.5-90-60-112-22q-57 0-101.5 19.5t-75 52-46.5 75-16 88.5q0 58 21.5 109.5t59.5 89.5 90 60 112 22q57 0 101.5-19.5t75-52 46.5-74.5 16-88zM117 232q0-41 14-73t37.5-54.5 54.5-34 65-11.5q43 0 80.5 15.5t65.5 43.5 43.5 66.5 15.5 83.5q0 41-14 73t-37.5 54.5-54.5 34-65 11.5q-43 0-80.5-15.5t-65-43.5-43.5-66.5-16-83.5zM262-186q-23 0-39.5 15.5t-16.5 40.5q0 23 16.5 39t39.5 16 39-16 16-39q0-24-16-40t-39-16z" glyph-name="uni1ECD" horiz-adv-x="609" unicode="&#x1ecd;"/><glyph d="M132 500h70l-14-68q29 35 70.5 55t92.5 20q8 0 16.5-.5t16.5-1.5l-16-74q-20 5-44 5-48 0-88-23t-66-65l-74-348h-70zM344 710h94l-148-160h-57z" glyph-name="racute" horiz-adv-x="354" unicode="&#x155;"/><glyph d="M132 500h70l-14-68q29 35 70.5 55t92.5 20q8 0 16.5-.5t16.5-1.5l-16-74q-20 5-44 5-48 0-88-23t-66-65l-74-348h-70zM449 682l-194-114-145 119 34 43 116-96 162 96z" glyph-name="rcaron" horiz-adv-x="354" unicode="&#x159;"/><glyph d="M132 500h70l-14-68q29 35 70.5 55t92.5 20q8 0 16.5-.5t16.5-1.5l-16-74q-20 5-44 5-48 0-88-23t-66-65l-74-348h-70zM7-50h84l-132-165h-57z" glyph-name="uni0157" horiz-adv-x="354" unicode="&#x157;"/><glyph d="M357 133q0-31-13-57t-35.5-44.5-53.5-29-66-10.5q-74 0-118.5 32.5t-63.5 86.5l62 28q14-41 45-62.5t79-21.5q39 0 66.5 19t27.5 51q0 31-19.5 51t-54.5 40l-42 25q-39 23-66.5 56t-27.5 78q0 29 11.5 53.5t32.5 42 49.5 27.5 63.5 10q54 0 94-25t59-70l-64-29q-11 26-33.5 43t-59.5 17q-36 0-59-17.5t-23-47.5q0-26 16-45.5t45-36.5l43-26q20-12 39-25.5t33.5-30.5 23.5-37.5 9-44.5zM330 710h94l-148-160h-57z" glyph-name="sacute" horiz-adv-x="417" unicode="&#x15b;"/><glyph d="M357 133q0-31-13-57t-35.5-44.5-53.5-29-66-10.5q-74 0-118.5 32.5t-63.5 86.5l62 28q14-41 45-62.5t79-21.5q39 0 66.5 19t27.5 51q0 31-19.5 51t-54.5 40l-42 25q-39 23-66.5 56t-27.5 78q0 29 11.5 53.5t32.5 42 49.5 27.5 63.5 10q54 0 94-25t59-70l-64-29q-11 26-33.5 43t-59.5 17q-36 0-59-17.5t-23-47.5q0-26 16-45.5t45-36.5l43-26q20-12 39-25.5t33.5-30.5 23.5-37.5 9-44.5zM439 682l-194-114-145 119 34 43 116-96 162 96z" glyph-name="scaron" horiz-adv-x="417" unicode="&#x161;"/><glyph d="M357 133q0-31-13-57t-35.5-44.5-53.5-29-66-10.5q-74 0-118.5 32.5t-63.5 86.5l62 28q14-41 45-62.5t79-21.5q39 0 66.5 19t27.5 51q0 31-19.5 51t-54.5 40l-42 25q-39 23-66.5 56t-27.5 78q0 29 11.5 53.5t32.5 42 49.5 27.5 63.5 10q54 0 94-25t59-70l-64-29q-11 26-33.5 43t-59.5 17q-36 0-59-17.5t-23-47.5q0-26 16-45.5t45-36.5l43-26q20-12 39-25.5t33.5-30.5 23.5-37.5 9-44.5zM163 0h54l-87-165h-83z" glyph-name="scedilla" horiz-adv-x="417" unicode="&#x15f;"/><glyph d="M357 133q0-31-13-57t-35.5-44.5-53.5-29-66-10.5q-74 0-118.5 32.5t-63.5 86.5l62 28q14-41 45-62.5t79-21.5q39 0 66.5 19t27.5 51q0 31-19.5 51t-54.5 40l-42 25q-39 23-66.5 56t-27.5 78q0 29 11.5 53.5t32.5 42 49.5 27.5 63.5 10q54 0 94-25t59-70l-64-29q-11 26-33.5 43t-59.5 17q-36 0-59-17.5t-23-47.5q0-26 16-45.5t45-36.5l43-26q20-12 39-25.5t33.5-30.5 23.5-37.5 9-44.5zM93 604l195 114 144-119-34-43-116 96-163-96z" glyph-name="scircumflex" horiz-adv-x="417" unicode="&#x15d;"/><glyph d="M357 133q0-31-13-57t-35.5-44.5-53.5-29-66-10.5q-74 0-118.5 32.5t-63.5 86.5l62 28q14-41 45-62.5t79-21.5q39 0 66.5 19t27.5 51q0 31-19.5 51t-54.5 40l-42 25q-39 23-66.5 56t-27.5 78q0 29 11.5 53.5t32.5 42 49.5 27.5 63.5 10q54 0 94-25t59-70l-64-29q-11 26-33.5 43t-59.5 17q-36 0-59-17.5t-23-47.5q0-26 16-45.5t45-36.5l43-26q20-12 39-25.5t33.5-30.5 23.5-37.5 9-44.5zM144-50h84l-132-165h-57z" glyph-name="uni0219" horiz-adv-x="417" unicode="&#x219;"/><glyph d="M60 500h102l25 113 80 37-32-150h134l-15-64h-133l-59-272q-11-52 1-76t64-24h53l-14-64h-55q-80 0-109 37.5t-12 119.5l59 279h-89v64zM443 710l-79-166h-53l60 166h72z" glyph-name="tcaron" horiz-adv-x="344" unicode="&#x165;"/><glyph d="M60 500h102l25 113 80 37-32-150h134l-15-64h-133l-59-272q-11-52 1-76t64-24h53l-14-64h-55q-80 0-109 37.5t-12 119.5l59 279h-89v64zM118-50h84l-132-165h-57z" glyph-name="uni0163" horiz-adv-x="344" unicode="&#x163;"/><glyph d="M60 500h102l25 113 80 37-32-150h134l-15-64h-133l-59-272q-11-52 1-76t64-24h53l-14-64h-55q-80 0-109 37.5t-12 119.5l59 279h-89v64zM118-50h84l-132-165h-57z" glyph-name="uni021B" horiz-adv-x="344" unicode="&#x21b;"/><glyph d="M391 57q-32-31-73.5-48t-87.5-17q-45 0-80.5 15.5t-58 44.5-30.5 70 3 92l61 286h71l-60-280q-17-80 14-120.5t102-40.5q94 0 154 83l76 358h70l-106-500h-67zM527 710q-11-60-51-96.5t-119-36.5q-38 0-65 10t-44.5 28-25.5 42.5-8 52.5h52q1-45 28-64.5t67-19.5q44 0 74 20.5t41 63.5h51z" glyph-name="ubreve" horiz-adv-x="578" unicode="&#x16d;"/><glyph d="M391 57q-32-31-73.5-48t-87.5-17q-45 0-80.5 15.5t-58 44.5-30.5 70 3 92l61 286h71l-60-280q-17-80 14-120.5t102-40.5q94 0 154 83l76 358h70l-106-500h-67zM527 710h87l-151-161h-57zM356 710h87l-151-161h-56z" glyph-name="uhungarumlaut" horiz-adv-x="578" unicode="&#x171;"/><glyph d="M391 57q-32-31-73.5-48t-87.5-17q-45 0-80.5 15.5t-58 44.5-30.5 70 3 92l61 286h71l-60-280q-17-80 14-120.5t102-40.5q94 0 154 83l76 358h70l-106-500h-67zM233 679h289l-12-54h-289z" glyph-name="umacron" horiz-adv-x="578" unicode="&#x16b;"/><glyph d="M356-192q-35 0-59 19.5t-24 53.5q0 21 9.5 40t24.5 34.5 34 27.5 38 19l12 55q-32-31-73.5-48t-87.5-17q-45 0-80.5 15.5t-58 44.5-30.5 70 3 92l61 286h71l-60-280q-17-80 14-120.5t102-40.5q94 0 154 83l76 358h70l-106-500q-48-22-74-49t-26-53q0-17 10.5-26t34.5-9q20 0 31 7l-12-54q-12-5-26-6.5t-28-1.5z" glyph-name="uogonek" horiz-adv-x="578" unicode="&#x173;"/><glyph d="M391 57q-32-31-73.5-48t-87.5-17q-45 0-80.5 15.5t-58 44.5-30.5 70 3 92l61 286h71l-60-280q-17-80 14-120.5t102-40.5q94 0 154 83l76 358h70l-106-500h-67zM468 663q0-19-7.5-35.5t-20-29-30-19.5-37.5-7-37 7-29.5 19.5-20 29-7.5 35.5 7.5 36 20.5 29 30 19 36 7q39 0 67-26t28-65zM322 663q0-23 15-37t36-14q22 0 37 14t15 37-15 37-37 14q-21 0-36-14t-15-37z" glyph-name="uring" horiz-adv-x="578" unicode="&#x16f;"/><glyph d="M391 57q-32-31-73.5-48t-87.5-17q-45 0-80.5 15.5t-58 44.5-30.5 70 3 92l61 286h71l-60-280q-17-80 14-120.5t102-40.5q94 0 154 83l76 358h70l-106-500h-67zM184 570q35 107 114 107 22 0 40-8t34-17 30-17 28-8q23 0 36.5 12.5t23.5 37.5h57q-19-55-46-80.5t-69-25.5q-22 0-39.5 8t-33.5 17-30.5 17-29.5 8q-21 0-34.5-13t-23.5-38h-57z" glyph-name="utilde" horiz-adv-x="578" unicode="&#x169;"/><glyph d="M391 57q-32-31-73.5-48t-87.5-17q-45 0-80.5 15.5t-58 44.5-30.5 70 3 92l61 286h71l-60-280q-17-80 14-120.5t102-40.5q94 0 154 83l76 358h70l-106-500h-67zM209-186q-23 0-39.5 15.5t-16.5 40.5q0 23 16.5 39t39.5 16 39-16 16-39q0-24-16-40t-39-16z" glyph-name="uni1EE5" horiz-adv-x="578" unicode="&#x1ee5;"/><glyph d="M62 500h70l41-385 228 393 62-394 204 386h71l-262-502h-56l-52 337-192-337h-57zM495 710h94l-148-160h-57z" glyph-name="wacute" horiz-adv-x="698" unicode="&#x1e83;"/><glyph d="M62 500h70l41-385 228 393 62-394 204 386h71l-262-502h-56l-52 337-192-337h-57zM258 604l195 114 144-119-34-43-116 96-163-96z" glyph-name="wcircumflex" horiz-adv-x="698" unicode="&#x175;"/><glyph d="M62 500h70l41-385 228 393 62-394 204 386h71l-262-502h-56l-52 337-192-337h-57zM601 632q0-24-16.5-40t-39.5-16-39.5 16-16.5 40q0 23 16.5 39t39.5 16 39.5-16 16.5-39zM379 632q0-24-16.5-40t-39.5-16-39.5 16-16.5 40q0 23 16.5 39t39.5 16 39.5-16 16.5-39z" glyph-name="wdieresis" horiz-adv-x="698" unicode="&#x1e85;"/><glyph d="M62 500h70l41-385 228 393 62-394 204 386h71l-262-502h-56l-52 337-192-337h-57zM289 710h84l59-160h-55z" glyph-name="wgrave" horiz-adv-x="698" unicode="&#x1e81;"/><glyph d="M169 25l-110 475h73l90-400 261 400h80l-452-684h-80zM162 604l195 114 144-119-34-43-116 96-163-96z" glyph-name="ycircumflex" horiz-adv-x="513" unicode="&#x177;"/><glyph d="M169 25l-110 475h73l90-400 261 400h80l-452-684h-80zM194 710h84l59-160h-55z" glyph-name="ygrave" horiz-adv-x="513" unicode="&#x1ef3;"/><glyph d="M169 25l-110 475h73l90-400 261 400h80l-452-684h-80zM197 679h289l-12-54h-289z" glyph-name="uni0233" horiz-adv-x="513" unicode="&#x233;"/><glyph d="M371 436h-281l13 64h414l-408-436h305l-14-64h-437zM401 710h94l-148-160h-57z" glyph-name="zacute" horiz-adv-x="490" unicode="&#x17a;"/><glyph d="M371 436h-281l13 64h414l-408-436h305l-14-64h-437zM506 682l-194-114-145 119 34 43 116-96 162 96z" glyph-name="zcaron" horiz-adv-x="490" unicode="&#x17e;"/><glyph d="M371 436h-281l13 64h414l-408-436h305l-14-64h-437zM340 576q-23 0-39.5 15.5t-16.5 40.5q0 23 16.5 39t39.5 16 39-16 16-39q0-24-16-40t-39-16z" glyph-name="zdotaccent" horiz-adv-x="490" unicode="&#x17c;"/><glyph d="M91-8q-27 0-46.5 19.5t-19.5 46.5 19.5 47 46.5 20 46.5-20 19.5-47-19.5-46.5-46.5-19.5zM329-8q-27 0-46.5 19.5t-19.5 46.5 19.5 47 46.5 20 46.5-20 19.5-47-19.5-46.5-46.5-19.5zM567-8q-27 0-46.5 19.5t-19.5 46.5 19.5 47 46.5 20 46.5-20 19.5-47-19.5-46.5-46.5-19.5z" glyph-name="ellipsis" horiz-adv-x="717" unicode="&#x2026;"/><glyph d="M84 306h428l-16-66h-428z" glyph-name="endash" horiz-adv-x="572" unicode="&#x2013;"/><glyph d="M84 306h727l-15-66h-728z" glyph-name="emdash" horiz-adv-x="871" unicode="&#x2014;"/><glyph d="M47 254l199 216 42-40-169-184 89-191-55-25z" glyph-name="guilsinglleft" horiz-adv-x="305" unicode="&#x2039;"/><glyph d="M258 246l-199-216-42 40 169 184-89 191 55 25z" glyph-name="guilsinglright" horiz-adv-x="304" unicode="&#x203a;"/><glyph d="M187 568h39l-25-117h-97l26 119 86 140h48z" glyph-name="quoteleft" horiz-adv-x="230" unicode="&#x2018;"/><glyph d="M183 593h-39l25 117h97l-26-119-86-140h-48z" glyph-name="quoteright" horiz-adv-x="223" unicode="&#x2019;"/><glyph d="M187 568h39l-25-117h-97l26 119 86 140h48zM383 568h39l-25-117h-97l26 119 86 140h48z" glyph-name="quotedblleft" horiz-adv-x="426" unicode="&#x201c;"/><glyph d="M183 593h-39l25 117h97l-26-119-86-140h-48zM379 593h-39l25 117h97l-26-119-86-140h-48z" glyph-name="quotedblright" horiz-adv-x="419" unicode="&#x201d;"/><glyph d="M65 1h-39l25 117h97l-26-119-86-140h-48z" glyph-name="quotesinglbase" horiz-adv-x="237" unicode="&#x201a;"/><glyph d="M65 1h-39l25 117h97l-26-119-86-140h-48zM261 1h-39l25 117h97l-26-119-86-140h-48z" glyph-name="quotedblbase" horiz-adv-x="433" unicode="&#x201e;"/><glyph d="M222 166q-28 0-53 10.5t-43.5 29-29 43.5-10.5 53 10.5 53 29 43.5 43.5 29 53 10.5 53-10.5 43.5-29 29-43.5 10.5-53-10.5-53-29-43.5-43.5-29-53-10.5z" glyph-name="bullet" horiz-adv-x="426" unicode="&#x2022;"/><glyph d="M81 303h438v-58h-438v58z" glyph-name="minus" horiz-adv-x="590" unicode="&#x2212;"/><glyph d="M72 299h125q-1 6-1 12v14q0 37 7 71h-134l37 61h113q19 53 53.5 100.5t83 83 111 56.5 137.5 21q60 0 107.5-16.5t84.5-45.5l-38-64q-29 26-70 41t-89 15q-57 0-105-14.5t-86-40-65.5-60.5-44.5-76h383l-36-61h-366q-6-32-6-65 0-8 .5-16t.5-16h315l-36-61h-266q26-83 92-129.5t154-46.5q32 0 59 5.5t53 14.5l-17-77q-23-6-48.5-9.5t-50.5-3.5q-62 0-115 17.5t-95 50-71 77.5-42 101h-170z" glyph-name="Euro" horiz-adv-x="748" unicode="&#x20ac;"/><glyph d="M158 436h-97l13 64h104q-15 14-24.5 35.5t-9.5 45.5q0 57 45 93t123 36h108l-14-64h-91q-48 0-77-20t-29-59q0-27 17-46t51-21h98l-13-64h-133l-93-436h-71zM468 500h71l-106-500h-71zM501 619q-13 11-13 32 0 29 19 48t45 19q20 0 34-12.5t14-31.5q0-17-9.5-32t-20.5-23h-69z" glyph-name="uniFB01" horiz-adv-x="565" unicode="&#xfb01;"/><glyph d="M158 436h-97l13 64h104q-15 14-24.5 35.5t-9.5 45.5q0 57 45 93t123 36h108l-14-64h-91q-48 0-77-20t-29-59q0-27 17-46t51-21h98l-13-64h-133l-93-436h-71zM514 710h70l-151-710h-70z" glyph-name="uniFB02" horiz-adv-x="565" unicode="&#xfb02;"/><glyph d="M146 619q-13 11-13 32 0 29 19 48t45 19q20 0 34-12.5t14-31.5q0-17-9.5-32t-20.5-23h-69z" glyph-name="glyph329" horiz-adv-x="209"/><glyph d="M282 710q-11-60-51-96.5t-119-36.5q-38 0-65 10t-44.5 28-25.5 42.5-8 52.5h52q1-45 28-64.5t67-19.5q44 0 74 20.5t41 63.5h51z" glyph-name="breve" unicode="&#x2d8;"/><glyph d="M295 682l-194-114-145 119 34 43 116-96 162 96z" glyph-name="caron" unicode="&#x2c7;"/><glyph d="M-47 604l195 114 144-119-34-43-116 96-163-96z" glyph-name="circumflex" unicode="&#x2c6;"/><glyph d="M129 576q-23 0-39.5 15.5t-16.5 40.5q0 23 16.5 39t39.5 16 39-16 16-39q0-24-16-40t-39-16z" glyph-name="dotaccent" unicode="&#x2d9;"/><glyph d="M228 710h87l-151-161h-57zM57 710h87l-151-161h-56z" glyph-name="hungarumlaut" unicode="&#x2dd;"/><glyph d="M-28-50h84l-132-165h-57z" glyph-name="glyph335"/><glyph d="M-35-192q-35 0-59 19.5t-24 53.5q0 21 9.5 39.5t24.5 34 33 27.5 36 20l70-2q-48-22-74-49t-26-53q0-35 44-35 21 0 32 7l-12-54q-12-5-26-6.5t-28-1.5z" glyph-name="ogonek" unicode="&#x2db;"/><glyph d="M223 663q0-19-7.5-35.5t-20-29-30-19.5-37.5-7-37 7-29.5 19.5-20 29-7.5 35.5 7.5 36 20.5 29 30 19 36 7q39 0 67-26t28-65zM77 663q0-23 15-37t36-14q22 0 37 14t15 37-15 37-37 14q-21 0-36-14t-15-37z" glyph-name="ring" unicode="&#x2da;"/><glyph d="M-61 570q35 107 114 107 22 0 40-8t34-17 30-17 28-8q23 0 36.5 12.5t23.5 37.5h57q-19-55-46-80.5t-69-25.5q-22 0-39.5 8t-33.5 17-30.5 17-29.5 8q-21 0-34.5-13t-23.5-38h-57z" glyph-name="tilde" unicode="&#x2dc;"/><glyph d="M188 710l-79-166h-53l60 166h72z" glyph-name="glyph339"/><glyph d="M22 576q-23 0-39 16t-16 40q0 23 16 39t39 16 39.5-16 16.5-39q0-24-16.5-40t-39.5-16zM235 576q-23 0-39.5 16t-16.5 40q0 23 16.5 39t39.5 16 39.5-16 16.5-39q0-24-16.5-40t-39.5-16z" glyph-name="glyph340"/><glyph d="M-48 585l12 54h319l-12-54h-319z" glyph-name="glyph341"/><glyph d="M-105 305l317 177 26-49-317-176z" glyph-name="glyph342"/><glyph d="M177 913h92l-143-145h-62z" glyph-name="glyph343"/><glyph d="M325 907q-9-60-50.5-96.5t-119.5-36.5q-36 0-63.5 10t-45.5 28-26.5 42.5-7.5 52.5h52q1-45 28-64.5t67-19.5q44 0 74 20.5t41 63.5h51z" glyph-name="glyph344"/><glyph d="M341 876l-194-109-146 112 33 46 118-91 164 92z" glyph-name="glyph345"/><glyph d="M-5 818l194 108 146-111-33-47-118 92-163-92z" glyph-name="glyph346"/><glyph d="M93 913h82l64-145h-59z" glyph-name="glyph347"/><glyph d="M279 913h89l-143-145h-61zM81 913h89l-143-145h-61z" glyph-name="glyph348"/><glyph d="M27 864h289l-11-54h-289z" glyph-name="glyph349"/><glyph d="M-35-192q-35 0-59 19.5t-24 53.5q0 21 9 39.5t23.5 34 32 27.5 35.5 20l73-2q-48-22-74-49t-26-53q0-35 44-35 21 0 32 7l-12-54q-12-5-26-6.5t-28-1.5z" glyph-name="glyph350"/><glyph d="M-96 389h333l-12-61h-333z" glyph-name="glyph351"/><glyph d="M-156 266l409 226 29-53-408-226z" glyph-name="glyph352"/><glyph d="M-235 580h693l-14-61h-692z" glyph-name="glyph353"/></font>
</defs>
</svg>
