<svg xmlns="http://www.w3.org/2000/svg"><defs><font horiz-adv-x="0"><font-face ascent="800" bbox="-346 -215 1037 934" cap-height="710" descent="-200" panose-1="2 11 3 4 0 0 0 0 0 0" underline-position="-120" underline-thickness="60" unicode-range="U+000D-FB02" x-height="500"/><missing-glyph d="M0 710h500v-710h-500v710zM250 371l216 320h-432zM19 28l221 327-221 327v-654zM481 28v654l-220-327zM466 19l-216 320-216-320h432z" horiz-adv-x="500"/><glyph d="M0 710h500v-710h-500v710zM250 371l216 320h-432zM19 28l221 327-221 327v-654zM481 28v654l-220-327zM466 19l-216 320-216-320h432z" glyph-name=".notdef" horiz-adv-x="500"/><glyph glyph-name="glyph1"/><glyph glyph-name="uni000D" horiz-adv-x="258" unicode="&#xd;"/><glyph glyph-name="space" horiz-adv-x="258" unicode="&#x20;"/><glyph d="M94 416v294h71v-294l-14-205h-44zM128-8q-27 0-46 19.5t-19 46.5q0 18 9 33.5t24 23.5h66q14-8 23.5-23.5t9.5-33.5q0-27-19.5-46.5t-47.5-19.5z" glyph-name="exclam" horiz-adv-x="258" unicode="&#x21;"/><glyph d="M69 710h64v-240h-64v240zM271 710h64v-240h-64v240z" glyph-name="quotedbl" horiz-adv-x="404" unicode="&#x22;"/><glyph d="M98 0l65 206h-128v60h146l59 185h-130v60h149l62 199h64l-62-199h193l62 199h64l-62-199h127v-60h-146l-58-185h130v-60h-148l-65-206h-64l64 206h-192l-65-206h-65zM438 266l59 185h-193l-58-185h192z" glyph-name="numbersign" horiz-adv-x="741" unicode="&#x23;"/><glyph d="M226-6q-69 7-117.5 37.5t-74.5 68.5l52 44q26-36 70-61.5t99-25.5q71 0 111.5 33t40.5 87q0 26-9 46t-26 36.5-41 30.5-53 28l-68 32q-80 38-115 84t-35 111q0 32 12 60.5t33.5 51 52 38 68.5 20.5v83h68v-83q57-6 94-30t63-55l-49-45q-27 34-61 51t-81 17q-27 0-51-8t-42-22-28.5-33.5-10.5-43.5q0-45 28-74.5t88-57.5l67-32q36-17 66.5-36t53-42.5 35-53 12.5-66.5q0-35-11.5-67t-34-57.5-57.5-42.5-81-22v-83h-68v82z" glyph-name="dollar" horiz-adv-x="516" unicode="&#x24;"/><glyph d="M212 438q-29 0-54.5 11t-45 29.5-30.5 44-11 55.5 11 55 30.5 44 45 29.5 54.5 10.5q30 0 56-10.5t45.5-29.5 30.5-44 11-55-11-55.5-30.5-44-45.5-29.5-56-11zM212 492q38 0 61.5 25t23.5 61q0 35-23.5 60t-61.5 25q-36 0-59.5-25t-23.5-60q0-36 23.5-61t59.5-25zM77 384h278v-60h-278v60zM212-7q-29 0-54.5 10.5t-45 29.5-30.5 44-11 55 11 55.5 30.5 44 45 29.5 54.5 11q30 0 56-11t45.5-29.5 30.5-44 11-55.5-11-55-30.5-44-45.5-29.5-56-10.5zM212 47q38 0 61.5 25t23.5 60q0 36-23.5 61t-61.5 25q-36 0-59.5-25t-23.5-61q0-35 23.5-60t59.5-25z" glyph-name="percent" horiz-adv-x="428" unicode="&#x25;"/><glyph d="M252-8q-49 0-90 17.5t-71 47.5-47 70.5-17 87.5q0 46 17 86.5t47 71 71 48 90 17.5q17 0 31.5-3t31.5-9l-148 284h354v-64h-246l339-646h-77l-80 151q-22-75-76-117t-129-42zM252 57q33 0 61.5 12t49.5 33 32.5 50 11.5 63q0 33-11.5 62t-32 50.5-49 33.5-62.5 12q-33 0-61.5-12t-49.5-33-32.5-50-11.5-63 11.5-63 32.5-50 49.5-33 61.5-12z" glyph-name="ampersand" horiz-adv-x="613" unicode="&#x26;"/><glyph d="M69 710h64v-240h-64v240z" glyph-name="quotesingle" horiz-adv-x="202" unicode="&#x27;"/><glyph d="M213.987-112q-50.9971 107-74.4961 205-23.498 98-23.498 208t23.498 208q23.499 98 74.4961 205l-55.9971 24q-26.998-56-46.9971-107t-32.498-102.5-18.999-107q-6.49902-55.5-6.49902-120.5t6.49902-120.5q6.5-55.5 18.999-107t32.498-102.5 46.9971-107z" glyph-name="parenleft" horiz-adv-x="251" unicode="&#x28;"/><glyph d="M37-112q51 107 74.5 205t23.5 208-23.5 208-74.5 205l56 24q27-56 47-107t32.5-102.5 19-107 6.5-120.5-6.5-120.5-19-107-32.5-102.5-47-107z" glyph-name="parenright" horiz-adv-x="251" unicode="&#x29;"/><glyph d="M92 421l79 107-127 43 16 54 129-44v129h54v-128l129 42 17-53-128-42 79-107-44-33-80 108-78-107z" glyph-name="asterisk" horiz-adv-x="432" unicode="&#x2a;"/><glyph d="M76 303h190v183h59v-183h189v-58h-189v-188h-59v188h-190v58z" glyph-name="plus" horiz-adv-x="590" unicode="&#x2b;"/><glyph d="M118 0h-46v112h108v-113l-56-139h-50z" glyph-name="comma" horiz-adv-x="252" unicode="&#x2c;"/><glyph d="M68 309h239v-72h-239v72z" glyph-name="hyphen" horiz-adv-x="375" unicode="&#x2d;"/><glyph d="M122-8q-28 0-47 19.5t-19 46.5q0 28 19.5 47.5t46.5 19.5q26 0 45.5-19.5t19.5-47.5q0-27-19-46.5t-46-19.5z" glyph-name="period" horiz-adv-x="242" unicode="&#x2e;"/><glyph d="M372 710h67l-345-710h-67z" glyph-name="slash" horiz-adv-x="465" unicode="&#x2f;"/><glyph d="M414-8q-76 0-142.5 28t-115.5 77-77.5 115-28.5 143q0 76 28.5 142.5t77.5 115.5 115.5 77 142.5 28 142.5-28 115.5-77 77.5-115.5 28.5-142.5q0-77-28.5-143t-77.5-115-115.5-77-142.5-28zM414 57q63 0 116.5 23t92.5 63 61.5 94.5 22.5 117.5-22.5 117.5-61.5 94.5-92.5 63-116.5 23-116.5-23-92.5-63-61-94.5-22-117.5 22-117.5 61-94.5 92.5-63 116.5-23z" glyph-name="zero" horiz-adv-x="828" unicode="&#x30;"/><glyph d="M96 648l70 70v-718h-70v648z" glyph-name="one" horiz-adv-x="265" unicode="&#x31;"/><glyph d="M317 315q-31-10-53-10-44 1-81.5 17t-64.5 44-42 65-15 79q0 44 16 82t44.5 66 67 44 82.5 16 82.5-16 67-44 45-66 16.5-82q0-31-7-59t-21.5-56.5-37.5-58.5-54-64l-187-207h310v-65h-457zM271 366q30 0 56 11t45 30.5 29.5 45.5 10.5 57q0 30-10.5 56.5t-29.5 45.5-45 30-56 11q-31 0-57-11t-44.5-30-29-45.5-10.5-56.5q0-31 10.5-57t29-45.5 44.5-30.5 57-11z" glyph-name="two" horiz-adv-x="538" unicode="&#x32;"/><glyph d="M233-8q-63 0-116.5 28t-83.5 76l54 41q20-35 58.5-57.5t86.5-22.5q35 0 65.5 11.5t53 33 35.5 52 13 68.5-12.5 69-35.5 53-55 34-70 12h-58l156 255h-263v65h373l-160-262q48-8 85-29t61.5-51 37-67.5 12.5-78.5q0-50-17.5-92t-48.5-72.5-75-48-96-17.5z" glyph-name="three" horiz-adv-x="519" unicode="&#x33;"/><glyph d="M419 199h-408l477 519v-454h95v-65h-95v-199h-69v199zM419 264v291l-265-291h265z" glyph-name="four" horiz-adv-x="623" unicode="&#x34;"/><glyph d="M249-8q-64 0-118 28t-84 76l54 42q20-35 58.5-58t87.5-23q35 0 65.5 12t52.5 33.5 34.5 51.5 12.5 67-12.5 68-34.5 53-53 34.5-68 12.5q-40 0-69-16.5t-47-35.5l-49 22v351h353v-65h-283v-215q26 12 51 17t47 5q54 0 97.5-17.5t74.5-48.5 47.5-73.5 16.5-91.5-17-91-48-72.5-74-48-95-17.5z" glyph-name="five" horiz-adv-x="524" unicode="&#x35;"/><glyph d="M277-8q-49 0-91.5 18t-73.5 49-49 72.5-18 89.5q0 35 11 67.5t28 61.5l217 360h81l-165-272q19 8 33.5 10t30.5 2q47 0 89-18t73-49 49-73 18-89q0-48-18-89.5t-49-72.5-74-49-92-18zM277 57q36 0 66 13t51 35 33 52 12 64-12 64-33 52.5-51 35.5-66 13q-35 0-64.5-13t-51-35.5-33.5-52.5-12-64 12-64 33.5-52 51-35 64.5-13z" glyph-name="six" horiz-adv-x="541" unicode="&#x36;"/><glyph d="M388 645h-357v65h463l-349-710h-75z" glyph-name="seven" horiz-adv-x="496" unicode="&#x37;"/><glyph d="M275-8q-48 0-89 17.5t-72 48-48.5 72-17.5 89.5q0 66 33 118.5t87 80.5q-29 22-46.5 55.5t-17.5 74.5q0 37 13.5 68t36.5 53.5 54 35.5 67 13q35 0 66-13t54-35.5 36.5-53.5 13.5-68q0-41-17-74.5t-46-55.5q54-28 87-80.5t33-118.5q0-48-18-89.5t-48.5-72-72-48-88.5-17.5zM275 652q-42 0-71.5-29.5t-29.5-74.5q0-22 8-41t21.5-32.5 32-21.5 39.5-8 39.5 8 32 21.5 21.5 32.5 8 41q0 45-29.5 74.5t-71.5 29.5zM275 58q33 0 61 12.5t48.5 34 32.5 51 12 63.5-12 63-32.5 50.5-48.5 34-61 12.5-61.5-12.5-49-34-32.5-50.5-12-63 12-63.5 32.5-51 49-34 61.5-12.5z" glyph-name="eight" horiz-adv-x="550" unicode="&#x38;"/><glyph d="M325 271q-19-8-33.5-10t-31.5-2q-47 0-89 18t-73 49-49 73-18 89q0 48 18 89.5t49.5 73 74 49.5 91.5 18 91.5-18 74-49.5 49-73 17.5-89.5q0-35-11-67.5t-28-60.5l-217-361h-80zM264 324q36 0 65.5 13t50.5 35 33 52 12 64-12 64-33 52.5-50.5 35.5-65.5 13-65.5-13-50.5-35.5-33-52.5-12-64 12-64 33-52 50.5-35 65.5-13z" glyph-name="nine" horiz-adv-x="541" unicode="&#x39;"/><glyph d="M134 375q-28 0-47 19.5t-19 46.5q0 28 19.5 47.5t46.5 19.5q26 0 45.5-19.5t19.5-47.5q0-27-19-46.5t-46-19.5zM134-8q-28 0-47 19.5t-19 46.5q0 28 19.5 47.5t46.5 19.5q26 0 45.5-19.5t19.5-47.5q0-27-19-46.5t-46-19.5z" glyph-name="colon" horiz-adv-x="267" unicode="&#x3a;"/><glyph d="M136 375q-28 0-47 19.5t-19 46.5q0 28 19.5 47.5t46.5 19.5q26 0 45.5-19.5t19.5-47.5q0-27-19-46.5t-46-19.5zM125 0h-46v112h108v-113l-56-139h-50z" glyph-name="semicolon" horiz-adv-x="269" unicode="&#x3b;"/><glyph d="M72 415h446v-58h-446v58zM72 191h446v-57h-446v57z" glyph-name="equal" horiz-adv-x="590" unicode="&#x3d;"/><glyph d="M183 365h57q32 0 59 11t46.5 30 30 45.5 10.5 57.5-10.5 57-29.5 45.5-45 30.5-56 11-56-11-44.5-30.5-29-45.5-10.5-57h-70q0 44 16.5 82.5t45 66.5 66.5 44 82 16q43 0 81.5-16t67-44 45-66.5 16.5-82.5-16.5-82.5-45.5-66.5-68.5-44-85.5-16h-56v65zM242-8q-27 0-46 19.5t-19 46.5q0 18 9 33.5t24 23.5h66q14-8 23-23.5t9-33.5q0-27-19-46.5t-47-19.5z" glyph-name="question" horiz-adv-x="508" unicode="&#x3f;"/><glyph d="M397-8q-81 0-146 26.5t-110.5 73.5-70 110-24.5 137q0 84 31.5 153.5t85 120 124.5 78 150 27.5q74 0 136.5-22t108-62.5 71-98 25.5-129.5q0-63-15.5-109t-40.5-76-57-44-65-14q-32 0-58 15t-39 41q-24-23-57.5-38.5t-78.5-15.5q-37 0-66 13.5t-49.5 37-31.5 54-11 65.5q0 45 16.5 85.5t45.5 70.5 68.5 47.5 86.5 17.5q38 0 66.5-12t48.5-32l7 31h59l-51-241q-8-37 5.5-61t47.5-24q22 0 42 12.5t36 37 25.5 60 9.5 81.5q0 61-22 109t-60.5 81-91 50.5-113.5 17.5q-69 0-129-24t-105-67-71-103-26-133q0-62 20-115.5t58-92.5 92-61.5 123-22.5q48 0 97 10t91 31l21-52q-47-21-103-32.5t-106-11.5zM272 341q0-56 29.5-88.5t79.5-32.5q32 0 63 15t48 44l3 16 33 154q-18 27-47 39.5t-59 12.5-57.5-12-48-33.5-32.5-51-12-63.5z" glyph-name="at" horiz-adv-x="810" unicode="&#x40;"/><glyph d="M338 718l342-718h-79l-94 201h-338l-94-201h-80zM475 269l-137 290-137-290h274z" glyph-name="A" horiz-adv-x="675" unicode="&#x41;"/><glyph d="M99 710h232q51 0 89.5-14.5t64.5-39.5 39-58.5 13-70.5q0-56-22-92.5t-62-59.5q28-9 52-23.5t41.5-36.5 27.5-51.5 10-66.5q0-48-17.5-85t-49-61.5-75.5-37.5-98-13h-245v710zM331 397q63 0 97 35t34 88q0 25-9 47t-25.5 38.5-41 26.5-55.5 10h-158v-245h158zM353 68q78 0 117 36t39 96q0 57-38 95t-118 38h-180v-265h180z" glyph-name="B" horiz-adv-x="630" unicode="&#x42;"/><glyph d="M410-8q-76 0-142 27.5t-115 76.5-77 115.5-28 143.5 28 143.5 77 115 115 76.5 142 28q46 0 87.5-10t77.5-28 65.5-42 49.5-51l-53-46q-37 48-95.5 77.5t-131.5 29.5q-61 0-113.5-22.5t-90.5-62-60-93-22-115.5 22-115.5 60-92.5 90.5-61.5 113.5-22.5q73 0 131.5 29.5t95.5 77.5l53-47q-20-27-49.5-51t-65.5-42-77.5-28-87.5-10z" glyph-name="C" horiz-adv-x="721" unicode="&#x43;"/><glyph d="M99 710h208q83 0 152.5-27t120-74.5 79-112.5 28.5-141q0-77-28.5-142t-79-112-120-74-152.5-27h-208v710zM307 69q69 0 125 21.5t96 59.5 62 90.5 22 114.5q0 61-22 113.5t-62 91-96 60-125 21.5h-134v-572h134z" glyph-name="D" horiz-adv-x="735" unicode="&#x44;"/><glyph d="M99 710h405v-71h-331v-239h271v-72h-271v-257h331v-71h-405v710z" glyph-name="E" horiz-adv-x="553" unicode="&#x45;"/><glyph d="M99 710h395v-72h-321v-238h253v-72h-253v-328h-74v710z" glyph-name="F" horiz-adv-x="516" unicode="&#x46;"/><glyph d="M411-8q-77 0-143 27.5t-115 76.5-77 115.5-28 143.5 28 143.5 76.5 115 114.5 76.5 143 28q41 0 79.5-8.5t73-23.5 63-36 49.5-45l-53-48q-37 41-90.5 65.5t-121.5 24.5q-61 0-113.5-22.5t-91-61.5-60.5-92.5-22-115.5 22-115.5 60.5-92.5 91-61.5 114.5-22.5q63 0 114.5 17.5t80.5 42.5v205h-227l32 72h269v-312q-17-18-44-35.5t-62-31-76.5-21.5-86.5-8z" glyph-name="G" horiz-adv-x="743" unicode="&#x47;"/><glyph d="M99 710h74v-310h418v310h74v-710h-74v328h-418v-328h-74v710z" glyph-name="H" horiz-adv-x="764" unicode="&#x48;"/><glyph d="M99 710h74v-710h-74v710z" glyph-name="I" horiz-adv-x="272" unicode="&#x49;"/><glyph d="M226-8q-42 0-79.5 13t-65 39-43.5 63.5-16 87.5h74q0-66 36.5-99t93.5-33q58 0 94.5 33t36.5 99v515h74v-519q0-50-16.5-87.5t-44.5-62-65-37-79-12.5z" glyph-name="J" horiz-adv-x="523" unicode="&#x4a;"/><glyph d="M99 710h74v-359l339 359h92l-341-360 371-350h-100l-361 339v-339h-74v710z" glyph-name="K" horiz-adv-x="626" unicode="&#x4b;"/><glyph d="M99 710h74v-638h325v-72h-399v710z" glyph-name="L" horiz-adv-x="515" unicode="&#x4c;"/><glyph d="M99 718l342-388 341 388v-718h-74v534l-267-309-268 309v-534h-74v718z" glyph-name="M" horiz-adv-x="881" unicode="&#x4d;"/><glyph d="M173 543v-543h-74v718l516-551v543h74v-718z" glyph-name="N" horiz-adv-x="788" unicode="&#x4e;"/><glyph d="M411-8q-77 0-143 27.5t-115 76.5-77 115.5-28 143.5 28 143.5 77 115 115 76.5 143 28q76 0 142.5-28t115.5-76.5 77-115 28-143.5-28-143.5-77-115.5-115.5-76.5-142.5-27.5zM411 64q61 0 113.5 22.5t90.5 61.5 60 92 22 115-22 115-60 92-90.5 61.5-113.5 22.5q-62 0-114-22.5t-90.5-61.5-60-92-21.5-115 21.5-115 60-92 90.5-61.5 114-22.5z" glyph-name="O" horiz-adv-x="822" unicode="&#x4f;"/><glyph d="M99 710h200q56 0 100.5-15t75-42.5 47-66.5 16.5-86-16.5-86-47-66.5-75-43-100.5-15.5h-126v-289h-74v710zM298 358q81 0 122.5 38t41.5 104q0 65-41.5 103.5t-122.5 38.5h-125v-284h125z" glyph-name="P" horiz-adv-x="571" unicode="&#x50;"/><glyph d="M411-8q-77 0-143 27.5t-115 76.5-77 115.5-28 143.5 28 143.5 77 115 115 76.5 143 28q76 0 142.5-28t115.5-76.5 77-115 28-143.5q0-66-20-123t-56-103l91-86-47-51-93 86q-48-41-108.5-63.5t-129.5-22.5zM411 64q54 0 100.5 17t83.5 48l-93 88 48 51 93-88q26 36 40 80t14 95q0 62-22 115t-60 92-90.5 61.5-113.5 22.5q-62 0-114-22.5t-90.5-61.5-60-92-21.5-115 21.5-115 60-92 90.5-61.5 114-22.5z" glyph-name="Q" horiz-adv-x="841" unicode="&#x51;"/><glyph d="M99 710h205q106 0 165-53.5t59-141.5q0-33-9.5-64t-30.5-57-55-44.5-82-25.5l255-324h-90l-250 320h-93v-320h-74v710zM301 386q75 0 113 34t38 93q0 60-38 94.5t-113 34.5h-128v-256h128z" glyph-name="R" horiz-adv-x="612" unicode="&#x52;"/><glyph d="M260-8q-37 0-70.5 8.5t-62.5 23.5-52 34.5-39 41.5l57 49q26-35 69.5-60.5t97.5-25.5q69 0 109 30t40 84q0 52-34 84.5t-93 58.5l-68 29q-81 35-116.5 83t-35.5 113q0 39 17 71t45 54.5 65 35 76 12.5q59 0 108-23t84-65l-53-52q-27 34-61 51.5t-81 17.5q-25 0-48-7t-40-20-27.5-32.5-10.5-43.5q0-43 25.5-74t86.5-58l68-29q36-16 66.5-35t53-43 35-54 12.5-67q0-42-15-77.5t-44-61-70.5-39.5-93.5-14z" glyph-name="S" horiz-adv-x="524" unicode="&#x53;"/><glyph d="M221 638h-206v72h487v-72h-207v-638h-74v638z" glyph-name="T" horiz-adv-x="517" unicode="&#x54;"/><glyph d="M368-8q-62 0-113 18.5t-88 54-57 87-20 116.5v442h74v-445q0-50 14.5-88t41.5-63.5 64.5-38 83.5-12.5 83.5 12.5 64.5 38 41.5 63.5 14.5 88v445h74v-442q0-65-20-116.5t-56.5-87-88-54-113.5-18.5z" glyph-name="U" horiz-adv-x="736" unicode="&#x55;"/><glyph d="M3 710h81l243-548 242 548h81l-323-718z" glyph-name="V" horiz-adv-x="653" unicode="&#x56;"/><glyph d="M12 710h76l165-518 189 526 190-526 165 518h76l-236-718-194 538-195-538z" glyph-name="W" horiz-adv-x="885" unicode="&#x57;"/><glyph d="M269 364l-247 346h85l208-290 208 290h85l-245-346 261-364h-84l-224 309-223-309h-87z" glyph-name="X" horiz-adv-x="631" unicode="&#x58;"/><glyph d="M271 301l-260 409h86l211-337 211 337h86l-260-409v-301h-74v301z" glyph-name="Y" horiz-adv-x="616" unicode="&#x59;"/><glyph d="M426 638h-372v72h499l-417-638h419v-72h-547z" glyph-name="Z" horiz-adv-x="584" unicode="&#x5a;"/><glyph d="M267.983-135v59h-110.993v752h110.993v59h-175.989v-870h175.989z" glyph-name="bracketleft" horiz-adv-x="295" unicode="&#x5b;"/><glyph d="M27-135v59h111v752h-111v59h176v-870h-176z" glyph-name="bracketright" horiz-adv-x="295" unicode="&#x5d;"/><glyph d="M64 0h423v-60h-423v60z" glyph-name="underscore" horiz-adv-x="551" unicode="&#x5f;"/><glyph d="M-103 710h88l90-160h-59z" glyph-name="grave" unicode="&#x60;"/><glyph d="M469 58q-32-32-75.5-49t-93.5-17q-56 0-103 20t-81 55-53 82-19 101 19 101 53 82 81 55 103 20q50 0 93.5-17t75.5-49v58h70v-500h-70v58zM301 58q57 0 100 24t68 62v212q-24 38-67.5 62t-100.5 24q-41 0-74.5-15t-58.5-41-38.5-61-13.5-75 13.5-75 38.5-61 58.5-41 74.5-15z" glyph-name="a" horiz-adv-x="618" unicode="&#x61;"/><glyph d="M79 710h70v-268q32 32 75 49t94 17q56 0 103-20t81-55 53-82 19-101-19-101-53-82-81-55-103-20q-51 0-94 17t-75 49v-58h-70v710zM317 442q-57 0-101-24t-67-62v-212q23-38 67-62t101-24q40 0 74 15t58.5 41 38.5 61 14 75-14 75-38.5 61-58.5 41-74 15z" glyph-name="b" horiz-adv-x="618" unicode="&#x62;"/><glyph d="M301-8q-56 0-103 20t-81.5 55-53.5 82-19 101 19 101 53.5 82 81.5 55 103 20q61 0 108.5-22t81.5-56l-45-49q-26 26-62 43.5t-83 17.5q-41 0-74.5-15t-58.5-41-38.5-61-13.5-75 13.5-75 38.5-61 58.5-41 74.5-15q47 0 83 17.5t62 43.5l45-49q-34-34-81.5-56t-108.5-22z" glyph-name="c" horiz-adv-x="521" unicode="&#x63;"/><glyph d="M469 0v58q-32-32-75-49t-94-17q-56 0-103 20t-81 55-53 82-19 101 19 101 53 82 81 55 103 20q51 0 94-17t75-49v268h70v-710h-70zM301 442q-41 0-74.5-15t-58.5-41-38.5-61-13.5-75 13.5-75 38.5-61 58.5-41 74.5-15q57 0 100.5 24t67.5 62v212q-24 38-67.5 62t-100.5 24z" glyph-name="d" horiz-adv-x="618" unicode="&#x64;"/><glyph d="M301-8q-56 0-103 20t-81.5 55-53.5 82-19 101 19 101 53 82 79.5 55 98.5 20q55 0 100-20t76.5-56 48.5-86 17-110h-421q3-40 18.5-72.5t40.5-56 57.5-36.5 69.5-13q50 0 89.5 18.5t65.5 44.5l45-49q-33-34-84.5-57t-115.5-23zM290 443q-28 0-55.5-9t-50.5-27.5-40-45.5-24-63h337q-9 72-55 109t-112 36z" glyph-name="e" horiz-adv-x="573" unicode="&#x65;"/><glyph d="M117 436h-97v64h95q-20 16-31 39.5t-11 50.5q0 52 39 86t106 34h107v-64h-99q-37 0-61-18t-24-53 24-54 56-21h105v-64h-139v-436h-70v436z" glyph-name="f" horiz-adv-x="339" unicode="&#x66;"/><glyph d="M292-194q-56 0-113 16.5t-99 46.5l38 59q32-25 78.5-41t97.5-16q37 0 70.5 8t58 25 39 43.5 14.5 63.5q0 17-3.5 37t-10.5 34q-32-32-75-50t-95-18q-55 0-100.5 19t-78 52-50.5 78-18 98q0 52 18 97.5t50.5 78.5 78 52 100.5 19q51 0 93-17t74-49v58h70v-393q20-52 20-103 0-54-22.5-91.5t-58.5-61.5-82-34.5-94-10.5zM294 80q56 0 99 24t66 62v190q-23 38-66 62t-99 24q-39 0-71.5-14t-56-38-36.5-57-13-72 13-72 36.5-57 56-38 71.5-14z" glyph-name="g" horiz-adv-x="611" unicode="&#x67;"/><glyph d="M79 710h70v-279q28 39 70.5 58t92.5 19q44 0 80-14.5t61.5-41 39.5-64 14-83.5v-305h-70v300q0 63-36.5 102.5t-102.5 39.5q-57 0-95.5-30.5t-53.5-82.5v-329h-70v710z" glyph-name="h" horiz-adv-x="579" unicode="&#x68;"/><glyph d="M79 500h70v-500h-70v500zM79 619q-20 17-20 43 0 23 16 39.5t39 16.5 39-16.5 16-39.5q0-26-20-43h-70z" glyph-name="i" horiz-adv-x="228" unicode="&#x69;"/><glyph d="M-20-120h25q48 0 65 23.5t17 69.5v527h70v-541q0-72-37-107.5t-109-35.5h-31v64zM87 619q-20 17-20 43 0 23 16 39.5t39 16.5 39-16.5 16-39.5q0-26-20-43h-70z" glyph-name="j" horiz-adv-x="236" unicode="&#x6a;"/><glyph d="M79 710h70v-441l239 231h93l-247-237 274-263h-96l-263 251v-251h-70v710z" glyph-name="k" horiz-adv-x="502" unicode="&#x6b;"/><glyph d="M79 710h70v-710h-70v710z" glyph-name="l" horiz-adv-x="228" unicode="&#x6c;"/><glyph d="M408 300q0 61-32 101.5t-94 40.5q-48 0-82-27.5t-51-77.5v-337h-70v500h70v-66q27 38 65.5 56t82.5 18q59 0 97.5-25.5t58.5-65.5q27 45 72 68t97 23q88 0 136.5-55t48.5-148v-305h-70v300q0 61-32 101.5t-93 40.5q-47 0-82.5-27t-52.5-85q1-6 1-13v-317h-70v300z" glyph-name="m" horiz-adv-x="879" unicode="&#x6d;"/><glyph d="M79 500h70v-69q28 39 70.5 58t92.5 19q44 0 80-14.5t61.5-41 39.5-64 14-83.5v-305h-70v300q0 63-36.5 102.5t-102.5 39.5q-57 0-95.5-30.5t-53.5-82.5v-329h-70v500z" glyph-name="n" horiz-adv-x="579" unicode="&#x6e;"/><glyph d="M303-8q-57 0-104.5 20t-82 55-53.5 82-19 101 19 101 53.5 82 82 55 104.5 20 104.5-20 82-55 53.5-82 19-101-19-101-53.5-82-82-55-104.5-20zM303 58q42 0 76 15t59 41 38.5 61 13.5 75-13.5 75-38.5 61-59 41-76 15q-41 0-75.5-15t-59.5-41-38.5-61-13.5-75 13.5-75 38.5-61 59.5-41 75.5-15z" glyph-name="o" horiz-adv-x="606" unicode="&#x6f;"/><glyph d="M149 500v-58q32 32 75 49t94 17q56 0 103-20t81-55 53-82 19-101-19-101-53-82-81-55-103-20q-51 0-94 17t-75 49v-242h-70v684h70zM317 58q40 0 74 15t58.5 41 38.5 61 14 75-14 75-38.5 61-58.5 41-74 15q-57 0-101-24t-67-62v-212q23-38 67-62t101-24z" glyph-name="p" horiz-adv-x="618" unicode="&#x70;"/><glyph d="M539-184h-70v242q-32-32-75-49t-94-17q-56 0-103 20t-81 55-53 82-19 101 19 101 53 82 81 55 103 20q51 0 94-17t75-49v58h70v-684zM301 58q57 0 100.5 24t67.5 62v212q-24 38-67.5 62t-100.5 24q-41 0-74.5-15t-58.5-41-38.5-61-13.5-75 13.5-75 38.5-61 58.5-41 74.5-15z" glyph-name="q" horiz-adv-x="618" unicode="&#x71;"/><glyph d="M79 500h70v-68q24 35 61 54.5t85 19.5q17 0 34-3v-73q-10 3-21 4t-23 1q-48 0-84-24t-52-68v-343h-70v500z" glyph-name="r" horiz-adv-x="345" unicode="&#x72;"/><glyph d="M206-8q-60 0-104 27.5t-70 75.5l56 37q20-37 48-57t72-20q43 0 71.5 20t28.5 54q0 35-23 54.5t-70 36.5l-42 16q-65 24-90.5 61t-25.5 82q0 28 11 51.5t31 40.5 48 27 61 10q48 0 85.5-21.5t59.5-63.5l-56-32q-12 25-33.5 39.5t-55.5 14.5q-35 0-58.5-17.5t-23.5-47.5q0-28 17.5-48t63.5-37l44-16q63-23 95-58t32-90q0-29-12-54.5t-34-44-54-29.5-72-11z" glyph-name="s" horiz-adv-x="415" unicode="&#x73;"/><glyph d="M257 0q-72 0-109 35.5t-37 107.5v293h-87l-16 64h103v115l70 35v-150h150l-16-64h-134v-279q0-47 17.5-70t66.5-23h57v-64h-65z" glyph-name="t" horiz-adv-x="350" unicode="&#x74;"/><glyph d="M429 68q-29-39-71-57.5t-91-18.5q-45 0-81 14.5t-61.5 41-39 64-13.5 83.5v305h70v-300q0-63 36.5-102.5t101.5-39.5q57 0 94.5 29.5t54.5 80.5v332h70v-500h-70v68z" glyph-name="u" horiz-adv-x="578" unicode="&#x75;"/><glyph d="M-2 500h79l181-369 182 369h79l-261-508z" glyph-name="v" horiz-adv-x="517" unicode="&#x76;"/><glyph d="M12 500h73l124-386 146 394 146-394 123 386h73l-163-501h-53l-126 341-125-341h-54z" glyph-name="w" horiz-adv-x="709" unicode="&#x77;"/><glyph d="M212 255l-190 245h81l152-195 152 195h80l-190-245 201-255h-82l-161 206-162-206h-82z" glyph-name="x" horiz-adv-x="509" unicode="&#x78;"/><glyph d="M218 34l-212 466h76l172-389 174 389h76l-313-684h-75z" glyph-name="y" horiz-adv-x="507" unicode="&#x79;"/><glyph d="M331 436h-282v64h407l-314-436h304v-64h-430z" glyph-name="z" horiz-adv-x="484" unicode="&#x7a;"/><glyph d="M270.983-135v59h-29.998q-44.9971 0-58.4961 21-13.5 21-13.5 66v177q0 47-10.499 72.5t-42.4971 39.5q31.998 14 42.4971 39.5t10.499 72.5v177q0 45 13.5 66 13.499 21 57.4961 21h30.998v59h-38.9971q-70.9961 0-98.9941-36-27.999-36-27.999-106v-187q0-35-10.999-56t-49.9971-21h-11.999v-58h11.999q38.998 0 49.9971-21t10.999-57v-186q0-71 28.499-106.5 28.498-35.5 99.4932-35.5h37.998z" glyph-name="braceleft" horiz-adv-x="303" unicode="&#x7b;"/><glyph d="M92 710h64v-894h-64v894z" glyph-name="bar" horiz-adv-x="248" unicode="&#x7c;"/><glyph d="M31-135v59h30q45 0 58.5 21t13.5 66v177q0 47 10.5 72.5t42.5 39.5q-32 14-42.5 39.5t-10.5 72.5v177q0 45-13.5 66t-57.5 21h-31v59h39q71 0 99-36t28-106v-187q0-35 11-56t50-21h12v-58h-12q-39 0-50-21t-11-57v-186q0-71-28.5-106.5t-99.5-35.5h-38z" glyph-name="braceright" horiz-adv-x="302" unicode="&#x7d;"/><glyph glyph-name="uni00A0" horiz-adv-x="258" unicode="&#xa0;"/><glyph d="M121 508q28 0 47.5-19.5t19.5-46.5q0-18-9.5-33.5t-23.5-23.5h-66q-15 8-24 23.5t-9 33.5q0 27 19 46.5t46 19.5zM144 289l14-204v-269h-71v269l13 204h44z" glyph-name="exclamdown" horiz-adv-x="244" unicode="&#xa1;"/><glyph d="M53 65h104v250h-104v61h104q-29 25-46.5 61.5t-17.5 78.5 15.5 78.5 42.5 64 65 43.5 83 16q44 0 82-16t65.5-44 43-65 15.5-80h-71q0 29-10 54.5t-27.5 44.5-42.5 30-55 11-55-10.5-43-28.5-28-43-10-55q0-29 10-54.5t28-44.5 43-30 55-11h86v-61h-158v-250h307v-65h-481v65z" glyph-name="sterling" horiz-adv-x="570" unicode="&#xa3;"/><glyph d="M128 339h135l-236 371h86l211-337 211 337h86l-236-371h134v-61h-158v-75h158v-61h-158v-142h-74v142h-159v61h159v75h-159v61z" glyph-name="yen" horiz-adv-x="647" unicode="&#xa5;"/><glyph d="M112 576q-23 0-39.5 16t-16.5 40q0 23 16.5 39t39.5 16 39-16 16-39q0-25-16-40.5t-39-15.5zM-110 576q-23 0-39.5 16t-16.5 40q0 23 16 39t40 16q23 0 39-16t16-39q0-25-16.5-40.5t-38.5-15.5z" glyph-name="dieresis" unicode="&#xa8;"/><glyph d="M410-9q-75 0-141 28.5t-115.5 78-78 115.5-28.5 141 28.5 141 78 115.5 115.5 78.5 141 29 141-29 115.5-78.5 78-115.5 28.5-141-28.5-141-78-115.5-115.5-78-141-28.5zM410 44q63 0 119 24.5t97.5 66.5 65.5 98.5 24 121.5-24 121.5-65.5 98.5-97.5 66.5-119 24.5-118.5-24.5-97-66.5-65.5-98.5-24-121.5 24-121.5 65.5-98.5 97-66.5 118.5-24.5zM428 183q-36 0-67.5 13t-54.5 36-36.5 54.5-13.5 68.5q0 36 13.5 67.5t36.5 55 54.5 36.5 67.5 13q34 0 63.5-12t50.5-35l-33-41q-14 14-34.5 24t-46.5 10q-51 0-82.5-34t-31.5-84 31.5-84 82.5-34q26 0 46 10t35 25l33-42q-20-23-50-35t-64-12z" glyph-name="copyright" horiz-adv-x="820" unicode="&#xa9;"/><glyph d="M245 250l151 219 51-35-127-184 127-184-51-35zM46 250l151 219 51-35-127-184 127-184-51-35z" glyph-name="guillemotleft" horiz-adv-x="501" unicode="&#xab;"/><glyph d="M65 309h239v-73h-239v73z" glyph-name="uni00AD" horiz-adv-x="375" unicode="&#xad;"/><glyph d="M-144 679h288v-54h-288v54z" glyph-name="macron" unicode="&#xaf;"/><glyph d="M168 470q-25 0-47.5 9.5t-39 26-26 39-9.5 47.5 9.5 47.5 26 39 39 26 47.5 9.5 47.5-9.5 39-26 26-39 9.5-47.5-9.5-47.5-26-39-39-26-47.5-9.5zM168 516q32 0 53.5 22.5t21.5 53.5-21.5 53-53.5 22q-31 0-53.5-22t-22.5-53 22.5-53.5 53.5-22.5z" glyph-name="degree" horiz-adv-x="336" unicode="&#xb0;"/><glyph d="M103.994 710h-87.9951l-89.9941-160h58.9961z" glyph-name="acute" unicode="&#xb4;"/><glyph d="M132 184q-28 0-47 19.5t-19 46.5q0 28 19.5 47.5t46.5 19.5q26 0 45.5-19.5t19.5-47.5q0-27-19-46.5t-46-19.5z" glyph-name="periodcentered" horiz-adv-x="263" unicode="&#xb7;"/><glyph d="M11 0h50l-67-165h-80z" glyph-name="cedilla" unicode="&#xb8;"/><glyph d="M253 66l127 184-127 184 51 35 150-219-150-219zM54 66l127 184-127 184 51 35 150-219-150-219z" glyph-name="guillemotright" horiz-adv-x="500" unicode="&#xbb;"/><glyph d="M219 385q-14 8-23.5 23.5t-9.5 33.5q0 27 19.5 46.5t47.5 19.5q27 0 46-19.5t19-46.5q0-18-9-33.5t-24-23.5h-66zM250-194q-44 0-82 16t-66.5 44-45 66.5-16.5 82.5 16.5 82.5 45.5 66.5 68.5 44 85.5 16h56v-65h-57q-32 0-59-11t-46.5-30-30-45.5-10.5-57.5 10.5-57 29.5-45.5 45-30.5 56-11 56 11 44.5 30.5 29 45.5 10.5 57h70q0-44-16.5-82.5t-45-66.5-66.5-44-82-16z" glyph-name="questiondown" horiz-adv-x="491" unicode="&#xbf;"/><glyph d="M338 718l342-718h-79l-94 201h-338l-94-201h-80zM475 269l-137 290-137-290h274zM191 913h88l84-145h-60z" glyph-name="Agrave" horiz-adv-x="675" unicode="&#xc0;"/><glyph d="M338 718l342-718h-79l-94 201h-338l-94-201h-80zM475 269l-137 290-137-290h274zM480.971 913h-87.9951l-83.9941-145h59.9961z" glyph-name="Aacute" horiz-adv-x="675" unicode="&#xc1;"/><glyph d="M338 718l342-718h-79l-94 201h-338l-94-201h-80zM475 269l-137 290-137-290h274zM167 817l171 109 171-109-29-49-142 94-142-94z" glyph-name="Acircumflex" horiz-adv-x="675" unicode="&#xc2;"/><glyph d="M338 718l342-718h-79l-94 201h-338l-94-201h-80zM475 269l-137 290-137-290h274zM171 806q8 43 35.5 66.5t61.5 23.5q22 0 40-8t34.5-17 31-17 28.5-8q23 0 34.5 12.5t16.5 37.5h55l-3-16q-8-42-34.5-66t-62.5-24q-21 0-39.5 8t-35 17-31.5 17-30 8q-22 0-33-13t-16-38h-55z" glyph-name="Atilde" horiz-adv-x="675" unicode="&#xc3;"/><glyph d="M338 718l342-718h-79l-94 201h-338l-94-201h-80zM475 269l-137 290-137-290h274zM450 788q-23 0-39.5 16t-16.5 40q0 23 16.5 39t39.5 16 39-16 16-39q0-25-16-40.5t-39-15.5zM228 788q-23 0-39.5 16t-16.5 40q0 23 16 39t40 16q23 0 39-16t16-39q0-25-16.5-40.5t-38.5-15.5z" glyph-name="Adieresis" horiz-adv-x="675" unicode="&#xc4;"/><glyph d="M338 718l342-718h-79l-94 201h-338l-94-201h-80zM475 269l-137 290-137-290h274zM338 752q-20 0-37 7t-29.5 19.5-20 29-7.5 35.5q0 39 27.5 65t66.5 26 66.5-26 27.5-65q0-19-7.5-35.5t-20-29-30-19.5-36.5-7zM338 792q21 0 36 14t15 37-15 37-36 14-36-14-15-37 15-37 36-14z" glyph-name="Aring" horiz-adv-x="675" unicode="&#xc5;"/><glyph d="M3 0l305 639-34 71h397l35-72h-322l114-238h276l34-72h-276l122-256h321l35-72h-401l-95 201h-336l-95-201h-80zM482 270l-136 289-136-289h272z" glyph-name="AE" horiz-adv-x="1010" unicode="&#xc6;"/><glyph d="M410-8q-76 0-142 27.5t-115 76.5-77 115.5-28 143.5 28 143.5 77 115 115 76.5 142 28q46 0 87.5-10t77.5-28 65.5-42 49.5-51l-53-46q-37 48-95.5 77.5t-131.5 29.5q-61 0-113.5-22.5t-90.5-62-60-93-22-115.5 22-115.5 60-92.5 90.5-61.5 113.5-22.5q73 0 131.5 29.5t95.5 77.5l53-47q-20-27-49.5-51t-65.5-42-77.5-28-87.5-10zM408 0h50l-67-165h-80z" glyph-name="Ccedilla" horiz-adv-x="721" unicode="&#xc7;"/><glyph d="M99 710h405v-71h-331v-239h271v-72h-271v-257h331v-71h-405v710zM163 913h88l84-145h-60z" glyph-name="Egrave" horiz-adv-x="553" unicode="&#xc8;"/><glyph d="M99 710h405v-71h-331v-239h271v-72h-271v-257h331v-71h-405v710zM451.973 913h-87.9951l-83.9951-145h59.9971z" glyph-name="Eacute" horiz-adv-x="553" unicode="&#xc9;"/><glyph d="M99 710h405v-71h-331v-239h271v-72h-271v-257h331v-71h-405v710zM138 817l171 109 171-109-29-49-142 94-142-94z" glyph-name="Ecircumflex" horiz-adv-x="553" unicode="&#xca;"/><glyph d="M99 710h405v-71h-331v-239h271v-72h-271v-257h331v-71h-405v710zM421 788q-23 0-39.5 16t-16.5 40q0 23 16.5 39t39.5 16 39-16 16-39q0-25-16-40.5t-39-15.5zM199 788q-23 0-39.5 16t-16.5 40q0 23 16 39t40 16q23 0 39-16t16-39q0-25-16.5-40.5t-38.5-15.5z" glyph-name="Edieresis" horiz-adv-x="553" unicode="&#xcb;"/><glyph d="M99 710h74v-710h-74v710zM-11 913h88l84-145h-60z" glyph-name="Igrave" horiz-adv-x="272" unicode="&#xcc;"/><glyph d="M99 710h74v-710h-74v710zM278.983 913h-87.9951l-83.9951-145h59.9971z" glyph-name="Iacute" horiz-adv-x="272" unicode="&#xcd;"/><glyph d="M99 710h74v-710h-74v710zM-35 817l171 109 171-109-29-49-142 94-142-94z" glyph-name="Icircumflex" horiz-adv-x="272" unicode="&#xce;"/><glyph d="M99 710h74v-710h-74v710zM248 788q-23 0-39.5 16t-16.5 40q0 23 16.5 39t39.5 16 39-16 16-39q0-25-16-40.5t-39-15.5zM26 788q-23 0-39.5 16t-16.5 40q0 23 16 39t40 16q23 0 39-16t16-39q0-25-16.5-40.5t-38.5-15.5z" glyph-name="Idieresis" horiz-adv-x="272" unicode="&#xcf;"/><glyph d="M126 710h208q83 0 152.5-27t120-74.5 79-112.5 28.5-141q0-77-28.5-142t-79-112-120-74-152.5-27h-208v710zM334 69q69 0 125 21.5t96 59.5 62 90.5 22 114.5q0 61-22 113.5t-62 91-96 60-125 21.5h-134v-572h134zM6 389h333v-61h-333v61z" glyph-name="Eth" horiz-adv-x="762" unicode="&#xd0;"/><glyph d="M173 543v-543h-74v718l516-551v543h74v-718zM225 806q8 43 35.5 66.5t61.5 23.5q22 0 40-8t34.5-17 31-17 28.5-8q23 0 34.5 12.5t16.5 37.5h55l-3-16q-8-42-34.5-66t-62.5-24q-21 0-39.5 8t-35 17-31.5 17-30 8q-22 0-33-13t-16-38h-55z" glyph-name="Ntilde" horiz-adv-x="788" unicode="&#xd1;"/><glyph d="M411-8q-77 0-143 27.5t-115 76.5-77 115.5-28 143.5 28 143.5 77 115 115 76.5 143 28q76 0 142.5-28t115.5-76.5 77-115 28-143.5-28-143.5-77-115.5-115.5-76.5-142.5-27.5zM411 64q61 0 113.5 22.5t90.5 61.5 60 92 22 115-22 115-60 92-90.5 61.5-113.5 22.5q-62 0-114-22.5t-90.5-61.5-60-92-21.5-115 21.5-115 60-92 90.5-61.5 114-22.5zM264 913h88l84-145h-60z" glyph-name="Ograve" horiz-adv-x="822" unicode="&#xd2;"/><glyph d="M411-8q-77 0-143 27.5t-115 76.5-77 115.5-28 143.5 28 143.5 77 115 115 76.5 143 28q76 0 142.5-28t115.5-76.5 77-115 28-143.5-28-143.5-77-115.5-115.5-76.5-142.5-27.5zM411 64q61 0 113.5 22.5t90.5 61.5 60 92 22 115-22 115-60 92-90.5 61.5-113.5 22.5q-62 0-114-22.5t-90.5-61.5-60-92-21.5-115 21.5-115 60-92 90.5-61.5 114-22.5zM552.966 913h-87.9941l-83.9951-145h59.9961z" glyph-name="Oacute" horiz-adv-x="822" unicode="&#xd3;"/><glyph d="M411-8q-77 0-143 27.5t-115 76.5-77 115.5-28 143.5 28 143.5 77 115 115 76.5 143 28q76 0 142.5-28t115.5-76.5 77-115 28-143.5-28-143.5-77-115.5-115.5-76.5-142.5-27.5zM411 64q61 0 113.5 22.5t90.5 61.5 60 92 22 115-22 115-60 92-90.5 61.5-113.5 22.5q-62 0-114-22.5t-90.5-61.5-60-92-21.5-115 21.5-115 60-92 90.5-61.5 114-22.5zM239 817l171 109 171-109-29-49-142 94-142-94z" glyph-name="Ocircumflex" horiz-adv-x="822" unicode="&#xd4;"/><glyph d="M411-8q-77 0-143 27.5t-115 76.5-77 115.5-28 143.5 28 143.5 77 115 115 76.5 143 28q76 0 142.5-28t115.5-76.5 77-115 28-143.5-28-143.5-77-115.5-115.5-76.5-142.5-27.5zM411 64q61 0 113.5 22.5t90.5 61.5 60 92 22 115-22 115-60 92-90.5 61.5-113.5 22.5q-62 0-114-22.5t-90.5-61.5-60-92-21.5-115 21.5-115 60-92 90.5-61.5 114-22.5zM243 805q8 43 35.5 66.5t61.5 23.5q22 0 40-8t34.5-17 31-17 28.5-8q23 0 34.5 12.5t16.5 37.5h55l-3-16q-8-42-34.5-66t-62.5-24q-21 0-39.5 8t-35 17-31.5 17-30 8q-22 0-33-13t-16-38h-55z" glyph-name="Otilde" horiz-adv-x="822" unicode="&#xd5;"/><glyph d="M411-8q-77 0-143 27.5t-115 76.5-77 115.5-28 143.5 28 143.5 77 115 115 76.5 143 28q76 0 142.5-28t115.5-76.5 77-115 28-143.5-28-143.5-77-115.5-115.5-76.5-142.5-27.5zM411 64q61 0 113.5 22.5t90.5 61.5 60 92 22 115-22 115-60 92-90.5 61.5-113.5 22.5q-62 0-114-22.5t-90.5-61.5-60-92-21.5-115 21.5-115 60-92 90.5-61.5 114-22.5zM522 787q-23 0-39.5 16t-16.5 40q0 23 16.5 39t39.5 16 39-16 16-39q0-25-16-40.5t-39-15.5zM300 787q-23 0-39.5 16t-16.5 40q0 23 16 39t40 16q23 0 39-16t16-39q0-25-16.5-40.5t-38.5-15.5z" glyph-name="Odieresis" horiz-adv-x="822" unicode="&#xd6;"/><glyph d="M107 120l147 147-150 150 42 41 149-150 146 146 41-40-146-146 149-150-41-40-149 149-147-147z" glyph-name="multiply" horiz-adv-x="590" unicode="&#xd7;"/><glyph d="M80-19l82 106-9 9q-49 49-77 115.5t-28 143.5 28 143.5 77 115 115 76.5 143 28q76 0 142-28 29-12 54-29l83 107 48-38-82-105q7-6 13-12 49-48 77-114.5t28-143.5-28-143.5-77-115.5-115.5-76.5-142.5-27.5q-77 0-143 27-31 13-59 30l-82-106zM411 64q61 0 113.5 22.5t90.5 61.5 60 92 22 115-22 115-60 92l-5 4-355-458q20-12 42-22 52-22 114-22zM524 623q-52 23-113 23-62 0-114-22.5t-90.5-61.5-60-92-21.5-115 21.5-115 59.5-92l2-2 355 458q-19 11-39 19z" glyph-name="Oslash" horiz-adv-x="822" unicode="&#xd8;"/><glyph d="M368-8q-62 0-113 18.5t-88 54-57 87-20 116.5v442h74v-445q0-50 14.5-88t41.5-63.5 64.5-38 83.5-12.5 83.5 12.5 64.5 38 41.5 63.5 14.5 88v445h74v-442q0-65-20-116.5t-56.5-87-88-54-113.5-18.5zM220 913h88l84-145h-60z" glyph-name="Ugrave" horiz-adv-x="736" unicode="&#xd9;"/><glyph d="M368-8q-62 0-113 18.5t-88 54-57 87-20 116.5v442h74v-445q0-50 14.5-88t41.5-63.5 64.5-38 83.5-12.5 83.5 12.5 64.5 38 41.5 63.5 14.5 88v445h74v-442q0-65-20-116.5t-56.5-87-88-54-113.5-18.5zM508.969 913h-87.9941l-83.9951-145h59.9961z" glyph-name="Uacute" horiz-adv-x="736" unicode="&#xda;"/><glyph d="M368-8q-62 0-113 18.5t-88 54-57 87-20 116.5v442h74v-445q0-50 14.5-88t41.5-63.5 64.5-38 83.5-12.5 83.5 12.5 64.5 38 41.5 63.5 14.5 88v445h74v-442q0-65-20-116.5t-56.5-87-88-54-113.5-18.5zM195 817l171 109 171-109-29-49-142 94-142-94z" glyph-name="Ucircumflex" horiz-adv-x="736" unicode="&#xdb;"/><glyph d="M368-8q-62 0-113 18.5t-88 54-57 87-20 116.5v442h74v-445q0-50 14.5-88t41.5-63.5 64.5-38 83.5-12.5 83.5 12.5 64.5 38 41.5 63.5 14.5 88v445h74v-442q0-65-20-116.5t-56.5-87-88-54-113.5-18.5zM478 788q-23 0-39.5 16t-16.5 40q0 23 16.5 39t39.5 16 39-16 16-39q0-25-16-40.5t-39-15.5zM256 788q-23 0-39.5 16t-16.5 40q0 23 16 39t40 16q23 0 39-16t16-39q0-25-16.5-40.5t-38.5-15.5z" glyph-name="Udieresis" horiz-adv-x="736" unicode="&#xdc;"/><glyph d="M271 301l-260 409h86l211-337 211 337h86l-260-409v-301h-74v301zM451.973 913h-87.9951l-83.9951-145h59.9971z" glyph-name="Yacute" horiz-adv-x="616" unicode="&#xdd;"/><glyph d="M99 710h74v-141h120q57 0 102-15.5t76.5-43 48-66.5 16.5-86-16.5-86-48-66.5-76.5-43-102-15.5h-120v-147h-74v710zM173 500v-284h120q83 0 125.5 38.5t42.5 103.5q0 66-42.5 104t-125.5 38h-120z" glyph-name="Thorn" horiz-adv-x="578" unicode="&#xde;"/><glyph d="M432 53q0 37-13.5 68.5t-38.5 54-60 35.5-77 13v55l110 157h-204v-436h-70v567q0 72 37 107.5t109 35.5h36v-64h-28q-49 0-66.5-23t-17.5-70v-53h327l-155-224q88-22 134.5-82t46.5-141q0-51-19-94.5t-53.5-75-82-49.5-104.5-18v67q42 0 77 12.5t60 35 38.5 54 13.5 68.5z" glyph-name="germandbls" horiz-adv-x="537" unicode="&#xdf;"/><glyph d="M469 58q-32-32-75.5-49t-93.5-17q-56 0-103 20t-81 55-53 82-19 101 19 101 53 82 81 55 103 20q50 0 93.5-17t75.5-49v58h70v-500h-70v58zM301 58q57 0 100 24t68 62v212q-24 38-67.5 62t-100.5 24q-41 0-74.5-15t-58.5-41-38.5-61-13.5-75 13.5-75 38.5-61 58.5-41 74.5-15zM174 710h88l90-160h-59z" glyph-name="agrave" horiz-adv-x="618" unicode="&#xe0;"/><glyph d="M469 58q-32-32-75.5-49t-93.5-17q-56 0-103 20t-81 55-53 82-19 101 19 101 53 82 81 55 103 20q50 0 93.5-17t75.5-49v58h70v-500h-70v58zM301 58q57 0 100 24t68 62v212q-24 38-67.5 62t-100.5 24q-41 0-74.5-15t-58.5-41-38.5-61-13.5-75 13.5-75 38.5-61 58.5-41 74.5-15zM456.972 710h-87.9941l-89.9941-160h58.9961z" glyph-name="aacute" horiz-adv-x="618" unicode="&#xe1;"/><glyph d="M469 58q-32-32-75.5-49t-93.5-17q-56 0-103 20t-81 55-53 82-19 101 19 101 53 82 81 55 103 20q50 0 93.5-17t75.5-49v58h70v-500h-70v58zM301 58q57 0 100 24t68 62v212q-24 38-67.5 62t-100.5 24q-41 0-74.5-15t-58.5-41-38.5-61-13.5-75 13.5-75 38.5-61 58.5-41 74.5-15zM471 602l-31-45-127 94-127-94-31 45 158 116z" glyph-name="acircumflex" horiz-adv-x="618" unicode="&#xe2;"/><glyph d="M469 58q-32-32-75.5-49t-93.5-17q-56 0-103 20t-81 55-53 82-19 101 19 101 53 82 81 55 103 20q50 0 93.5-17t75.5-49v58h70v-500h-70v58zM301 58q57 0 100 24t68 62v212q-24 38-67.5 62t-100.5 24q-41 0-74.5-15t-58.5-41-38.5-61-13.5-75 13.5-75 38.5-61 58.5-41 74.5-15zM147 587q8 43 35.5 66.5t61.5 23.5q22 0 40-8t34.5-17 31-17 28.5-8q23 0 34.5 12.5t16.5 37.5h55l-3-16q-8-42-34.5-66t-62.5-24q-21 0-39.5 8t-35 17-31.5 17-30 8q-22 0-33-13t-16-38h-55z" glyph-name="atilde" horiz-adv-x="618" unicode="&#xe3;"/><glyph d="M469 58q-32-32-75.5-49t-93.5-17q-56 0-103 20t-81 55-53 82-19 101 19 101 53 82 81 55 103 20q50 0 93.5-17t75.5-49v58h70v-500h-70v58zM301 58q57 0 100 24t68 62v212q-24 38-67.5 62t-100.5 24q-41 0-74.5-15t-58.5-41-38.5-61-13.5-75 13.5-75 38.5-61 58.5-41 74.5-15zM425 576q-23 0-39.5 16t-16.5 40q0 23 16.5 39t39.5 16 39-16 16-39q0-25-16-40.5t-39-15.5zM203 576q-23 0-39.5 16t-16.5 40q0 23 16 39t40 16q23 0 39-16t16-39q0-25-16.5-40.5t-38.5-15.5z" glyph-name="adieresis" horiz-adv-x="618" unicode="&#xe4;"/><glyph d="M469 58q-32-32-75.5-49t-93.5-17q-56 0-103 20t-81 55-53 82-19 101 19 101 53 82 81 55 103 20q50 0 93.5-17t75.5-49v58h70v-500h-70v58zM301 58q57 0 100 24t68 62v212q-24 38-67.5 62t-100.5 24q-41 0-74.5-15t-58.5-41-38.5-61-13.5-75 13.5-75 38.5-61 58.5-41 74.5-15zM313 572q-20 0-37 7t-29.5 19.5-20 29-7.5 35.5q0 39 27.5 65t66.5 26 66.5-26 27.5-65q0-19-7.5-35.5t-20-29-30-19.5-36.5-7zM313 612q21 0 36 14t15 37-15 37-36 14-36-14-15-37 15-37 36-14z" glyph-name="aring" horiz-adv-x="618" unicode="&#xe5;"/><glyph d="M862 72q-33-34-84.5-57t-115.5-23q-62 0-117 26t-93 79q-45-57-100.5-81t-118.5-24q-90 0-143.5 44.5t-53.5 120.5q0 36 14.5 65.5t41 51.5 63.5 34 82 12q54 0 95-12t72-32v36q0 37-12.5 62t-33 40-47.5 21.5-57 6.5q-47 0-85.5-16t-64.5-40l-34 57q32 27 79 46t106 19q29 0 58-5.5t55-18.5 47-35 33-54q35 56 91 84.5t116 28.5q51 0 94.5-17.5t76-52 51.5-85.5 20-117h-420q3-41 18.5-73.5t40.5-56 57.5-36 68.5-12.5q49 0 88.5 18.5t65.5 44.5zM651 443q-28 0-55.5-9.5t-50.5-27.5-40.5-45-24.5-63h338q-9 72-55 109t-112 36zM236 58q60 0 104.5 24.5t69.5 64.5q-1 2-2 11t-2 19.5-1.5 19.5-.5 12q-29 24-68.5 37.5t-92.5 13.5q-57 0-96-26t-39-77q0-25 10-43.5t27.5-31 40.5-18.5 50-6z" glyph-name="ae" horiz-adv-x="934" unicode="&#xe6;"/><glyph d="M301-8q-56 0-103 20t-81.5 55-53.5 82-19 101 19 101 53.5 82 81.5 55 103 20q61 0 108.5-22t81.5-56l-45-49q-26 26-62 43.5t-83 17.5q-41 0-74.5-15t-58.5-41-38.5-61-13.5-75 13.5-75 38.5-61 58.5-41 74.5-15q47 0 83 17.5t62 43.5l45-49q-34-34-81.5-56t-108.5-22zM281 0h50l-67-165h-80z" glyph-name="ccedilla" horiz-adv-x="521" unicode="&#xe7;"/><glyph d="M301-8q-56 0-103 20t-81.5 55-53.5 82-19 101 19 101 53 82 79.5 55 98.5 20q55 0 100-20t76.5-56 48.5-86 17-110h-421q3-40 18.5-72.5t40.5-56 57.5-36.5 69.5-13q50 0 89.5 18.5t65.5 44.5l45-49q-33-34-84.5-57t-115.5-23zM290 443q-28 0-55.5-9t-50.5-27.5-40-45.5-24-63h337q-9 72-55 109t-112 36zM156 710h88l90-160h-59z" glyph-name="egrave" horiz-adv-x="573" unicode="&#xe8;"/><glyph d="M301-8q-56 0-103 20t-81.5 55-53.5 82-19 101 19 101 53 82 79.5 55 98.5 20q55 0 100-20t76.5-56 48.5-86 17-110h-421q3-40 18.5-72.5t40.5-56 57.5-36.5 69.5-13q50 0 89.5 18.5t65.5 44.5l45-49q-33-34-84.5-57t-115.5-23zM290 443q-28 0-55.5-9t-50.5-27.5-40-45.5-24-63h337q-9 72-55 109t-112 36zM438.974 710h-87.9951l-89.9941-160h58.9961z" glyph-name="eacute" horiz-adv-x="573" unicode="&#xe9;"/><glyph d="M301-8q-56 0-103 20t-81.5 55-53.5 82-19 101 19 101 53 82 79.5 55 98.5 20q55 0 100-20t76.5-56 48.5-86 17-110h-421q3-40 18.5-72.5t40.5-56 57.5-36.5 69.5-13q50 0 89.5 18.5t65.5 44.5l45-49q-33-34-84.5-57t-115.5-23zM290 443q-28 0-55.5-9t-50.5-27.5-40-45.5-24-63h337q-9 72-55 109t-112 36zM453 602l-31-45-127 94-127-94-31 45 158 116z" glyph-name="ecircumflex" horiz-adv-x="573" unicode="&#xea;"/><glyph d="M301-8q-56 0-103 20t-81.5 55-53.5 82-19 101 19 101 53 82 79.5 55 98.5 20q55 0 100-20t76.5-56 48.5-86 17-110h-421q3-40 18.5-72.5t40.5-56 57.5-36.5 69.5-13q50 0 89.5 18.5t65.5 44.5l45-49q-33-34-84.5-57t-115.5-23zM290 443q-28 0-55.5-9t-50.5-27.5-40-45.5-24-63h337q-9 72-55 109t-112 36zM407 576q-23 0-39.5 16t-16.5 40q0 23 16.5 39t39.5 16 39-16 16-39q0-25-16-40.5t-39-15.5zM185 576q-23 0-39.5 16t-16.5 40q0 23 16 39t40 16q23 0 39-16t16-39q0-25-16.5-40.5t-38.5-15.5z" glyph-name="edieresis" horiz-adv-x="573" unicode="&#xeb;"/><glyph d="M79 500h70v-500h-70v500zM-25 710h88l90-160h-59z" glyph-name="igrave" horiz-adv-x="228" unicode="&#xec;"/><glyph d="M79 500h70v-500h-70v500zM257.984 710h-87.9951l-89.9941-160h58.9961z" glyph-name="iacute" horiz-adv-x="228" unicode="&#xed;"/><glyph d="M79 500h70v-500h-70v500zM272 602l-31-45-127 94-127-94-31 45 158 116z" glyph-name="icircumflex" horiz-adv-x="228" unicode="&#xee;"/><glyph d="M79 500h70v-500h-70v500zM8 576q-23 0-39.5 16t-16.5 40q0 23 16.5 39t39.5 16 39.5-16 16.5-39q0-24-16.5-40t-39.5-16zM220 576q-23 0-39.5 16t-16.5 40q0 23 16.5 39t39.5 16 39.5-16 16.5-39q0-24-16.5-40t-39.5-16z" glyph-name="idieresis" horiz-adv-x="228" unicode="&#xef;"/><glyph d="M183 628h96l-57 82h77l57-82h128v-54h-90l115-166q29-42 40.5-80t11.5-78q0-53-19.5-100t-54-82-82-55.5-103.5-20.5q-57 0-104.5 20.5t-82 55.5-53.5 82-19 100q0 52 18.5 98.5t52.5 81.5 80 56 102 22q17 0 34-3t41-11l-55 80h-133v54zM302 57q42 0 76.5 15t59.5 41.5 38.5 61.5 13.5 75-13.5 75-38.5 61.5-59.5 41.5-76.5 15-76.5-15-59-41.5-38.5-61.5-14-75 14-75 38.5-61.5 59-41.5 76.5-15z" glyph-name="eth" horiz-adv-x="605" unicode="&#xf0;"/><glyph d="M79 500h70v-69q28 39 70.5 58t92.5 19q44 0 80-14.5t61.5-41 39.5-64 14-83.5v-305h-70v300q0 63-36.5 102.5t-102.5 39.5q-57 0-95.5-30.5t-53.5-82.5v-329h-70v500zM141 587q8 43 35.5 66.5t61.5 23.5q22 0 40-8t34.5-17 31-17 28.5-8q23 0 34.5 12.5t16.5 37.5h55l-3-16q-8-42-34.5-66t-62.5-24q-21 0-39.5 8t-35 17-31.5 17-30 8q-22 0-33-13t-16-38h-55z" glyph-name="ntilde" horiz-adv-x="579" unicode="&#xf1;"/><glyph d="M303-8q-57 0-104.5 20t-82 55-53.5 82-19 101 19 101 53.5 82 82 55 104.5 20 104.5-20 82-55 53.5-82 19-101-19-101-53.5-82-82-55-104.5-20zM303 58q42 0 76 15t59 41 38.5 61 13.5 75-13.5 75-38.5 61-59 41-76 15q-41 0-75.5-15t-59.5-41-38.5-61-13.5-75 13.5-75 38.5-61 59.5-41 75.5-15zM165 710h88l90-160h-59z" glyph-name="ograve" horiz-adv-x="606" unicode="&#xf2;"/><glyph d="M303-8q-57 0-104.5 20t-82 55-53.5 82-19 101 19 101 53.5 82 82 55 104.5 20 104.5-20 82-55 53.5-82 19-101-19-101-53.5-82-82-55-104.5-20zM303 58q42 0 76 15t59 41 38.5 61 13.5 75-13.5 75-38.5 61-59 41-76 15q-41 0-75.5-15t-59.5-41-38.5-61-13.5-75 13.5-75 38.5-61 59.5-41 75.5-15zM447.973 710h-87.9941l-89.9951-160h58.9961z" glyph-name="oacute" horiz-adv-x="606" unicode="&#xf3;"/><glyph d="M303-8q-57 0-104.5 20t-82 55-53.5 82-19 101 19 101 53.5 82 82 55 104.5 20 104.5-20 82-55 53.5-82 19-101-19-101-53.5-82-82-55-104.5-20zM303 58q42 0 76 15t59 41 38.5 61 13.5 75-13.5 75-38.5 61-59 41-76 15q-41 0-75.5-15t-59.5-41-38.5-61-13.5-75 13.5-75 38.5-61 59.5-41 75.5-15zM461 602l-31-45-127 94-127-94-31 45 158 116z" glyph-name="ocircumflex" horiz-adv-x="606" unicode="&#xf4;"/><glyph d="M303-8q-57 0-104.5 20t-82 55-53.5 82-19 101 19 101 53.5 82 82 55 104.5 20 104.5-20 82-55 53.5-82 19-101-19-101-53.5-82-82-55-104.5-20zM303 58q42 0 76 15t59 41 38.5 61 13.5 75-13.5 75-38.5 61-59 41-76 15q-41 0-75.5-15t-59.5-41-38.5-61-13.5-75 13.5-75 38.5-61 59.5-41 75.5-15zM137 587q8 43 35.5 66.5t61.5 23.5q22 0 40-8t34.5-17 31-17 28.5-8q23 0 34.5 12.5t16.5 37.5h55l-3-16q-8-42-34.5-66t-62.5-24q-21 0-39.5 8t-35 17-31.5 17-30 8q-22 0-33-13t-16-38h-55z" glyph-name="otilde" horiz-adv-x="606" unicode="&#xf5;"/><glyph d="M303-8q-57 0-104.5 20t-82 55-53.5 82-19 101 19 101 53.5 82 82 55 104.5 20 104.5-20 82-55 53.5-82 19-101-19-101-53.5-82-82-55-104.5-20zM303 58q42 0 76 15t59 41 38.5 61 13.5 75-13.5 75-38.5 61-59 41-76 15q-41 0-75.5-15t-59.5-41-38.5-61-13.5-75 13.5-75 38.5-61 59.5-41 75.5-15zM415 576q-23 0-39.5 16t-16.5 40q0 23 16.5 39t39.5 16 39-16 16-39q0-25-16-40.5t-39-15.5zM193 576q-23 0-39.5 16t-16.5 40q0 23 16 39t40 16q23 0 39-16t16-39q0-25-16.5-40.5t-38.5-15.5z" glyph-name="odieresis" horiz-adv-x="606" unicode="&#xf6;"/><glyph d="M295 349q-26 0-45 18t-19 45q0 26 19 44.5t45 18.5 44-18.5 18-44.5-18-44.5-44-18.5zM75 303h439v-61h-439v61zM295 70q-26 0-45 18t-19 45q0 26 19 44t45 18 44-18 18-44q0-27-18-45t-44-18z" glyph-name="divide" horiz-adv-x="590" unicode="&#xf7;"/><glyph d="M47-21l71 87-1 1q-34 35-53 82t-19 101 19 101 53.5 82 82 55 104.5 20 104-20q19-8 36-19l74 92 45-37-73-91q35-35 54-82t19-101-19-101-53.5-82-82-55-104.5-20-105 20q-19 8-36 18l-71-88zM304 58q42 0 76 15t59 41 38.5 61 13.5 75-14 75q-11 30-32 54l-238-295q10-6 21-11 35-15 76-15zM380 427q-34 15-76 15-41 0-75.5-15t-59.5-41-38.5-61-13.5-75 13-75q12-30 32-54l239 295q-10 6-21 11z" glyph-name="oslash" horiz-adv-x="608" unicode="&#xf8;"/><glyph d="M429 68q-29-39-71-57.5t-91-18.5q-45 0-81 14.5t-61.5 41-39 64-13.5 83.5v305h70v-300q0-63 36.5-102.5t101.5-39.5q57 0 94.5 29.5t54.5 80.5v332h70v-500h-70v68zM147 710h88l90-160h-59z" glyph-name="ugrave" horiz-adv-x="578" unicode="&#xf9;"/><glyph d="M429 68q-29-39-71-57.5t-91-18.5q-45 0-81 14.5t-61.5 41-39 64-13.5 83.5v305h70v-300q0-63 36.5-102.5t101.5-39.5q57 0 94.5 29.5t54.5 80.5v332h70v-500h-70v68zM429.974 710h-87.9941l-89.9951-160h58.9971z" glyph-name="uacute" horiz-adv-x="578" unicode="&#xfa;"/><glyph d="M429 68q-29-39-71-57.5t-91-18.5q-45 0-81 14.5t-61.5 41-39 64-13.5 83.5v305h70v-300q0-63 36.5-102.5t101.5-39.5q57 0 94.5 29.5t54.5 80.5v332h70v-500h-70v68zM443 602l-31-45-127 94-127-94-31 45 158 116z" glyph-name="ucircumflex" horiz-adv-x="578" unicode="&#xfb;"/><glyph d="M429 68q-29-39-71-57.5t-91-18.5q-45 0-81 14.5t-61.5 41-39 64-13.5 83.5v305h70v-300q0-63 36.5-102.5t101.5-39.5q57 0 94.5 29.5t54.5 80.5v332h70v-500h-70v68zM397 576q-23 0-39.5 16t-16.5 40q0 23 16.5 39t39.5 16 39-16 16-39q0-25-16-40.5t-39-15.5zM175 576q-23 0-39.5 16t-16.5 40q0 23 16 39t40 16q23 0 39-16t16-39q0-25-16.5-40.5t-38.5-15.5z" glyph-name="udieresis" horiz-adv-x="578" unicode="&#xfc;"/><glyph d="M218 34l-212 466h76l172-389 174 389h76l-313-684h-75zM400.976 710h-87.9951l-89.9941-160h58.9961z" glyph-name="yacute" horiz-adv-x="507" unicode="&#xfd;"/><glyph d="M79-184v894h70v-268q32 32 75 49t94 17q56 0 103-20t81-55 53-82 19-101-19-101-53-82-81-55-103-20q-51 0-94 17t-75 49v-242h-70zM317 442q-57 0-101-24t-67-62v-212q24-38 67.5-62t100.5-24q40 0 74 15t58.5 41 38.5 61 14 75-14 75-38.5 61-58.5 41-74 15z" glyph-name="thorn" horiz-adv-x="618" unicode="&#xfe;"/><glyph d="M218 34l-212 466h76l172-389 174 389h76l-313-684h-75zM368 576q-23 0-39.5 16t-16.5 40q0 23 16.5 39t39.5 16 39-16 16-39q0-25-16-40.5t-39-15.5zM146 576q-23 0-39.5 16t-16.5 40q0 23 16 39t40 16q23 0 39-16t16-39q0-25-16.5-40.5t-38.5-15.5z" glyph-name="ydieresis" horiz-adv-x="507" unicode="&#xff;"/><glyph d="M338 718l342-718h-79l-94 201h-338l-94-201h-80zM475 269l-137 290-137-290h274zM337 774q-34 0-61.5 10.5t-47 28.5-30.5 42-12 52h53q4-37 29-60.5t70-23.5 70.5 23.5 29.5 60.5h53q-2-28-13-52t-31-42-47.5-28.5-62.5-10.5z" glyph-name="Abreve" horiz-adv-x="675" unicode="&#x102;"/><glyph d="M338 718l342-718h-79l-94 201h-338l-94-201h-80zM475 269l-137 290-137-290h274zM194 864h288v-54h-288v54z" glyph-name="Amacron" horiz-adv-x="675" unicode="&#x100;"/><glyph d="M338 718l342-718h1q-39-17-61.5-41.5t-22.5-50.5q0-23 15-34.5t39-11.5q11 0 20.5 3t15.5 5v-49q-13-8-28-10.5t-31-2.5q-20 0-38 5.5t-32.5 16-23 26.5-8.5 37q0 18 6.5 35t17 31 24 24.5 26.5 17.5l-93 200h-338l-94-201h-80zM475 269l-137 290-137-290h274z" glyph-name="Aogonek" horiz-adv-x="675" unicode="&#x104;"/><glyph d="M410-8q-76 0-142 27.5t-115 76.5-77 115.5-28 143.5 28 143.5 77 115 115 76.5 142 28q46 0 87.5-10t77.5-28 65.5-42 49.5-51l-53-46q-37 48-95.5 77.5t-131.5 29.5q-61 0-113.5-22.5t-90.5-62-60-93-22-115.5 22-115.5 60-92.5 90.5-61.5 113.5-22.5q73 0 131.5 29.5t95.5 77.5l53-47q-20-27-49.5-51t-65.5-42-77.5-28-87.5-10zM551.967 913h-87.9951l-83.9951-145h59.9961z" glyph-name="Cacute" horiz-adv-x="721" unicode="&#x106;"/><glyph d="M410-8q-76 0-142 27.5t-115 76.5-77 115.5-28 143.5 28 143.5 77 115 115 76.5 142 28q46 0 87.5-10t77.5-28 65.5-42 49.5-51l-53-46q-37 48-95.5 77.5t-131.5 29.5q-61 0-113.5-22.5t-90.5-62-60-93-22-115.5 22-115.5 60-92.5 90.5-61.5 113.5-22.5q73 0 131.5 29.5t95.5 77.5l53-47q-20-27-49.5-51t-65.5-42-77.5-28-87.5-10zM579.965 877.946l-170.99-108.993-170.989 108.993 28.998 48.9971 141.991-93.9941 141.992 93.9941z" glyph-name="Ccaron" horiz-adv-x="721" unicode="&#x10c;"/><glyph d="M410-8q-76 0-142 27.5t-115 76.5-77 115.5-28 143.5 28 143.5 77 115 115 76.5 142 28q46 0 87.5-10t77.5-28 65.5-42 49.5-51l-53-46q-37 48-95.5 77.5t-131.5 29.5q-61 0-113.5-22.5t-90.5-62-60-93-22-115.5 22-115.5 60-92.5 90.5-61.5 113.5-22.5q73 0 131.5 29.5t95.5 77.5l53-47q-20-27-49.5-51t-65.5-42-77.5-28-87.5-10zM238 817l171 109 171-109-29-49-142 94-142-94z" glyph-name="Ccircumflex" horiz-adv-x="721" unicode="&#x108;"/><glyph d="M410-8q-76 0-142 27.5t-115 76.5-77 115.5-28 143.5 28 143.5 77 115 115 76.5 142 28q46 0 87.5-10t77.5-28 65.5-42 49.5-51l-53-46q-37 48-95.5 77.5t-131.5 29.5q-61 0-113.5-22.5t-90.5-62-60-93-22-115.5 22-115.5 60-92.5 90.5-61.5 113.5-22.5q73 0 131.5 29.5t95.5 77.5l53-47q-20-27-49.5-51t-65.5-42-77.5-28-87.5-10zM409 788q-23 0-39.5 15.5t-16.5 40.5q0 23 16.5 39t39.5 16 39.5-16 16.5-39q0-24-16.5-40t-39.5-16z" glyph-name="Cdotaccent" horiz-adv-x="721" unicode="&#x10a;"/><glyph d="M99 710h208q83 0 152.5-27t120-74.5 79-112.5 28.5-141q0-77-28.5-142t-79-112-120-74-152.5-27h-208v710zM307 69q69 0 125 21.5t96 59.5 62 90.5 22 114.5q0 61-22 113.5t-62 91-96 60-125 21.5h-134v-572h134zM508.969 877.946l-170.989-108.993-170.989 108.993 28.998 48.9971 141.991-93.9941 141.991 93.9941z" glyph-name="Dcaron" horiz-adv-x="735" unicode="&#x10e;"/><glyph d="M126 710h208q83 0 152.5-27t120-74.5 79-112.5 28.5-141q0-77-28.5-142t-79-112-120-74-152.5-27h-208v710zM334 69q69 0 125 21.5t96 59.5 62 90.5 22 114.5q0 61-22 113.5t-62 91-96 60-125 21.5h-134v-572h134zM6 389h333v-61h-333v61z" glyph-name="Dcroat" horiz-adv-x="762" unicode="&#x110;"/><glyph d="M99 710h405v-71h-331v-239h271v-72h-271v-257h331v-71h-405v710zM308 774q-34 0-61.5 10.5t-47 28.5-30.5 42-12 52h53q4-37 29-60.5t70-23.5 70.5 23.5 29.5 60.5h53q-2-28-13-52t-31-42-47.5-28.5-62.5-10.5z" glyph-name="Ebreve" horiz-adv-x="553" unicode="&#x114;"/><glyph d="M99 710h405v-71h-331v-239h271v-72h-271v-257h331v-71h-405v710zM479.971 877.946l-170.989-108.993-170.99 108.993 28.999 48.9971 141.991-93.9941 141.991 93.9941z" glyph-name="Ecaron" horiz-adv-x="553" unicode="&#x11a;"/><glyph d="M99 710h405v-71h-331v-239h271v-72h-271v-257h331v-71h-405v710zM165 864h288v-54h-288v54z" glyph-name="Emacron" horiz-adv-x="553" unicode="&#x112;"/><glyph d="M99 710h405v-71h-331v-239h271v-72h-271v-257h331v-71h-405v710zM452-192q-20 0-38 5.5t-32.5 16-23 26.5-8.5 37q0 19 7.5 36t19 31 26 25 28.5 17l74-2q-39-17-61-41.5t-22-50.5q0-23 14.5-34.5t38.5-11.5q11 0 20.5 3t15.5 5v-49q-13-8-28-10.5t-31-2.5z" glyph-name="Eogonek" horiz-adv-x="553" unicode="&#x118;"/><glyph d="M99 710h405v-71h-331v-239h271v-72h-271v-257h331v-71h-405v710zM309 788q-23 0-39.5 15.5t-16.5 40.5q0 23 16.5 39t39.5 16 39.5-16 16.5-39q0-24-16.5-40t-39.5-16z" glyph-name="Edotaccent" horiz-adv-x="553" unicode="&#x116;"/><glyph d="M411-8q-77 0-143 27.5t-115 76.5-77 115.5-28 143.5 28 143.5 76.5 115 114.5 76.5 143 28q41 0 79.5-8.5t73-23.5 63-36 49.5-45l-53-48q-37 41-90.5 65.5t-121.5 24.5q-61 0-113.5-22.5t-91-61.5-60.5-92.5-22-115.5 22-115.5 60.5-92.5 91-61.5 114.5-22.5q63 0 114.5 17.5t80.5 42.5v205h-227l32 72h269v-312q-17-18-44-35.5t-62-31-76.5-21.5-86.5-8zM394 774q-34 0-61.5 10.5t-47 28.5-30.5 42-12 52h53q4-37 29-60.5t70-23.5 70.5 23.5 29.5 60.5h53q-2-28-13-52t-31-42-47.5-28.5-62.5-10.5z" glyph-name="Gbreve" horiz-adv-x="743" unicode="&#x11e;"/><glyph d="M411-8q-77 0-143 27.5t-115 76.5-77 115.5-28 143.5 28 143.5 76.5 115 114.5 76.5 143 28q41 0 79.5-8.5t73-23.5 63-36 49.5-45l-53-48q-37 41-90.5 65.5t-121.5 24.5q-61 0-113.5-22.5t-91-61.5-60.5-92.5-22-115.5 22-115.5 60.5-92.5 91-61.5 114.5-22.5q63 0 114.5 17.5t80.5 42.5v205h-227l32 72h269v-312q-17-18-44-35.5t-62-31-76.5-21.5-86.5-8zM224 817l171 109 171-109-29-49-142 94-142-94z" glyph-name="Gcircumflex" horiz-adv-x="743" unicode="&#x11c;"/><glyph d="M411-8q-77 0-143 27.5t-115 76.5-77 115.5-28 143.5 28 143.5 76.5 115 114.5 76.5 143 28q41 0 79.5-8.5t73-23.5 63-36 49.5-45l-53-48q-37 41-90.5 65.5t-121.5 24.5q-61 0-113.5-22.5t-91-61.5-60.5-92.5-22-115.5 22-115.5 60.5-92.5 91-61.5 114.5-22.5q63 0 114.5 17.5t80.5 42.5v205h-227l32 72h269v-312q-17-18-44-35.5t-62-31-76.5-21.5-86.5-8zM365-50h81l-106-165h-54z" glyph-name="uni0122" horiz-adv-x="743" unicode="&#x122;"/><glyph d="M411-8q-77 0-143 27.5t-115 76.5-77 115.5-28 143.5 28 143.5 76.5 115 114.5 76.5 143 28q41 0 79.5-8.5t73-23.5 63-36 49.5-45l-53-48q-37 41-90.5 65.5t-121.5 24.5q-61 0-113.5-22.5t-91-61.5-60.5-92.5-22-115.5 22-115.5 60.5-92.5 91-61.5 114.5-22.5q63 0 114.5 17.5t80.5 42.5v205h-227l32 72h269v-312q-17-18-44-35.5t-62-31-76.5-21.5-86.5-8zM395 788q-23 0-39.5 15.5t-16.5 40.5q0 23 16.5 39t39.5 16 39.5-16 16.5-39q0-24-16.5-40t-39.5-16z" glyph-name="Gdotaccent" horiz-adv-x="743" unicode="&#x120;"/><glyph d="M100 710h74v-310h418v310h74v-710h-74v328h-418v-328h-74v710zM37 586h692v-61h-692v61z" glyph-name="Hbar" horiz-adv-x="766" unicode="&#x126;"/><glyph d="M99 710h74v-310h418v310h74v-710h-74v328h-418v-328h-74v710zM211 817l171 109 171-109-29-49-142 94-142-94z" glyph-name="Hcircumflex" horiz-adv-x="764" unicode="&#x124;"/><glyph d="M99 710h74v-710h-74v710zM135 774q-34 0-61.5 10.5t-47 28.5-30.5 42-12 52h53q4-37 29-60.5t70-23.5 70.5 23.5 29.5 60.5h53q-2-28-13-52t-31-42-47.5-28.5-62.5-10.5z" glyph-name="Ibreve" horiz-adv-x="272" unicode="&#x12c;"/><glyph d="M99 710h74v-710h-74v710zM136 788q-23 0-39.5 15.5t-16.5 40.5q0 23 16.5 39t39.5 16 39.5-16 16.5-39q0-24-16.5-40t-39.5-16z" glyph-name="Idotaccent" horiz-adv-x="272" unicode="&#x130;"/><glyph d="M99 710h74v-710h-74v710zM-8 864h288v-54h-288v54z" glyph-name="Imacron" horiz-adv-x="272" unicode="&#x12a;"/><glyph d="M99 710h74v-710h-74v710zM120-192q-20 0-38 5.5t-32.5 16-23 26.5-8.5 37q0 19 7.5 36t19 31 26 25 28.5 17l74-2q-39-17-61-41.5t-22-50.5q0-23 14.5-34.5t38.5-11.5q11 0 20.5 3t15.5 5v-49q-13-8-28-10.5t-31-2.5z" glyph-name="Iogonek" horiz-adv-x="272" unicode="&#x12e;"/><glyph d="M99 710h74v-710h-74v710zM-31 806q8 43 35.5 66.5t61.5 23.5q22 0 40-8t34.5-17 31-17 28.5-8q23 0 34.5 12.5t16.5 37.5h55l-3-16q-8-42-34.5-66t-62.5-24q-21 0-39.5 8t-35 17-31.5 17-30 8q-22 0-33-13t-16-38h-55z" glyph-name="Itilde" horiz-adv-x="272" unicode="&#x128;"/><glyph d="M99 710h74v-710h-74v710zM136-191q-23 0-39.5 15.5t-16.5 40.5q0 23 16.5 39t39.5 16 39.5-16 16.5-39q0-24-16.5-40t-39.5-16z" glyph-name="uni1ECA" horiz-adv-x="272" unicode="&#x1eca;"/><glyph d="M226-8q-42 0-79.5 13t-65 39-43.5 63.5-16 87.5h74q0-66 36.5-99t93.5-33q58 0 94.5 33t36.5 99v515h74v-519q0-50-16.5-87.5t-44.5-62-65-37-79-12.5zM222 817l171 109 171-109-29-49-142 94-142-94z" glyph-name="Jcircumflex" horiz-adv-x="523" unicode="&#x134;"/><glyph d="M99 710h74v-359l339 359h92l-341-360 371-350h-100l-361 339v-339h-74v710zM306-50h81l-106-165h-54z" glyph-name="uni0136" horiz-adv-x="626" unicode="&#x136;"/><glyph d="M99 710h74v-638h325v-72h-399v710zM279.982 913h-87.9941l-83.9951-145h59.9971z" glyph-name="Lacute" horiz-adv-x="515" unicode="&#x139;"/><glyph d="M99 710h74v-638h325v-72h-399v710zM298 710h71l-47-166h-50z" glyph-name="Lcaron" horiz-adv-x="517" unicode="&#x13d;"/><glyph d="M99 710h74v-638h325v-72h-399v710zM255-50h81l-106-165h-54z" glyph-name="uni013B" horiz-adv-x="515" unicode="&#x13b;"/><glyph d="M99 710h74v-638h325v-72h-399v710zM386 321q-23 0-39.5 15.5t-16.5 40.5q0 23 16.5 39t39.5 16 39.5-16 16.5-39q0-24-16.5-40t-39.5-16z" glyph-name="Ldot" horiz-adv-x="520" unicode="&#x13f;"/><glyph d="M180 710h74v-638h325v-72h-399v710zM17 273l366 242 35-52-367-242z" glyph-name="Lslash" horiz-adv-x="597" unicode="&#x141;"/><glyph d="M173 543v-543h-74v718l516-551v543h74v-718zM534.968 913h-87.9951l-83.9951-145h59.9971z" glyph-name="Nacute" horiz-adv-x="788" unicode="&#x143;"/><glyph d="M173 543v-543h-74v718l516-551v543h74v-718zM562.966 877.946l-170.989-108.993-170.99 108.993 28.998 48.9971 141.992-93.9941 141.991 93.9941z" glyph-name="Ncaron" horiz-adv-x="788" unicode="&#x147;"/><glyph d="M173 543v-543h-74v718l516-551v543h74v-718zM375-50h81l-106-165h-54z" glyph-name="uni0145" horiz-adv-x="788" unicode="&#x145;"/><glyph d="M411-8q-77 0-143 27.5t-115 76.5-77 115.5-28 143.5 28 143.5 77 115 115 76.5 143 28q63 0 118.5-19t101.5-53v64h406v-72h-335v-63q28-37 46-81t23-94h205v-72h-203q-4-56-22.5-104.5t-48.5-89.5v-62h335v-72h-406v64q-46-35-101.5-53.5t-118.5-18.5zM411 64q61 0 113.5 22.5t90.5 61.5 60 92 22 115-22 115-60 92-90.5 61.5-113.5 22.5q-62 0-114-22.5t-90.5-61.5-60-92-21.5-115 21.5-115 60-92 90.5-61.5 114-22.5z" glyph-name="OE" horiz-adv-x="1086" unicode="&#x152;"/><glyph d="M411-8q-77 0-143 27.5t-115 76.5-77 115.5-28 143.5 28 143.5 77 115 115 76.5 143 28q76 0 142.5-28t115.5-76.5 77-115 28-143.5-28-143.5-77-115.5-115.5-76.5-142.5-27.5zM411 64q61 0 113.5 22.5t90.5 61.5 60 92 22 115-22 115-60 92-90.5 61.5-113.5 22.5q-62 0-114-22.5t-90.5-61.5-60-92-21.5-115 21.5-115 60-92 90.5-61.5 114-22.5zM409 774q-34 0-61.5 10.5t-47 28.5-30.5 42-12 52h53q4-37 29-60.5t70-23.5 70.5 23.5 29.5 60.5h53q-2-28-13-52t-31-42-47.5-28.5-62.5-10.5z" glyph-name="Obreve" horiz-adv-x="822" unicode="&#x14e;"/><glyph d="M411-8q-77 0-143 27.5t-115 76.5-77 115.5-28 143.5 28 143.5 77 115 115 76.5 143 28q76 0 142.5-28t115.5-76.5 77-115 28-143.5-28-143.5-77-115.5-115.5-76.5-142.5-27.5zM411 64q61 0 113.5 22.5t90.5 61.5 60 92 22 115-22 115-60 92-90.5 61.5-113.5 22.5q-62 0-114-22.5t-90.5-61.5-60-92-21.5-115 21.5-115 60-92 90.5-61.5 114-22.5zM374 913h84l-112-145h-57zM574 913h84l-112-145h-57z" glyph-name="Ohungarumlaut" horiz-adv-x="822" unicode="&#x150;"/><glyph d="M411-8q-77 0-143 27.5t-115 76.5-77 115.5-28 143.5 28 143.5 77 115 115 76.5 143 28q76 0 142.5-28t115.5-76.5 77-115 28-143.5-28-143.5-77-115.5-115.5-76.5-142.5-27.5zM411 64q61 0 113.5 22.5t90.5 61.5 60 92 22 115-22 115-60 92-90.5 61.5-113.5 22.5q-62 0-114-22.5t-90.5-61.5-60-92-21.5-115 21.5-115 60-92 90.5-61.5 114-22.5zM266 864h288v-54h-288v54z" glyph-name="Omacron" horiz-adv-x="822" unicode="&#x14c;"/><glyph d="M411-8q-77 0-143 27.5t-115 76.5-77 115.5-28 143.5 28 143.5 77 115 115 76.5 143 28q76 0 142.5-28t115.5-76.5 77-115 28-143.5-28-143.5-77-115.5-115.5-76.5-142.5-27.5zM411 64q61 0 113.5 22.5t90.5 61.5 60 92 22 115-22 115-60 92-90.5 61.5-113.5 22.5q-62 0-114-22.5t-90.5-61.5-60-92-21.5-115 21.5-115 60-92 90.5-61.5 114-22.5zM409-191q-23 0-39.5 15.5t-16.5 40.5q0 23 16.5 39t39.5 16 39.5-16 16.5-39q0-24-16.5-40t-39.5-16z" glyph-name="uni1ECC" horiz-adv-x="822" unicode="&#x1ecc;"/><glyph d="M99 710h205q106 0 165-53.5t59-141.5q0-33-9.5-64t-30.5-57-55-44.5-82-25.5l255-324h-90l-250 320h-93v-320h-74v710zM301 386q75 0 113 34t38 93q0 60-38 94.5t-113 34.5h-128v-256h128zM441.973 913h-87.9941l-83.9951-145h59.9961z" glyph-name="Racute" horiz-adv-x="612" unicode="&#x154;"/><glyph d="M99 710h205q106 0 165-53.5t59-141.5q0-33-9.5-64t-30.5-57-55-44.5-82-25.5l255-324h-90l-250 320h-93v-320h-74v710zM301 386q75 0 113 34t38 93q0 60-38 94.5t-113 34.5h-128v-256h128zM469.972 877.946l-170.99-108.993-170.989 108.993 28.998 48.9971 141.991-93.9941 141.991 93.9941z" glyph-name="Rcaron" horiz-adv-x="612" unicode="&#x158;"/><glyph d="M99 710h205q106 0 165-53.5t59-141.5q0-33-9.5-64t-30.5-57-55-44.5-82-25.5l255-324h-90l-250 320h-93v-320h-74v710zM301 386q75 0 113 34t38 93q0 60-38 94.5t-113 34.5h-128v-256h128zM295-50h81l-106-165h-54z" glyph-name="uni0156" horiz-adv-x="612" unicode="&#x156;"/><glyph d="M260-8q-37 0-70.5 8.5t-62.5 23.5-52 34.5-39 41.5l57 49q26-35 69.5-60.5t97.5-25.5q69 0 109 30t40 84q0 52-34 84.5t-93 58.5l-68 29q-81 35-116.5 83t-35.5 113q0 39 17 71t45 54.5 65 35 76 12.5q59 0 108-23t84-65l-53-52q-27 34-61 51.5t-81 17.5q-25 0-48-7t-40-20-27.5-32.5-10.5-43.5q0-43 25.5-74t86.5-58l68-29q36-16 66.5-35t53-43 35-54 12.5-67q0-42-15-77.5t-44-61-70.5-39.5-93.5-14zM406.976 913h-87.9951l-83.9951-145h59.9971z" glyph-name="Sacute" horiz-adv-x="524" unicode="&#x15a;"/><glyph d="M260-8q-37 0-70.5 8.5t-62.5 23.5-52 34.5-39 41.5l57 49q26-35 69.5-60.5t97.5-25.5q69 0 109 30t40 84q0 52-34 84.5t-93 58.5l-68 29q-81 35-116.5 83t-35.5 113q0 39 17 71t45 54.5 65 35 76 12.5q59 0 108-23t84-65l-53-52q-27 34-61 51.5t-81 17.5q-25 0-48-7t-40-20-27.5-32.5-10.5-43.5q0-43 25.5-74t86.5-58l68-29q36-16 66.5-35t53-43 35-54 12.5-67q0-42-15-77.5t-44-61-70.5-39.5-93.5-14zM434.974 877.946l-170.989-108.993-170.99 108.993 28.998 48.9971 141.992-93.9941 141.991 93.9941z" glyph-name="Scaron" horiz-adv-x="524" unicode="&#x160;"/><glyph d="M260-8q-37 0-70.5 8.5t-62.5 23.5-52 34.5-39 41.5l57 49q26-35 69.5-60.5t97.5-25.5q69 0 109 30t40 84q0 52-34 84.5t-93 58.5l-68 29q-81 35-116.5 83t-35.5 113q0 39 17 71t45 54.5 65 35 76 12.5q59 0 108-23t84-65l-53-52q-27 34-61 51.5t-81 17.5q-25 0-48-7t-40-20-27.5-32.5-10.5-43.5q0-43 25.5-74t86.5-58l68-29q36-16 66.5-35t53-43 35-54 12.5-67q0-42-15-77.5t-44-61-70.5-39.5-93.5-14zM271 0h50l-67-165h-80z" glyph-name="Scedilla" horiz-adv-x="524" unicode="&#x15e;"/><glyph d="M260-8q-37 0-70.5 8.5t-62.5 23.5-52 34.5-39 41.5l57 49q26-35 69.5-60.5t97.5-25.5q69 0 109 30t40 84q0 52-34 84.5t-93 58.5l-68 29q-81 35-116.5 83t-35.5 113q0 39 17 71t45 54.5 65 35 76 12.5q59 0 108-23t84-65l-53-52q-27 34-61 51.5t-81 17.5q-25 0-48-7t-40-20-27.5-32.5-10.5-43.5q0-43 25.5-74t86.5-58l68-29q36-16 66.5-35t53-43 35-54 12.5-67q0-42-15-77.5t-44-61-70.5-39.5-93.5-14zM93 817l171 109 171-109-29-49-142 94-142-94z" glyph-name="Scircumflex" horiz-adv-x="524" unicode="&#x15c;"/><glyph d="M260-8q-37 0-70.5 8.5t-62.5 23.5-52 34.5-39 41.5l57 49q26-35 69.5-60.5t97.5-25.5q69 0 109 30t40 84q0 52-34 84.5t-93 58.5l-68 29q-81 35-116.5 83t-35.5 113q0 39 17 71t45 54.5 65 35 76 12.5q59 0 108-23t84-65l-53-52q-27 34-61 51.5t-81 17.5q-25 0-48-7t-40-20-27.5-32.5-10.5-43.5q0-43 25.5-74t86.5-58l68-29q36-16 66.5-35t53-43 35-54 12.5-67q0-42-15-77.5t-44-61-70.5-39.5-93.5-14zM218-50h81l-106-165h-54z" glyph-name="uni0218" horiz-adv-x="524" unicode="&#x218;"/><glyph d="M221 638h-206v72h487v-72h-207v-638h-74v638zM427.974 877.946l-170.989-108.993-170.989 108.993 28.998 48.9971 141.991-93.9941 141.991 93.9941z" glyph-name="Tcaron" horiz-adv-x="517" unicode="&#x164;"/><glyph d="M221 638h-206v72h487v-72h-207v-638h-74v638zM215-50h81l-106-165h-54z" glyph-name="uni0162" horiz-adv-x="517" unicode="&#x162;"/><glyph d="M221 638h-206v72h487v-72h-207v-638h-74v638zM215-50h81l-106-165h-54z" glyph-name="uni021A" horiz-adv-x="517" unicode="&#x21a;"/><glyph d="M368-8q-62 0-113 18.5t-88 54-57 87-20 116.5v442h74v-445q0-50 14.5-88t41.5-63.5 64.5-38 83.5-12.5 83.5 12.5 64.5 38 41.5 63.5 14.5 88v445h74v-442q0-65-20-116.5t-56.5-87-88-54-113.5-18.5zM365 774q-34 0-61.5 10.5t-47 28.5-30.5 42-12 52h53q4-37 29-60.5t70-23.5 70.5 23.5 29.5 60.5h53q-2-28-13-52t-31-42-47.5-28.5-62.5-10.5z" glyph-name="Ubreve" horiz-adv-x="736" unicode="&#x16c;"/><glyph d="M368-8q-62 0-113 18.5t-88 54-57 87-20 116.5v442h74v-445q0-50 14.5-88t41.5-63.5 64.5-38 83.5-12.5 83.5 12.5 64.5 38 41.5 63.5 14.5 88v445h74v-442q0-65-20-116.5t-56.5-87-88-54-113.5-18.5zM330 913h84l-112-145h-57zM530 913h84l-112-145h-57z" glyph-name="Uhungarumlaut" horiz-adv-x="736" unicode="&#x170;"/><glyph d="M368-8q-62 0-113 18.5t-88 54-57 87-20 116.5v442h74v-445q0-50 14.5-88t41.5-63.5 64.5-38 83.5-12.5 83.5 12.5 64.5 38 41.5 63.5 14.5 88v445h74v-442q0-65-20-116.5t-56.5-87-88-54-113.5-18.5zM222 864h288v-54h-288v54z" glyph-name="Umacron" horiz-adv-x="736" unicode="&#x16a;"/><glyph d="M368-8q-62 0-113 18.5t-88 54-57 87-20 116.5v442h74v-445q0-50 14.5-88t41.5-63.5 64.5-38 83.5-12.5 83.5 12.5 64.5 38 41.5 63.5 14.5 88v445h74v-442q0-65-20-116.5t-56.5-87-88-54-113.5-18.5zM380-192q-20 0-38 5.5t-32.5 16-23 26.5-8.5 37q0 19 7.5 36t19 31 26 25 28.5 17l74-2q-39-17-61-41.5t-22-50.5q0-23 14.5-34.5t38.5-11.5q11 0 20.5 3t15.5 5v-49q-13-8-28-10.5t-31-2.5z" glyph-name="Uogonek" horiz-adv-x="736" unicode="&#x172;"/><glyph d="M368-8q-62 0-113 18.5t-88 54-57 87-20 116.5v442h74v-445q0-50 14.5-88t41.5-63.5 64.5-38 83.5-12.5 83.5 12.5 64.5 38 41.5 63.5 14.5 88v445h74v-442q0-65-20-116.5t-56.5-87-88-54-113.5-18.5zM366 752q-20 0-37 7t-29.5 19.5-20 29-7.5 35.5q0 39 27.5 65t66.5 26 66.5-26 27.5-65q0-19-7.5-35.5t-20-29-30-19.5-36.5-7zM366 792q21 0 36 14t15 37-15 37-36 14-36-14-15-37 15-37 36-14z" glyph-name="Uring" horiz-adv-x="736" unicode="&#x16e;"/><glyph d="M368-8q-62 0-113 18.5t-88 54-57 87-20 116.5v442h74v-445q0-50 14.5-88t41.5-63.5 64.5-38 83.5-12.5 83.5 12.5 64.5 38 41.5 63.5 14.5 88v445h74v-442q0-65-20-116.5t-56.5-87-88-54-113.5-18.5zM199 806q8 43 35.5 66.5t61.5 23.5q22 0 40-8t34.5-17 31-17 28.5-8q23 0 34.5 12.5t16.5 37.5h55l-3-16q-8-42-34.5-66t-62.5-24q-21 0-39.5 8t-35 17-31.5 17-30 8q-22 0-33-13t-16-38h-55z" glyph-name="Utilde" horiz-adv-x="736" unicode="&#x168;"/><glyph d="M368-8q-62 0-113 18.5t-88 54-57 87-20 116.5v442h74v-445q0-50 14.5-88t41.5-63.5 64.5-38 83.5-12.5 83.5 12.5 64.5 38 41.5 63.5 14.5 88v445h74v-442q0-65-20-116.5t-56.5-87-88-54-113.5-18.5zM368-191q-23 0-39.5 15.5t-16.5 40.5q0 23 16.5 39t39.5 16 39.5-16 16.5-39q0-24-16.5-40t-39.5-16z" glyph-name="uni1EE4" horiz-adv-x="736" unicode="&#x1ee4;"/><glyph d="M12 710h76l165-518 189 526 190-526 165 518h76l-236-718-194 538-195-538zM584.964 913h-87.9941l-83.9951-145h59.9961z" glyph-name="Wacute" horiz-adv-x="885" unicode="&#x1e82;"/><glyph d="M12 710h76l165-518 189 526 190-526 165 518h76l-236-718-194 538-195-538zM271 817l171 109 171-109-29-49-142 94-142-94z" glyph-name="Wcircumflex" horiz-adv-x="885" unicode="&#x174;"/><glyph d="M12 710h76l165-518 189 526 190-526 165 518h76l-236-718-194 538-195-538zM554 788q-23 0-39.5 16t-16.5 40q0 23 16.5 39t39.5 16 39-16 16-39q0-25-16-40.5t-39-15.5zM332 788q-23 0-39.5 16t-16.5 40q0 23 16 39t40 16q23 0 39-16t16-39q0-25-16.5-40.5t-38.5-15.5z" glyph-name="Wdieresis" horiz-adv-x="885" unicode="&#x1e84;"/><glyph d="M12 710h76l165-518 189 526 190-526 165 518h76l-236-718-194 538-195-538zM296 913h88l84-145h-60z" glyph-name="Wgrave" horiz-adv-x="885" unicode="&#x1e80;"/><glyph d="M271 301l-260 409h86l211-337 211 337h86l-260-409v-301h-74v301zM138 817l171 109 171-109-29-49-142 94-142-94z" glyph-name="Ycircumflex" horiz-adv-x="616" unicode="&#x176;"/><glyph d="M271 301l-260 409h86l211-337 211 337h86l-260-409v-301h-74v301zM421 788q-23 0-39.5 16t-16.5 40q0 23 16.5 39t39.5 16 39-16 16-39q0-25-16-40.5t-39-15.5zM199 788q-23 0-39.5 16t-16.5 40q0 23 16 39t40 16q23 0 39-16t16-39q0-25-16.5-40.5t-38.5-15.5z" glyph-name="Ydieresis" horiz-adv-x="616" unicode="&#x178;"/><glyph d="M271 301l-260 409h86l211-337 211 337h86l-260-409v-301h-74v301zM162 913h88l84-145h-60z" glyph-name="Ygrave" horiz-adv-x="616" unicode="&#x1ef2;"/><glyph d="M271 301l-260 409h86l211-337 211 337h86l-260-409v-301h-74v301zM165 864h288v-54h-288v54z" glyph-name="uni0232" horiz-adv-x="616" unicode="&#x232;"/><glyph d="M426 638h-372v72h499l-417-638h419v-72h-547zM448.973 913h-87.9951l-83.9941-145h59.9961z" glyph-name="Zacute" horiz-adv-x="584" unicode="&#x179;"/><glyph d="M426 638h-372v72h499l-417-638h419v-72h-547zM476.971 877.946l-170.989-108.993-170.989 108.993 28.998 48.9971 141.991-93.9941 141.991 93.9941z" glyph-name="Zcaron" horiz-adv-x="584" unicode="&#x17d;"/><glyph d="M426 638h-372v72h499l-417-638h419v-72h-547zM306 788q-23 0-39.5 15.5t-16.5 40.5q0 23 16.5 39t39.5 16 39.5-16 16.5-39q0-24-16.5-40t-39.5-16z" glyph-name="Zdotaccent" horiz-adv-x="584" unicode="&#x17b;"/><glyph d="M99 710h426l-148-260q94-11 148.5-68t54.5-154q0-55-19-97.5t-52-71.5-79-44-100-15h-37v72h43q36 0 67 10.5t53.5 30 35.5 48.5 13 67q0 37-13 66.5t-35.5 49.5-53.5 30.5-67 10.5h-43v63l112 194h-230v-642h-76v710z" glyph-name="uni1E9E" horiz-adv-x="626" unicode="&#x1e9e;"/><glyph d="M469 58q-32-32-75.5-49t-93.5-17q-56 0-103 20t-81 55-53 82-19 101 19 101 53 82 81 55 103 20q50 0 93.5-17t75.5-49v58h70v-500h-70v58zM301 58q57 0 100 24t68 62v212q-24 38-67.5 62t-100.5 24q-41 0-74.5-15t-58.5-41-38.5-61-13.5-75 13.5-75 38.5-61 58.5-41 74.5-15zM313 577q-72 0-110.5 38t-42.5 95h56q3-37 27.5-60.5t69.5-23.5 69.5 23.5 28.5 60.5h55q-4-57-42.5-95t-110.5-38z" glyph-name="abreve" horiz-adv-x="618" unicode="&#x103;"/><glyph d="M469 58q-32-32-75.5-49t-93.5-17q-56 0-103 20t-81 55-53 82-19 101 19 101 53 82 81 55 103 20q50 0 93.5-17t75.5-49v58h70v-500h-70v58zM301 58q57 0 100 24t68 62v212q-24 38-67.5 62t-100.5 24q-41 0-74.5-15t-58.5-41-38.5-61-13.5-75 13.5-75 38.5-61 58.5-41 74.5-15zM169 679h288v-54h-288v54z" glyph-name="amacron" horiz-adv-x="618" unicode="&#x101;"/><glyph d="M469 58q-32-32-75.5-49t-93.5-17q-56 0-103 20t-81 55-53 82-19 101 19 101 53 82 81 55 103 20q50 0 93.5-17t75.5-49v58h70v-500h-70v58zM301 58q57 0 100 24t68 62v212q-24 38-67.5 62t-100.5 24q-41 0-74.5-15t-58.5-41-38.5-61-13.5-75 13.5-75 38.5-61 58.5-41 74.5-15zM486-192q-39 0-69 21.5t-30 63.5q0 19 7.5 36t19.5 31 26.5 25 28.5 17l70-2q-38-17-60.5-41.5t-22.5-50.5q0-23 14.5-34.5t38.5-11.5q12 0 21 3l15 5v-49q-12-8-27.5-10.5t-31.5-2.5z" glyph-name="aogonek" horiz-adv-x="618" unicode="&#x105;"/><glyph d="M301-8q-56 0-103 20t-81.5 55-53.5 82-19 101 19 101 53.5 82 81.5 55 103 20q61 0 108.5-22t81.5-56l-45-49q-26 26-62 43.5t-83 17.5q-41 0-74.5-15t-58.5-41-38.5-61-13.5-75 13.5-75 38.5-61 58.5-41 74.5-15q47 0 83 17.5t62 43.5l45-49q-34-34-81.5-56t-108.5-22zM444.973 710h-87.9941l-89.9951-160h58.9971z" glyph-name="cacute" horiz-adv-x="521" unicode="&#x107;"/><glyph d="M301-8q-56 0-103 20t-81.5 55-53.5 82-19 101 19 101 53.5 82 81.5 55 103 20q61 0 108.5-22t81.5-56l-45-49q-26 26-62 43.5t-83 17.5q-41 0-74.5-15t-58.5-41-38.5-61-13.5-75 13.5-75 38.5-61 58.5-41 74.5-15q47 0 83 17.5t62 43.5l45-49q-34-34-81.5-56t-108.5-22zM141.991 671.959l30.998 44.9971 126.992-93.9941 126.992 93.9941 30.998-44.9971-157.99-115.993z" glyph-name="ccaron" horiz-adv-x="521" unicode="&#x10d;"/><glyph d="M301-8q-56 0-103 20t-81.5 55-53.5 82-19 101 19 101 53.5 82 81.5 55 103 20q61 0 108.5-22t81.5-56l-45-49q-26 26-62 43.5t-83 17.5q-41 0-74.5-15t-58.5-41-38.5-61-13.5-75 13.5-75 38.5-61 58.5-41 74.5-15q47 0 83 17.5t62 43.5l45-49q-34-34-81.5-56t-108.5-22zM459 602l-31-45-127 94-127-94-31 45 158 116z" glyph-name="ccircumflex" horiz-adv-x="521" unicode="&#x109;"/><glyph d="M301-8q-56 0-103 20t-81.5 55-53.5 82-19 101 19 101 53.5 82 81.5 55 103 20q61 0 108.5-22t81.5-56l-45-49q-26 26-62 43.5t-83 17.5q-41 0-74.5-15t-58.5-41-38.5-61-13.5-75 13.5-75 38.5-61 58.5-41 74.5-15q47 0 83 17.5t62 43.5l45-49q-34-34-81.5-56t-108.5-22zM301 576q-23 0-39.5 15.5t-16.5 40.5q0 23 16.5 39t39.5 16 39.5-16 16.5-39q0-24-16.5-40t-39.5-16z" glyph-name="cdotaccent" horiz-adv-x="521" unicode="&#x10b;"/><glyph d="M469 0v58q-32-32-75-49t-94-17q-56 0-103 20t-81 55-53 82-19 101 19 101 53 82 81 55 103 20q51 0 94-17t75-49v268h70v-710h-70zM301 442q-41 0-74.5-15t-58.5-41-38.5-61-13.5-75 13.5-75 38.5-61 58.5-41 74.5-15q57 0 100.5 24t67.5 62v212q-24 38-67.5 62t-100.5 24zM631 710h71l-47-166h-50z" glyph-name="dcaron" horiz-adv-x="642" unicode="&#x10f;"/><glyph d="M469 0v58q-32-32-75-49t-94-17q-56 0-103 20t-81 55-53 82-19 101 19 101 53 82 81 55 103 20q51 0 94-17t75-49v268h70v-710h-70zM301 442q-41 0-74.5-15t-58.5-41-38.5-61-13.5-75 13.5-75 38.5-61 58.5-41 74.5-15q57 0 100.5 24t67.5 62v212q-24 38-67.5 62t-100.5 24zM294 636h319v-54h-319v54z" glyph-name="dcroat" horiz-adv-x="618" unicode="&#x111;"/><glyph d="M301-8q-56 0-103 20t-81.5 55-53.5 82-19 101 19 101 53 82 79.5 55 98.5 20q55 0 100-20t76.5-56 48.5-86 17-110h-421q3-40 18.5-72.5t40.5-56 57.5-36.5 69.5-13q50 0 89.5 18.5t65.5 44.5l45-49q-33-34-84.5-57t-115.5-23zM290 443q-28 0-55.5-9t-50.5-27.5-40-45.5-24-63h337q-9 72-55 109t-112 36zM295 577q-72 0-110.5 38t-42.5 95h56q3-37 27.5-60.5t69.5-23.5 69.5 23.5 28.5 60.5h55q-4-57-42.5-95t-110.5-38z" glyph-name="ebreve" horiz-adv-x="573" unicode="&#x115;"/><glyph d="M301-8q-56 0-103 20t-81.5 55-53.5 82-19 101 19 101 53 82 79.5 55 98.5 20q55 0 100-20t76.5-56 48.5-86 17-110h-421q3-40 18.5-72.5t40.5-56 57.5-36.5 69.5-13q50 0 89.5 18.5t65.5 44.5l45-49q-33-34-84.5-57t-115.5-23zM290 443q-28 0-55.5-9t-50.5-27.5-40-45.5-24-63h337q-9 72-55 109t-112 36zM135.992 671.959l30.998 44.9971 126.992-93.9941 126.992 93.9941 30.998-44.9971-157.99-115.993z" glyph-name="ecaron" horiz-adv-x="573" unicode="&#x11b;"/><glyph d="M301-8q-56 0-103 20t-81.5 55-53.5 82-19 101 19 101 53 82 79.5 55 98.5 20q55 0 100-20t76.5-56 48.5-86 17-110h-421q3-40 18.5-72.5t40.5-56 57.5-36.5 69.5-13q50 0 89.5 18.5t65.5 44.5l45-49q-33-34-84.5-57t-115.5-23zM290 443q-28 0-55.5-9t-50.5-27.5-40-45.5-24-63h337q-9 72-55 109t-112 36zM151 679h288v-54h-288v54z" glyph-name="emacron" horiz-adv-x="573" unicode="&#x113;"/><glyph d="M493-179q-13-8-28-10.5t-31-2.5q-43 0-74.5 23.5t-31.5 69.5q0 28 11.5 53t29.5 47q-16-5-32-7t-36-2q-56 0-103 20t-81.5 55-53.5 82-19 101 19 101 53 82 79.5 55 98.5 20q52 0 96-18.5t76.5-53.5 51-85.5 18.5-114.5h-420q2-42 18-75t41.5-56 58-35 67.5-12q50 0 89.5 18.5t65.5 44.5l45-49q-18-16-36.5-34t-33.5-38-24.5-41.5-9.5-42.5q0-30 18-42t42-12q11 0 20.5 3t15.5 5v-49zM290 443q-30 0-58-9.5t-50.5-28.5-39-46-22.5-61h337q-9 72-55 108.5t-112 36.5z" glyph-name="eogonek" horiz-adv-x="572" unicode="&#x119;"/><glyph d="M301-8q-56 0-103 20t-81.5 55-53.5 82-19 101 19 101 53 82 79.5 55 98.5 20q55 0 100-20t76.5-56 48.5-86 17-110h-421q3-40 18.5-72.5t40.5-56 57.5-36.5 69.5-13q50 0 89.5 18.5t65.5 44.5l45-49q-33-34-84.5-57t-115.5-23zM290 443q-28 0-55.5-9t-50.5-27.5-40-45.5-24-63h337q-9 72-55 109t-112 36zM295 576q-23 0-39.5 15.5t-16.5 40.5q0 23 16.5 39t39.5 16 39.5-16 16.5-39q0-24-16.5-40t-39.5-16z" glyph-name="edotaccent" horiz-adv-x="573" unicode="&#x117;"/><glyph d="M292-194q-56 0-113 16.5t-99 46.5l38 59q32-25 78.5-41t97.5-16q37 0 70.5 8t58 25 39 43.5 14.5 63.5q0 17-3.5 37t-10.5 34q-32-32-75-50t-95-18q-55 0-100.5 19t-78 52-50.5 78-18 98q0 52 18 97.5t50.5 78.5 78 52 100.5 19q51 0 93-17t74-49v58h70v-393q20-52 20-103 0-54-22.5-91.5t-58.5-61.5-82-34.5-94-10.5zM294 80q56 0 99 24t66 62v190q-23 38-66 62t-99 24q-39 0-71.5-14t-56-38-36.5-57-13-72 13-72 36.5-57 56-38 71.5-14zM292 577q-72 0-110.5 38t-42.5 95h56q3-37 27.5-60.5t69.5-23.5 69.5 23.5 28.5 60.5h55q-4-57-42.5-95t-110.5-38z" glyph-name="gbreve" horiz-adv-x="611" unicode="&#x11f;"/><glyph d="M292-194q-56 0-113 16.5t-99 46.5l38 59q32-25 78.5-41t97.5-16q37 0 70.5 8t58 25 39 43.5 14.5 63.5q0 17-3.5 37t-10.5 34q-32-32-75-50t-95-18q-55 0-100.5 19t-78 52-50.5 78-18 98q0 52 18 97.5t50.5 78.5 78 52 100.5 19q51 0 93-17t74-49v58h70v-393q20-52 20-103 0-54-22.5-91.5t-58.5-61.5-82-34.5-94-10.5zM294 80q56 0 99 24t66 62v190q-23 38-66 62t-99 24q-39 0-71.5-14t-56-38-36.5-57-13-72 13-72 36.5-57 56-38 71.5-14zM450 602l-31-45-127 94-127-94-31 45 158 116z" glyph-name="gcircumflex" horiz-adv-x="611" unicode="&#x11d;"/><glyph d="M292-194q-56 0-113 16.5t-99 46.5l38 59q32-25 78.5-41t97.5-16q37 0 70.5 8t58 25 39 43.5 14.5 63.5q0 17-3.5 37t-10.5 34q-32-32-75-50t-95-18q-55 0-100.5 19t-78 52-50.5 78-18 98q0 52 18 97.5t50.5 78.5 78 52 100.5 19q51 0 93-17t74-49v58h70v-393q20-52 20-103 0-54-22.5-91.5t-58.5-61.5-82-34.5-94-10.5zM294 80q56 0 99 24t66 62v190q-23 38-66 62t-99 24q-39 0-71.5-14t-56-38-36.5-57-13-72 13-72 36.5-57 56-38 71.5-14zM335.979 544.967h-80.9951l105.993 164.99h53.9971z" glyph-name="uni0123" horiz-adv-x="611" unicode="&#x123;"/><glyph d="M292-194q-56 0-113 16.5t-99 46.5l38 59q32-25 78.5-41t97.5-16q37 0 70.5 8t58 25 39 43.5 14.5 63.5q0 17-3.5 37t-10.5 34q-32-32-75-50t-95-18q-55 0-100.5 19t-78 52-50.5 78-18 98q0 52 18 97.5t50.5 78.5 78 52 100.5 19q51 0 93-17t74-49v58h70v-393q20-52 20-103 0-54-22.5-91.5t-58.5-61.5-82-34.5-94-10.5zM294 80q56 0 99 24t66 62v190q-23 38-66 62t-99 24q-39 0-71.5-14t-56-38-36.5-57-13-72 13-72 36.5-57 56-38 71.5-14zM292 576q-23 0-39.5 15.5t-16.5 40.5q0 23 16.5 39t39.5 16 39.5-16 16.5-39q0-24-16.5-40t-39.5-16z" glyph-name="gdotaccent" horiz-adv-x="611" unicode="&#x121;"/><glyph d="M79 710h70v-279q28 39 70.5 58t92.5 19q44 0 80-14.5t61.5-41 39.5-64 14-83.5v-305h-70v300q0 63-36.5 102.5t-102.5 39.5q-57 0-95.5-30.5t-53.5-82.5v-329h-70v710zM5 636h319v-54h-319v54z" glyph-name="hbar" horiz-adv-x="579" unicode="&#x127;"/><glyph d="M79 710h70v-279q28 39 70.5 58t92.5 19q44 0 80-14.5t61.5-41 39.5-64 14-83.5v-305h-70v300q0 63-36.5 102.5t-102.5 39.5q-57 0-95.5-30.5t-53.5-82.5v-329h-70v710zM143 817l171 109 171-109-29-49-142 94-142-94z" glyph-name="hcircumflex" horiz-adv-x="579" unicode="&#x125;"/><glyph d="M79 500h70v-500h-70v500z" glyph-name="dotlessi" horiz-adv-x="228" unicode="&#x131;"/><glyph d="M79 500h70v-500h-70v500zM114 577q-72 0-110.5 38t-42.5 95h56q3-37 27.5-60.5t69.5-23.5 69.5 23.5 28.5 60.5h55q-4-57-42.5-95t-110.5-38z" glyph-name="ibreve" horiz-adv-x="228" unicode="&#x12d;"/><glyph d="M79 500h70v-500h-70v500zM-30 679h288v-54h-288v54z" glyph-name="imacron" horiz-adv-x="228" unicode="&#x12b;"/><glyph d="M79 500h70v-500h-70v500zM79 619q-20 17-20 43 0 23 16 39.5t39 16.5 39-16.5 16-39.5q0-26-20-43h-70zM96-192q-39 0-69 21.5t-30 63.5q0 19 7.5 36t19.5 31 26.5 25 28.5 17l70-2q-38-17-60.5-41.5t-22.5-50.5q0-23 14.5-34.5t38.5-11.5q12 0 21 3l15 5v-49q-12-8-27.5-10.5t-31.5-2.5z" glyph-name="iogonek" horiz-adv-x="228" unicode="&#x12f;"/><glyph d="M79 500h70v-500h-70v500zM-52 587q8 43 35.5 66.5t61.5 23.5q22 0 40-8t34.5-17 31-17 28.5-8q23 0 34.5 12.5t16.5 37.5h55l-3-16q-8-42-34.5-66t-62.5-24q-21 0-39.5 8t-35 17-31.5 17-30 8q-22 0-33-13t-16-38h-55z" glyph-name="itilde" horiz-adv-x="228" unicode="&#x129;"/><glyph d="M79 500h70v-500h-70v500zM79 619q-20 17-20 43 0 23 16 39.5t39 16.5 39-16.5 16-39.5q0-26-20-43h-70zM114-186q-23 0-39.5 15.5t-16.5 40.5q0 23 16.5 39t39.5 16 39.5-16 16.5-39q0-24-16.5-40t-39.5-16z" glyph-name="uni1ECB" horiz-adv-x="228" unicode="&#x1ecb;"/><glyph d="M-20-120h25q48 0 65 23.5t17 69.5v527h70v-541q0-72-37-107.5t-109-35.5h-31v64z" glyph-name="uni0237" horiz-adv-x="236" unicode="&#x237;"/><glyph d="M-20-120h25q48 0 65 23.5t17 69.5v527h70v-541q0-72-37-107.5t-109-35.5h-31v64zM280 602l-31-45-127 94-127-94-31 45 158 116z" glyph-name="jcircumflex" horiz-adv-x="236" unicode="&#x135;"/><glyph d="M79 710h70v-441l239 231h93l-247-237 274-263h-96l-263 251v-251h-70v710zM239-50h81l-106-165h-54z" glyph-name="uni0137" horiz-adv-x="502" unicode="&#x137;"/><glyph d="M79 710h70v-710h-70v710zM257.984 920h-87.9951l-89.9941-160h58.9961z" glyph-name="lacute" horiz-adv-x="228" unicode="&#x13a;"/><glyph d="M79 710h70v-710h-70v710zM241 710h71l-47-166h-50z" glyph-name="lcaron" horiz-adv-x="252" unicode="&#x13e;"/><glyph d="M79 710h70v-710h-70v710zM74-50h81l-106-165h-54z" glyph-name="uni013C" horiz-adv-x="228" unicode="&#x13c;"/><glyph d="M79 710h70v-710h-70v710zM284 308q-23 0-39.5 15.5t-16.5 40.5q0 23 16.5 39t39.5 16 39.5-16 16.5-39q0-24-16.5-40t-39.5-16z" glyph-name="ldot" horiz-adv-x="345" unicode="&#x140;"/><glyph d="M142 710h70v-710h-70v710zM24 306l276 181 31-47-277-181z" glyph-name="lslash" horiz-adv-x="340" unicode="&#x142;"/><glyph d="M79 500h70v-69q28 39 70.5 58t92.5 19q44 0 80-14.5t61.5-41 39.5-64 14-83.5v-305h-70v300q0 63-36.5 102.5t-102.5 39.5q-57 0-95.5-30.5t-53.5-82.5v-329h-70v500zM451.973 710h-87.9951l-89.9941-160h58.9961z" glyph-name="nacute" horiz-adv-x="579" unicode="&#x144;"/><glyph d="M79 500h70v-69q28 39 70.5 58t92.5 19q44 0 80-14.5t61.5-41 39.5-64 14-83.5v-305h-70v300q0 63-36.5 102.5t-102.5 39.5q-57 0-95.5-30.5t-53.5-82.5v-329h-70v500zM147.991 671.959l30.998 44.9971 126.992-93.9941 126.992 93.9941 30.998-44.9971-157.99-115.993z" glyph-name="ncaron" horiz-adv-x="579" unicode="&#x148;"/><glyph d="M79 500h70v-69q28 39 70.5 58t92.5 19q44 0 80-14.5t61.5-41 39.5-64 14-83.5v-305h-70v300q0 63-36.5 102.5t-102.5 39.5q-57 0-95.5-30.5t-53.5-82.5v-329h-70v500zM255-50h81l-106-165h-54z" glyph-name="uni0146" horiz-adv-x="579" unicode="&#x146;"/><glyph d="M948 72q-33-34-84.5-57t-115.5-23q-68 0-126 31.5t-96 94.5q-37-63-95.5-94.5t-127.5-31.5q-57 0-104.5 20t-82 55-53.5 82-19 101 19 101 53.5 82 82 55 104.5 20q69 0 127.5-31.5t95.5-94.5q36 63 93 94.5t122 31.5q50 0 94-18t76.5-52.5 52-85 19.5-116.5h-422q3-40 19-73t41-56 58-36 69-13q50 0 89.5 18.5t65.5 44.5zM737 443q-29 0-56.5-9t-51-27.5-40.5-45.5-24-63h339q-9 72-55 109t-112 36zM303 58q42 0 76.5 15t59 41 38.5 61 14 75-14 75-38.5 61-59 41-76.5 15q-41 0-75.5-15t-59.5-41-38.5-61-13.5-75 13.5-75 38.5-61 59.5-41 75.5-15z" glyph-name="oe" horiz-adv-x="1020" unicode="&#x153;"/><glyph d="M303-8q-57 0-104.5 20t-82 55-53.5 82-19 101 19 101 53.5 82 82 55 104.5 20 104.5-20 82-55 53.5-82 19-101-19-101-53.5-82-82-55-104.5-20zM303 58q42 0 76 15t59 41 38.5 61 13.5 75-13.5 75-38.5 61-59 41-76 15q-41 0-75.5-15t-59.5-41-38.5-61-13.5-75 13.5-75 38.5-61 59.5-41 75.5-15zM303 577q-72 0-110.5 38t-42.5 95h56q3-37 27.5-60.5t69.5-23.5 69.5 23.5 28.5 60.5h55q-4-57-42.5-95t-110.5-38z" glyph-name="obreve" horiz-adv-x="606" unicode="&#x14f;"/><glyph d="M303-8q-57 0-104.5 20t-82 55-53.5 82-19 101 19 101 53.5 82 82 55 104.5 20 104.5-20 82-55 53.5-82 19-101-19-101-53.5-82-82-55-104.5-20zM303 58q42 0 76 15t59 41 38.5 61 13.5 75-13.5 75-38.5 61-59 41-76 15q-41 0-75.5-15t-59.5-41-38.5-61-13.5-75 13.5-75 38.5-61 59.5-41 75.5-15zM287 710h82l-120-161h-53zM453 710h82l-119-161h-53z" glyph-name="ohungarumlaut" horiz-adv-x="606" unicode="&#x151;"/><glyph d="M303-8q-57 0-104.5 20t-82 55-53.5 82-19 101 19 101 53.5 82 82 55 104.5 20 104.5-20 82-55 53.5-82 19-101-19-101-53.5-82-82-55-104.5-20zM303 58q42 0 76 15t59 41 38.5 61 13.5 75-13.5 75-38.5 61-59 41-76 15q-41 0-75.5-15t-59.5-41-38.5-61-13.5-75 13.5-75 38.5-61 59.5-41 75.5-15zM159 679h288v-54h-288v54z" glyph-name="omacron" horiz-adv-x="606" unicode="&#x14d;"/><glyph d="M303-8q-57 0-104.5 20t-82 55-53.5 82-19 101 19 101 53.5 82 82 55 104.5 20 104.5-20 82-55 53.5-82 19-101-19-101-53.5-82-82-55-104.5-20zM303 58q42 0 76 15t59 41 38.5 61 13.5 75-13.5 75-38.5 61-59 41-76 15q-41 0-75.5-15t-59.5-41-38.5-61-13.5-75 13.5-75 38.5-61 59.5-41 75.5-15zM303-186q-23 0-39.5 15.5t-16.5 40.5q0 23 16.5 39t39.5 16 39.5-16 16.5-39q0-24-16.5-40t-39.5-16z" glyph-name="uni1ECD" horiz-adv-x="606" unicode="&#x1ecd;"/><glyph d="M79 500h70v-68q24 35 61 54.5t85 19.5q17 0 34-3v-73q-10 3-21 4t-23 1q-48 0-84-24t-52-68v-343h-70v500zM352.979 710h-87.9951l-89.9941-160h58.9961z" glyph-name="racute" horiz-adv-x="345" unicode="&#x155;"/><glyph d="M79 500h70v-68q24 35 61 54.5t85 19.5q17 0 34-3v-73q-10 3-21 4t-23 1q-48 0-84-24t-52-68v-343h-70v500zM49.9971 671.959l30.998 44.9971 126.992-93.9941 126.992 93.9941 30.998-44.9971-157.99-115.993z" glyph-name="rcaron" horiz-adv-x="345" unicode="&#x159;"/><glyph d="M79 500h70v-68q24 35 61 54.5t85 19.5q17 0 34-3v-73q-10 3-21 4t-23 1q-48 0-84-24t-52-68v-343h-70v500zM73-50h81l-106-165h-54z" glyph-name="uni0157" horiz-adv-x="345" unicode="&#x157;"/><glyph d="M206-8q-60 0-104 27.5t-70 75.5l56 37q20-37 48-57t72-20q43 0 71.5 20t28.5 54q0 35-23 54.5t-70 36.5l-42 16q-65 24-90.5 61t-25.5 82q0 28 11 51.5t31 40.5 48 27 61 10q48 0 85.5-21.5t59.5-63.5l-56-32q-12 25-33.5 39.5t-55.5 14.5q-35 0-58.5-17.5t-23.5-47.5q0-28 17.5-48t63.5-37l44-16q63-23 95-58t32-90q0-29-12-54.5t-34-44-54-29.5-72-11zM355.979 710h-87.9951l-89.9941-160h58.9961z" glyph-name="sacute" horiz-adv-x="415" unicode="&#x15b;"/><glyph d="M206-8q-60 0-104 27.5t-70 75.5l56 37q20-37 48-57t72-20q43 0 71.5 20t28.5 54q0 35-23 54.5t-70 36.5l-42 16q-65 24-90.5 61t-25.5 82q0 28 11 51.5t31 40.5 48 27 61 10q48 0 85.5-21.5t59.5-63.5l-56-32q-12 25-33.5 39.5t-55.5 14.5q-35 0-58.5-17.5t-23.5-47.5q0-28 17.5-48t63.5-37l44-16q63-23 95-58t32-90q0-29-12-54.5t-34-44-54-29.5-72-11zM52.9971 671.959l30.998 44.9971 126.992-93.9941 126.992 93.9941 30.998-44.9971-157.99-115.993z" glyph-name="scaron" horiz-adv-x="415" unicode="&#x161;"/><glyph d="M206-8q-60 0-104 27.5t-70 75.5l56 37q20-37 48-57t72-20q43 0 71.5 20t28.5 54q0 35-23 54.5t-70 36.5l-42 16q-65 24-90.5 61t-25.5 82q0 28 11 51.5t31 40.5 48 27 61 10q48 0 85.5-21.5t59.5-63.5l-56-32q-12 25-33.5 39.5t-55.5 14.5q-35 0-58.5-17.5t-23.5-47.5q0-28 17.5-48t63.5-37l44-16q63-23 95-58t32-90q0-29-12-54.5t-34-44-54-29.5-72-11zM197 0h50l-67-165h-80z" glyph-name="scedilla" horiz-adv-x="415" unicode="&#x15f;"/><glyph d="M206-8q-60 0-104 27.5t-70 75.5l56 37q20-37 48-57t72-20q43 0 71.5 20t28.5 54q0 35-23 54.5t-70 36.5l-42 16q-65 24-90.5 61t-25.5 82q0 28 11 51.5t31 40.5 48 27 61 10q48 0 85.5-21.5t59.5-63.5l-56-32q-12 25-33.5 39.5t-55.5 14.5q-35 0-58.5-17.5t-23.5-47.5q0-28 17.5-48t63.5-37l44-16q63-23 95-58t32-90q0-29-12-54.5t-34-44-54-29.5-72-11zM370 602l-31-45-127 94-127-94-31 45 158 116z" glyph-name="scircumflex" horiz-adv-x="415" unicode="&#x15d;"/><glyph d="M206-8q-60 0-104 27.5t-70 75.5l56 37q20-37 48-57t72-20q43 0 71.5 20t28.5 54q0 35-23 54.5t-70 36.5l-42 16q-65 24-90.5 61t-25.5 82q0 28 11 51.5t31 40.5 48 27 61 10q48 0 85.5-21.5t59.5-63.5l-56-32q-12 25-33.5 39.5t-55.5 14.5q-35 0-58.5-17.5t-23.5-47.5q0-28 17.5-48t63.5-37l44-16q63-23 95-58t32-90q0-29-12-54.5t-34-44-54-29.5-72-11zM170-50h81l-106-165h-54z" glyph-name="uni0219" horiz-adv-x="415" unicode="&#x219;"/><glyph d="M257 0q-72 0-109 35.5t-37 107.5v293h-87l-16 64h103v115l70 35v-150h150l-16-64h-134v-279q0-47 17.5-70t66.5-23h57v-64h-65zM278 710h71l-47-166h-50z" glyph-name="tcaron" horiz-adv-x="350" unicode="&#x165;"/><glyph d="M257 0q-72 0-109 35.5t-37 107.5v293h-87l-16 64h103v115l70 35v-150h150l-16-64h-134v-279q0-47 17.5-70t66.5-23h57v-64h-65zM174-50h81l-106-165h-54z" glyph-name="uni0163" horiz-adv-x="350" unicode="&#x163;"/><glyph d="M257 0q-72 0-109 35.5t-37 107.5v293h-87l-16 64h103v115l70 35v-150h150l-16-64h-134v-279q0-47 17.5-70t66.5-23h57v-64h-65zM174-50h81l-106-165h-54z" glyph-name="uni021B" horiz-adv-x="350" unicode="&#x21b;"/><glyph d="M429 68q-29-39-71-57.5t-91-18.5q-45 0-81 14.5t-61.5 41-39 64-13.5 83.5v305h70v-300q0-63 36.5-102.5t101.5-39.5q57 0 94.5 29.5t54.5 80.5v332h70v-500h-70v68zM285 577q-72 0-110.5 38t-42.5 95h56q3-37 27.5-60.5t69.5-23.5 69.5 23.5 28.5 60.5h55q-4-57-42.5-95t-110.5-38z" glyph-name="ubreve" horiz-adv-x="578" unicode="&#x16d;"/><glyph d="M429 68q-29-39-71-57.5t-91-18.5q-45 0-81 14.5t-61.5 41-39 64-13.5 83.5v305h70v-300q0-63 36.5-102.5t101.5-39.5q57 0 94.5 29.5t54.5 80.5v332h70v-500h-70v68zM269 710h82l-120-161h-53zM435 710h82l-119-161h-53z" glyph-name="uhungarumlaut" horiz-adv-x="578" unicode="&#x171;"/><glyph d="M429 68q-29-39-71-57.5t-91-18.5q-45 0-81 14.5t-61.5 41-39 64-13.5 83.5v305h70v-300q0-63 36.5-102.5t101.5-39.5q57 0 94.5 29.5t54.5 80.5v332h70v-500h-70v68zM141 679h288v-54h-288v54z" glyph-name="umacron" horiz-adv-x="578" unicode="&#x16b;"/><glyph d="M429 68q-29-39-71-57.5t-91-18.5q-45 0-81 14.5t-61.5 41-39 64-13.5 83.5v305h70v-300q0-63 36.5-102.5t101.5-39.5q57 0 94.5 29.5t54.5 80.5v332h70v-500h-70v68zM446-192q-39 0-69 21.5t-30 63.5q0 19 7.5 36t19.5 31 26.5 25 28.5 17l70-2q-38-17-60.5-41.5t-22.5-50.5q0-23 14.5-34.5t38.5-11.5q12 0 21 3l15 5v-49q-12-8-27.5-10.5t-31.5-2.5z" glyph-name="uogonek" horiz-adv-x="578" unicode="&#x173;"/><glyph d="M429 68q-29-39-71-57.5t-91-18.5q-45 0-81 14.5t-61.5 41-39 64-13.5 83.5v305h70v-300q0-63 36.5-102.5t101.5-39.5q57 0 94.5 29.5t54.5 80.5v332h70v-500h-70v68zM285 572q-20 0-37 7t-29.5 19.5-20 29-7.5 35.5q0 39 27.5 65t66.5 26 66.5-26 27.5-65q0-19-7.5-35.5t-20-29-30-19.5-36.5-7zM285 612q21 0 36 14t15 37-15 37-36 14-36-14-15-37 15-37 36-14z" glyph-name="uring" horiz-adv-x="578" unicode="&#x16f;"/><glyph d="M429 68q-29-39-71-57.5t-91-18.5q-45 0-81 14.5t-61.5 41-39 64-13.5 83.5v305h70v-300q0-63 36.5-102.5t101.5-39.5q57 0 94.5 29.5t54.5 80.5v332h70v-500h-70v68zM119 587q8 43 35.5 66.5t61.5 23.5q22 0 40-8t34.5-17 31-17 28.5-8q23 0 34.5 12.5t16.5 37.5h55l-3-16q-8-42-34.5-66t-62.5-24q-21 0-39.5 8t-35 17-31.5 17-30 8q-22 0-33-13t-16-38h-55z" glyph-name="utilde" horiz-adv-x="578" unicode="&#x169;"/><glyph d="M429 68q-29-39-71-57.5t-91-18.5q-45 0-81 14.5t-61.5 41-39 64-13.5 83.5v305h70v-300q0-63 36.5-102.5t101.5-39.5q57 0 94.5 29.5t54.5 80.5v332h70v-500h-70v68zM279-186q-23 0-39.5 15.5t-16.5 40.5q0 23 16.5 39t39.5 16 39.5-16 16.5-39q0-24-16.5-40t-39.5-16z" glyph-name="uni1EE5" horiz-adv-x="578" unicode="&#x1ee5;"/><glyph d="M12 500h73l124-386 146 394 146-394 123 386h73l-163-501h-53l-126 341-125-341h-54zM498.97 710h-87.9951l-89.9941-160h58.9961z" glyph-name="wacute" horiz-adv-x="709" unicode="&#x1e83;"/><glyph d="M12 500h73l124-386 146 394 146-394 123 386h73l-163-501h-53l-126 341-125-341h-54zM513 602l-31-45-127 94-127-94-31 45 158 116z" glyph-name="wcircumflex" horiz-adv-x="709" unicode="&#x175;"/><glyph d="M12 500h73l124-386 146 394 146-394 123 386h73l-163-501h-53l-126 341-125-341h-54zM467 576q-23 0-39.5 16t-16.5 40q0 23 16.5 39t39.5 16 39-16 16-39q0-25-16-40.5t-39-15.5zM245 576q-23 0-39.5 16t-16.5 40q0 23 16 39t40 16q23 0 39-16t16-39q0-25-16.5-40.5t-38.5-15.5z" glyph-name="wdieresis" horiz-adv-x="709" unicode="&#x1e85;"/><glyph d="M12 500h73l124-386 146 394 146-394 123 386h73l-163-501h-53l-126 341-125-341h-54zM216 710h88l90-160h-59z" glyph-name="wgrave" horiz-adv-x="709" unicode="&#x1e81;"/><glyph d="M218 34l-212 466h76l172-389 174 389h76l-313-684h-75zM414 602l-31-45-127 94-127-94-31 45 158 116z" glyph-name="ycircumflex" horiz-adv-x="507" unicode="&#x177;"/><glyph d="M218 34l-212 466h76l172-389 174 389h76l-313-684h-75zM118 710h88l90-160h-59z" glyph-name="ygrave" horiz-adv-x="507" unicode="&#x1ef3;"/><glyph d="M218 34l-212 466h76l172-389 174 389h76l-313-684h-75zM112 679h288v-54h-288v54z" glyph-name="uni0233" horiz-adv-x="507" unicode="&#x233;"/><glyph d="M331 436h-282v64h407l-314-436h304v-64h-430zM396.976 710h-87.9941l-89.9951-160h58.9971z" glyph-name="zacute" horiz-adv-x="484" unicode="&#x17a;"/><glyph d="M331 436h-282v64h407l-314-436h304v-64h-430zM93.9941 671.959l30.998 44.9971 126.992-93.9941 126.992 93.9941 30.998-44.9971-157.99-115.993z" glyph-name="zcaron" horiz-adv-x="484" unicode="&#x17e;"/><glyph d="M331 436h-282v64h407l-314-436h304v-64h-430zM253 576q-23 0-39.5 15.5t-16.5 40.5q0 23 16.5 39t39.5 16 39.5-16 16.5-39q0-24-16.5-40t-39.5-16z" glyph-name="zdotaccent" horiz-adv-x="484" unicode="&#x17c;"/><glyph d="M122-8q-28 0-47 19.5t-19 46.5q0 28 19.5 47.5t46.5 19.5q26 0 45.5-19.5t19.5-47.5q0-27-19-46.5t-46-19.5zM362-8q-28 0-47 19.5t-19 46.5q0 28 19.5 47.5t46.5 19.5q26 0 45.5-19.5t19.5-47.5q0-27-19-46.5t-46-19.5zM602-8q-28 0-47 19.5t-19 46.5q0 28 19.5 47.5t46.5 19.5q26 0 45.5-19.5t19.5-47.5q0-27-19-46.5t-46-19.5z" glyph-name="ellipsis" horiz-adv-x="722" unicode="&#x2026;"/><glyph d="M71 306h428v-66h-428v66z" glyph-name="endash" horiz-adv-x="570" unicode="&#x2013;"/><glyph d="M71 306h727v-66h-727v66z" glyph-name="emdash" horiz-adv-x="869" unicode="&#x2014;"/><glyph d="M46 250l151 219 51-35-127-184 127-184-51-35z" glyph-name="guilsinglleft" horiz-adv-x="302" unicode="&#x2039;"/><glyph d="M54 66l127 184-127 184 51 35 150-219-150-219z" glyph-name="guilsinglright" horiz-adv-x="301" unicode="&#x203a;"/><glyph d="M123 569h46v-112h-108v113l56 139h50z" glyph-name="quoteleft" horiz-adv-x="234" unicode="&#x2018;"/><glyph d="M113 592h-46v112h108v-113l-56-139h-50z" glyph-name="quoteright" horiz-adv-x="227" unicode="&#x2019;"/><glyph d="M123 569h46v-112h-108v113l56 139h50zM316 569h46v-112h-108v113l56 139h50z" glyph-name="quotedblleft" horiz-adv-x="427" unicode="&#x201c;"/><glyph d="M113 592h-46v112h108v-113l-56-139h-50zM306 592h-46v112h108v-113l-56-139h-50z" glyph-name="quotedblright" horiz-adv-x="420" unicode="&#x201d;"/><glyph d="M118 0h-46v112h108v-113l-56-139h-50z" glyph-name="quotesinglbase" horiz-adv-x="252" unicode="&#x201a;"/><glyph d="M118 0h-46v112h108v-113l-56-139h-50zM311 0h-46v112h108v-113l-56-139h-50z" glyph-name="quotedblbase" horiz-adv-x="445" unicode="&#x201e;"/><glyph d="M213 166q-28 0-53 10.5t-43.5 29-29 43.5-10.5 53 10.5 53 29 43.5 43.5 29 53 10.5 53-10.5 43.5-29 29-43.5 10.5-53-10.5-53-29-43.5-43.5-29-53-10.5z" glyph-name="bullet" horiz-adv-x="426" unicode="&#x2022;"/><glyph d="M75 303h439v-58h-439v58z" glyph-name="minus" horiz-adv-x="590" unicode="&#x2212;"/><glyph d="M56 299h103q-2 14-3 28t-1 28q0 11 .5 21t1.5 20h-122l21 61h112q16 58 48.5 106t77.5 82.5 101 53.5 119 19 112.5-15.5 93.5-44.5l-27-62q-35 26-79 41.5t-100 15.5q-53 0-97-15.5t-78.5-42-59-62-38.5-76.5h411l-21-61h-403q-3-21-3-41 0-14 1.5-28t3.5-28h368l-20-61h-332q16-40 41.5-73.5t60-57.5 76.5-37 90-13q51 0 97 14t82 40v-70q-28-19-75-34t-104-15q-60 0-114.5 18t-99 50.5-77 77.5-50.5 100h-138z" glyph-name="Euro" horiz-adv-x="757" unicode="&#x20ac;"/><glyph d="M117 436h-97v64h95q-20 16-31 39.5t-11 50.5q0 52 39 86t106 34h107v-64h-99q-37 0-61-18t-24-53 24-54 56-21h105v-64h-139v-436h-70v436zM418 500h70v-500h-70v500zM418 619q-20 17-20 43 0 23 16 39.5t39 16.5 39-16.5 16-39.5q0-26-20-43h-70z" glyph-name="uniFB01" horiz-adv-x="567" unicode="&#xfb01;"/><glyph d="M117 436h-97v64h95q-20 16-31 39.5t-11 50.5q0 52 39 86t106 34h107v-64h-99q-37 0-61-18t-24-53 24-54 56-21h105v-64h-139v-436h-70v436zM418 710h70v-710h-70v710z" glyph-name="uniFB02" horiz-adv-x="567" unicode="&#xfb02;"/><glyph d="M71 619q-20 17-20 43 0 23 16 39.5t39 16.5 39-16.5 16-39.5q0-26-20-43h-70z" glyph-name="glyph329" horiz-adv-x="212"/><glyph d="M0 577q-72 0-110.5 38t-42.5 95h56q3-37 27.5-60.5t69.5-23.5 69.5 23.5 28.5 60.5h55q-4-57-42.5-95t-110.5-38z" glyph-name="breve" unicode="&#x2d8;"/><glyph d="M-157.99 671.959l30.998 44.9971 126.992-93.9941 126.992 93.9941 30.998-44.9971-157.99-115.993z" glyph-name="caron" unicode="&#x2c7;"/><glyph d="M158 602l-31-45-127 94-127-94-31 45 158 116z" glyph-name="circumflex" unicode="&#x2c6;"/><glyph d="M0 576q-23 0-39.5 15.5t-16.5 40.5q0 23 16.5 39t39.5 16 39.5-16 16.5-39q0-24-16.5-40t-39.5-16z" glyph-name="dotaccent" unicode="&#x2d9;"/><glyph d="M-78 710h82l-120-161h-53zM88 710h82l-119-161h-53z" glyph-name="hungarumlaut" unicode="&#x2dd;"/><glyph d="M-12-50h81l-106-165h-54z" glyph-name="glyph335"/><glyph d="M20-192q-39 0-69 21.5t-30 63.5q0 19 7.5 36t19.5 31 26.5 25 28.5 17l70-2q-38-17-60.5-41.5t-22.5-50.5q0-23 14.5-34.5t38.5-11.5q12 0 21 3l15 5v-49q-12-8-27.5-10.5t-31.5-2.5z" glyph-name="ogonek" unicode="&#x2db;"/><glyph d="M0 572q-20 0-37 7t-29.5 19.5-20 29-7.5 35.5q0 39 27.5 65t66.5 26 66.5-26 27.5-65q0-19-7.5-35.5t-20-29-30-19.5-36.5-7zM0 612q21 0 36 14t15 37-15 37-36 14-36-14-15-37 15-37 36-14z" glyph-name="ring" unicode="&#x2da;"/><glyph d="M-166 587q8 43 35.5 66.5t61.5 23.5q22 0 40-8t34.5-17 31-17 28.5-8q23 0 34.5 12.5t16.5 37.5h55l-3-16q-8-42-34.5-66t-62.5-24q-21 0-39.5 8t-35 17-31.5 17-30 8q-22 0-33-13t-16-38h-55z" glyph-name="tilde" unicode="&#x2dc;"/><glyph d="M-22 710h71l-47-166h-50z" glyph-name="glyph339"/><glyph d="M-106 576q-23 0-39.5 16t-16.5 40q0 23 16.5 39t39.5 16 39.5-16 16.5-39q0-24-16.5-40t-39.5-16zM106 576q-23 0-39.5 16t-16.5 40q0 23 16.5 39t39.5 16 39.5-16 16.5-39q0-24-16.5-40t-39.5-16z" glyph-name="glyph340"/><glyph d="M-159 636h319v-54h-319v54z" glyph-name="glyph341"/><glyph d="M-153 303l276 181 31-47-277-181z" glyph-name="glyph342"/><glyph d="M-1 774q-34 0-61.5 10.5t-47 28.5-30.5 42-12 52h53q4-37 29-60.5t70-23.5 70.5 23.5 29.5 60.5h53q-2-28-13-52t-31-42-47.5-28.5-62.5-10.5z" glyph-name="glyph343"/><glyph d="M-171 817l171 109 171-109-29-49-142 94-142-94z" glyph-name="glyph344"/><glyph d="M-100 913h88l84-145h-60z" glyph-name="glyph345"/><glyph d="M-99 913h84l-112-145h-57zM101 913h84l-112-145h-57z" glyph-name="glyph346"/><glyph d="M-144 864h288v-54h-288v54z" glyph-name="glyph347"/><glyph d="M22-192q-20 0-38 5.5t-32.5 16-23 26.5-8.5 37q0 19 7.5 36t19 31 26 25 28.5 17l74-2q-39-17-61-41.5t-22-50.5q0-23 14.5-34.5t38.5-11.5q11 0 20.5 3t15.5 5v-49q-13-8-28-10.5t-31-2.5z" glyph-name="glyph348"/><glyph d="M-166 389h333v-61h-333v61z" glyph-name="glyph349"/><glyph d="M-200 262l366 242 35-52-367-242z" glyph-name="glyph350"/><glyph d="M-346 586h692v-61h-692v61z" glyph-name="glyph351"/></font>
</defs>
</svg>
