<svg xmlns="http://www.w3.org/2000/svg"><defs><font horiz-adv-x="0"><font-face ascent="800" bbox="-267 -215 1141 999" cap-height="710" descent="-200" panose-1="2 11 8 4 0 0 0 0 0 0" slope="-12" underline-position="-140" underline-thickness="100" unicode-range="U+000D-FB02" x-height="500"/><missing-glyph d="M4 19l147 691h496l-4-19-147-691h-496zM325 370l281 321h-429zM25 29l288 328-149 325zM483 28l139 653-289-329zM40 19h429l-147 320z" horiz-adv-x="496"/><glyph d="M4 19l147 691h496l-4-19-147-691h-496zM325 370l281 321h-429zM25 29l288 328-149 325zM483 28l139 653-289-329zM40 19h429l-147 320z" glyph-name=".notdef" horiz-adv-x="496"/><glyph glyph-name="glyph1"/><glyph glyph-name="uni000D" horiz-adv-x="222" unicode="&#xd;"/><glyph glyph-name="space" horiz-adv-x="222" unicode="&#x20;"/><glyph d="M113 439l58 271h152l-58-271-69-184h-92zM107-8q-20 0-38 7t-32 19.5-22.5 29-8.5 35.5q0 30 15.5 57t41.5 44h136q11-11 19-31.5t8-42.5q-1-56-34-87t-85-31z" glyph-name="exclam" horiz-adv-x="300" unicode="&#x21;"/><glyph d="M120 710h127v-298h-127v298zM322 710h127v-298h-127v298z" glyph-name="quotedbl" horiz-adv-x="448" unicode="&#x22;"/><glyph d="M67 0l56 181h-83v114h119l37 120h-83v114h119l56 181h128l-56-181h131l56 181h128l-56-181h82v-114h-118l-37-120h83v-114h-119l-56-181h-128l56 181h-131l-56-181h-128zM418 295l37 120h-131l-37-120h131z" glyph-name="numbersign" horiz-adv-x="698" unicode="&#x23;"/><glyph d="M191-1q-39 8-69 25.5t-52 40.5-36.5 49.5-21.5 52.5l142 63q18-56 43-77t67-21q35 0 54 17t19 42q0 11-2.5 21t-9.5 20.5-20 23-34 29.5l-35 28q-29 23-51 46t-38 47-24 51.5-8 59.5q0 46 16 83t45 63 70.5 40 91.5 14h4l18 81h83l-21-94q27-9 47.5-23t36.5-30.5 26.5-33.5 18.5-33l-141-63q-17 33-36.5 45.5t-43.5 12.5q-23 0-41.5-12t-18.5-42q0-24 15.5-47t59.5-58l34-27q23-18 44-38t36.5-43 25-50 9.5-60q0-40-12.5-76.5t-39-65-68.5-46-101-20.5l-18-82h-83z" glyph-name="dollar" horiz-adv-x="542" unicode="&#x24;"/><glyph d="M411 593q0-28-10.5-54.5t-30.5-47.5-48.5-33.5-63.5-12.5q-30 0-53.5 10.5t-39 27.5-24 40-8.5 47q0 28 10.5 54.5t30.5 47.5 48 33.5 64 12.5q30 0 53.5-10.5t39-27.5 24-40 8.5-47zM229 578q0-16 9.5-28t28.5-12q23 0 35.5 13.5t12.5 33.5q0 16-9 28t-29 12q-23 0-35.5-14t-12.5-33zM81 412h309l-24-114h-309zM315 140q0-28-10.5-54.5t-30.5-47.5-48.5-33.5-63.5-12.5q-30 0-53.5 10.5t-39 27.5-24 40-8.5 47q0 28 10.5 54.5t30.5 47.5 48 33.5 64 12.5q30 0 53.5-10.5t39-27.5 24-40 8.5-47zM133 125q0-16 9.5-28t28.5-12q23 0 35.5 13.5t12.5 33.5q0 16-9 28t-29 12q-23 0-35.5-14t-12.5-33z" glyph-name="percent" horiz-adv-x="403" unicode="&#x25;"/><glyph d="M403 48q-38-31-77.5-43.5t-84.5-12.5q-51 0-90.5 18t-66 47.5-40.5 68-14 79.5q0 40 11.5 80t36 74 63 58.5 92.5 33.5q27 4 57 6l-70 253h405l-28-132h-187l160-578h-154zM178 218q0-33 19.5-59t58.5-26q46 0 72 29t26 68q0 33-19.5 59t-58.5 26q-46 0-72-29t-26-68z" glyph-name="ampersand" horiz-adv-x="613" unicode="&#x26;"/><glyph d="M120 710h127v-298h-127v298z" glyph-name="quotesingle" horiz-adv-x="246" unicode="&#x27;"/><glyph d="M70-164q-9 28-16 66t-11.5 79-6.5 81-2 72q0 169 59.5 323.5t174.5 306.5l119-59q-50-69-91-135.5t-69.5-133.5-44-136.5-15.5-145.5q0-29 1.5-64t5-71 8-71 10.5-63z" glyph-name="parenleft" horiz-adv-x="307" unicode="&#x28;"/><glyph d="M259 764q9-28 15.5-66t11-79 7-81 2.5-72q0-169-59.5-323.5t-174.5-306.5l-119 59q50 69 91 135.5t69.5 133.5 44 136.5 15.5 145.5q0 29-1.5 64t-5 71-8 71-10.5 63z" glyph-name="parenright" horiz-adv-x="307" unicode="&#x29;"/><glyph d="M139 343l88 120-142 46 32 98 142-46v149h103v-149l141 47 32-98-141-47 88-120-83-60-88 119-89-119z" glyph-name="asterisk" horiz-adv-x="515" unicode="&#x2a;"/><glyph d="M83 339h161v161h114v-161h161v-114h-161v-161h-114v161h-161v114z" glyph-name="plus" horiz-adv-x="590" unicode="&#x2b;"/><glyph d="M77 0h-67l37 174h174l-37-174-97-154h-87z" glyph-name="comma" horiz-adv-x="286" unicode="&#x2c;"/><glyph d="M78 354h284l-31-144h-284z" glyph-name="hyphen" horiz-adv-x="396" unicode="&#x2d;"/><glyph d="M122-8q-23 0-42.5 8.5t-34 23-23 34-8.5 42.5q0 22 8.5 42t23 34.5 34 23 42.5 8.5q22 0 42-8.5t34.5-23 23-34.5 8.5-42q0-23-8.5-42.5t-23-34-34.5-23-42-8.5z" glyph-name="period" horiz-adv-x="289" unicode="&#x2e;"/><glyph d="M310 710h136l-331-710h-136z" glyph-name="slash" horiz-adv-x="379" unicode="&#x2f;"/><glyph d="M803 385q0-75-26-146t-77.5-125.5-127.5-88-175-33.5q-76 0-137.5 27.5t-105 74-67 106.5-23.5 125q0 75 26.5 146t77.5 125.5 127 88 175 33.5q76 0 137.5-27.5t105-74 67-106.5 23.5-125zM216 338q0-40 12-77t36-65.5 60-45.5 85-17q57 0 102.5 19t76.5 52 47.5 76.5 16.5 91.5q0 40-12 77t-36 65.5-60.5 45.5-84.5 17q-58 0-103.5-19t-76.5-52-47-76.5-16-91.5z" glyph-name="zero" horiz-adv-x="822" unicode="&#x30;"/><glyph d="M135 566l185 152-153-718h-152z" glyph-name="one" horiz-adv-x="296" unicode="&#x31;"/><glyph d="M251 271l-4 1q-71 21-106.5 74.5t-35.5 120.5q0 48 18 93t52 80 82.5 56.5 108.5 21.5q51 0 90.5-18t66-47.5 40.5-68 14-80.5q0-37-10.5-68t-28-58-39.5-51-45-46l-142-140h216l-30-141h-523zM253 480q0-34 19.5-59.5t60.5-25.5q45 0 70.5 29t25.5 68q0 33-19.5 59t-58.5 26q-46 0-72-29t-26-68z" glyph-name="two" horiz-adv-x="593" unicode="&#x32;"/><glyph d="M482 251q0-49-15.5-95.5t-48.5-83-84-58.5-121-22q-78 0-129 36t-74 93l128 74q9-27 31.5-44.5t57.5-17.5q51 0 80.5 31t29.5 74q0 18-6 34.5t-19.5 29.5-35 20.5-52.5 7.5h-76l164 239h-207l30 141h429l-187-273q28-14 48-34.5t32.5-45.5 18.5-52 6-54z" glyph-name="three" horiz-adv-x="528" unicode="&#x33;"/><glyph d="M337 160h-356l627 558-91-426h66l-28-132h-66l-34-160h-152zM365 292l17 80-90-80h73z" glyph-name="four" horiz-adv-x="613" unicode="&#x34;"/><glyph d="M494 251q0-49-15.5-95.5t-48.5-83-84-58.5-121-22q-74 0-126 32.5t-82 84.5l120 87q12-27 39.5-45t62.5-18q51 0 80.5 31t29.5 74q0 36-22.5 64t-64.5 28q-32 0-55-12.5t-37-33.5l-99 43 93 383h376l-30-141h-232l-24-99q8 1 13 1h9q52 0 93-18.5t68.5-49 42-70 14.5-82.5z" glyph-name="five" horiz-adv-x="537" unicode="&#x35;"/><glyph d="M522 251q0-49-15.5-95.5t-48.5-83-84-58.5-121-22q-53 0-93.5 18t-68 48.5-42 70.5-14.5 83q0 40 11.5 83.5t49.5 92.5l249 322h176l-186-241 27-5q40-10 70-31.5t50-50 30-62.5 10-69zM180 224q0-36 22.5-63.5t64.5-27.5q51 0 80.5 31t29.5 74q0 36-22.5 64t-64.5 28q-52 0-81-31.5t-29-74.5z" glyph-name="six" horiz-adv-x="559" unicode="&#x36;"/><glyph d="M366 569h-258l30 141h492l-473-710h-170z" glyph-name="seven" horiz-adv-x="535" unicode="&#x37;"/><glyph d="M523 540q0-38-12.5-74t-44.5-68q29-30 42.5-65.5t13.5-70.5q0-53-16.5-101.5t-48.5-86-80-60-112-22.5q-49 0-90.5 16.5t-72 45-47.5 66.5-17 81q0 66 26.5 125t89.5 98q-14 26-19 46.5t-5 40.5q0 36 12.5 73t38 66.5 65 48.5 93.5 19q43 0 77-14.5t58-39.5 36.5-57 12.5-67zM273 518q0-20 13.5-34.5t37.5-14.5q28 0 42.5 19t14.5 42q0 20-13.5 34t-37.5 14q-28 0-42.5-18.5t-14.5-41.5zM182 219q0-36 24.5-61t66.5-25q25 0 45 9t33 24.5 20 35.5 7 42q0 37-23 61.5t-64 24.5q-51 0-80-32t-29-79z" glyph-name="eight" horiz-adv-x="564" unicode="&#x38;"/><glyph d="M82 459q0 49 15.5 95.5t48.5 83 84 58.5 121 22q52 0 93-18t68.5-48.5 42-70.5 14.5-83q0-40-11.5-83.5t-49.5-92.5l-249-322h-176l186 241-27 5q-40 10-70 31.5t-50 50-30 62.5-10 69zM424 486q0 36-22.5 63.5t-64.5 27.5q-51 0-80.5-31t-29.5-74q0-36 22.5-64t64.5-28q52 0 81 31.5t29 74.5z" glyph-name="nine" horiz-adv-x="559" unicode="&#x39;"/><glyph d="M123-8q-23 0-42.5 8.5t-34 23-23 34-8.5 42.5q0 22 8.5 42t23 34.5 34 23 42.5 8.5q22 0 42-8.5t34.5-23 23-34.5 8.5-42q0-23-8.5-42.5t-23-34-34.5-23-42-8.5zM187 292q-23 0-42.5 8.5t-34 23-23 34-8.5 42.5q0 22 8.5 42t23 34.5 34 23 42.5 8.5q22 0 42-8.5t34.5-23 23-34.5 8.5-42q0-23-8.5-42.5t-23-34-34.5-23-42-8.5z" glyph-name="colon" horiz-adv-x="310" unicode="&#x3a;"/><glyph d="M187 292q-23 0-42.5 8.5t-34 23-23 34-8.5 42.5q0 22 8.5 42t23 34.5 34 23 42.5 8.5q22 0 42-8.5t34.5-23 23-34.5 8.5-42q0-23-8.5-42.5t-23-34-34.5-23-42-8.5zM81 0h-67l37 174h174l-37-174-97-154h-87z" glyph-name="semicolon" horiz-adv-x="308" unicode="&#x3b;"/><glyph d="M81 442h436v-114h-436v114zM81 236h436v-114h-436v114z" glyph-name="equal" horiz-adv-x="590" unicode="&#x3d;"/><glyph d="M230 396h53q65 0 94 28.5t29 67.5q0 33-20 59t-59 26q-49 0-73-29t-24-68h-148q1 47 19.5 90t52 76 81 52.5 107.5 19.5q51 0 90.5-18t66.5-47.5 41-68 14-79.5q0-48-17.5-93t-52.5-80-87-56-120-21h-77zM321 184q11-11 17.5-31.5t6.5-42.5q0-28-10.5-50t-28-37-41-23-48.5-8q-40 0-66 26.5t-26 64.5q0 30 17 57t43 44h136z" glyph-name="question" horiz-adv-x="547" unicode="&#x3f;"/><glyph d="M410-8q-81 0-145.5 27t-110 73.5-69.5 109.5-24 135q0 85 31.5 155.5t84.5 120.5 123.5 77.5 147.5 27.5q74 0 137-22t109-62.5 72-98 26-129.5q0-65-16-111.5t-41.5-75.5-59-42.5-67.5-13.5q-33 0-58 13.5t-42 33.5q-29-24-61-34.5t-60-10.5q-41 0-72 13.5t-52 37-31.5 55-10.5 66.5q0 45 16 85t44.5 70 68.5 47 88 17q28 0 50.5-7t39.5-20l4 17h95l-47-220q-7-33 2.5-56t41.5-23q40 0 62 36.5t22 124.5q0 58-21.5 101.5t-57.5 71.5-83 42-99 14q-58 0-112-19.5t-95-58-66-94.5-25-128q0-59 18.5-107.5t52-82.5 82-52.5 108.5-18.5q45 0 90 10t86 31l33-81q-47-21-103.5-32.5t-105.5-11.5zM325 345q0-39 19-62.5t59-23.5q23 0 41.5 7.5t32.5 21.5q0 2 .5 4t.5 4l30 139q-14 14-32 21t-37 7q-50 0-82-33.5t-32-84.5z" glyph-name="at" horiz-adv-x="789" unicode="&#x40;"/><glyph d="M443 110h-259l-75-110h-178l503 718 197-718h-160zM410 240l-38 146-99-146h137z" glyph-name="A" horiz-adv-x="669" unicode="&#x41;"/><glyph d="M174 710h221q52 0 92-15t68-40.5 42.5-58 14.5-67.5q0-46-20.5-89.5t-60.5-73.5q32-21 51-54t19-84q0-47-17.5-88.5t-52.5-72.5-87.5-49-123.5-18h-297zM354 423q49 0 74 24t25 57q0 25-17.5 42.5t-51.5 17.5h-83l-30-141h83zM335 147q53 0 80.5 23t27.5 56q0 25-17.5 43.5t-49.5 18.5h-134l-30-141h123z" glyph-name="B" horiz-adv-x="643" unicode="&#x42;"/><glyph d="M705 123q-53-63-132-97t-178-34q-77 0-138.5 27.5t-104.5 74-66.5 107.5-23.5 128q0 75 26.5 145t78 124 127.5 87 176 33 174.5-43.5 115.5-111.5l-133-91q-24 39-69 65.5t-103 26.5q-53 0-96-18t-73-48-46.5-70-16.5-85q0-39 11-75t34-63 58-43 82-16q61 0 108.5 24t77.5 63z" glyph-name="C" horiz-adv-x="731" unicode="&#x43;"/><glyph d="M174 710h230q72 0 130-25t98.5-66 62-94.5 21.5-111.5q0-108-33-186t-91-128.5-137-74.5-171-24h-261zM297 146q51 0 97.5 16t82 47 56 75 20.5 101q0 37-11 70t-32.5 57-52.5 38-71 14h-83l-89-418h83z" glyph-name="D" horiz-adv-x="732" unicode="&#x44;"/><glyph d="M174 710h440l-34-158h-280l-25-120h220l-33-154h-220l-25-120h280l-34-158h-440z" glyph-name="E" horiz-adv-x="564" unicode="&#x45;"/><glyph d="M174 710h420l-34-158h-260l-25-120h200l-33-154h-200l-59-278h-160z" glyph-name="F" horiz-adv-x="530" unicode="&#x46;"/><glyph d="M676 79q-48-38-117.5-62.5t-165.5-24.5q-75 0-136.5 27t-104.5 72-66.5 103.5-23.5 122.5q0 79 25 151.5t76 128 127.5 88.5 179.5 33q99 0 173.5-43t116.5-112l-133-91q-26 39-70.5 65.5t-101.5 26.5q-56 0-99.5-18t-73-49.5-44.5-73.5-15-90q0-38 11.5-71.5t35-59.5 58-41 80.5-15q44 0 76 8t59 25l22 101h-171l99 150h257z" glyph-name="G" horiz-adv-x="763" unicode="&#x47;"/><glyph d="M174 710h160l-59-278h284l59 278h160l-151-710h-160l59 278h-284l-59-278h-160z" glyph-name="H" horiz-adv-x="756" unicode="&#x48;"/><glyph d="M174 710h161l-151-710h-161z" glyph-name="I" horiz-adv-x="313" unicode="&#x49;"/><glyph d="M445 202q-12-56-30.5-95.5t-47-65-69.5-37.5-98-12q-47 0-87 19t-66.5 51-38 74-1.5 89h160q-9-42 5.5-65t43.5-23 45 14.5 26 60.5l106 498h160z" glyph-name="J" horiz-adv-x="527" unicode="&#x4a;"/><glyph d="M174 710h160l-75-354 321 354h191l-341-376 195-334h-176l-195 332-71-332h-160z" glyph-name="K" horiz-adv-x="674" unicode="&#x4b;"/><glyph d="M174 710h161l-117-551h275l-34-159h-436z" glyph-name="L" horiz-adv-x="531" unicode="&#x4c;"/><glyph d="M176 718l261-360 446 360-152-718h-160l72 341-233-187-150 208-77-362h-160z" glyph-name="M" horiz-adv-x="860" unicode="&#x4d;"/><glyph d="M266 391l-83-391h-160l153 718 363-399 83 391h160l-153-718z" glyph-name="N" horiz-adv-x="760" unicode="&#x4e;"/><glyph d="M800 385q0-75-26-146t-77.5-125.5-127.5-88-175-33.5q-76 0-137.5 27.5t-105 74-67 106.5-23.5 125q0 75 26.5 146t77.5 125.5 127 88 175 33.5q76 0 137.5-27.5t105-74 67-106.5 23.5-125zM222 339q0-38 11.5-72.5t35-61.5 58-43 80.5-16q53 0 96 18t73 49 46.5 72 16.5 86q0 37-12 72t-35 62-57.5 43-80.5 16q-53 0-96-18t-73-49-46.5-72-16.5-86z" glyph-name="O" horiz-adv-x="817" unicode="&#x4f;"/><glyph d="M174 710h189q55 0 100-17t76.5-45.5 49-66.5 17.5-80q0-56-16.5-105.5t-53-86.5-93.5-59-138-22h-74l-48-228h-160zM331 377q49 0 82.5 28.5t33.5 72.5q0 16-5 30.5t-15.5 26-27.5 18.5-40 7h-57l-39-183h68z" glyph-name="P" horiz-adv-x="588" unicode="&#x50;"/><glyph d="M800 385q0-60-17-117.5t-50-107.5l96-93-101-103-97 94q-48-31-106.5-48.5t-130.5-17.5q-76 0-137.5 27.5t-105 74-67 106.5-23.5 125q0 75 26.5 146t77.5 125.5 127 88 175 33.5q76 0 137.5-27.5t105-74 67-106.5 23.5-125zM516 372l101-99q22 47 22 98 0 37-12 72t-35 62-57.5 43-80.5 16q-53 0-96-18t-73-49-46.5-72-16.5-86q0-38 11.5-72.5t35-61.5 58-43 80.5-16q62 0 109 24l-101 99z" glyph-name="Q" horiz-adv-x="833" unicode="&#x51;"/><glyph d="M246 288h-3l-61-288h-159l151 710h226q50 0 89.5-16t67-42.5 42-60.5 14.5-69q0-48-15-87t-42-67.5-64-47-81-26.5l163-294h-169zM363 423q37 0 64 21.5t27 57.5q0 25-16.5 43.5t-44.5 18.5h-91l-30-141h91z" glyph-name="R" horiz-adv-x="637" unicode="&#x52;"/><glyph d="M506 212q0-48-16.5-88.5t-47.5-70-75.5-45.5-101.5-16q-94 0-155.5 45.5t-90.5 117.5l138 79q20-50 46-71.5t68-21.5q28 0 49 14.5t21 40.5q0 21-14 37.5t-53 44.5l-36 26q-29 22-54 45t-43 47.5-28.5 52.5-10.5 60q0 50 17.5 89t47.5 65.5 70 40.5 84 14q32 0 63-5t60-19 55-38.5 49-62.5l-138-79q-20 36-42 45.5t-45 9.5q-24 0-41.5-12.5t-17.5-34.5q0-23 19-43.5t57-48.5l35-26q24-17 47-37.5t42-44.5 30.5-51.5 11.5-58.5z" glyph-name="S" horiz-adv-x="547" unicode="&#x53;"/><glyph d="M253 552h-169l34 158h501l-34-158h-169l-117-552h-163z" glyph-name="T" horiz-adv-x="542" unicode="&#x54;"/><glyph d="M656 288q-17-78-43.5-134t-66.5-92-94-53-126-17q-62 0-114 24t-86.5 66.5-47.5 101.5 2 130l84 396h160l-88-413q-8-40-2.5-68.5t20.5-47 38.5-27 52.5-8.5q59 0 97 34t53 106l90 424h161z" glyph-name="U" horiz-adv-x="717" unicode="&#x55;"/><glyph d="M87 710h162l84-362 237 362h187l-488-718z" glyph-name="V" horiz-adv-x="648" unicode="&#x56;"/><glyph d="M93 710h159l38-329 234 337 82-350 186 342h167l-399-718-94 411-280-411z" glyph-name="W" horiz-adv-x="858" unicode="&#x57;"/><glyph d="M270 381l-151 329h165l95-205 179 205h195l-307-351 165-359h-165l-108 235-206-235h-195z" glyph-name="X" horiz-adv-x="661" unicode="&#x58;"/><glyph d="M270 298l-175 412h168l105-257 215 257h198l-351-412-63-298h-160z" glyph-name="Y" horiz-adv-x="680" unicode="&#x59;"/><glyph d="M394 552h-279l34 158h560l-438-552h300l-34-158h-581z" glyph-name="Z" horiz-adv-x="629" unicode="&#x5a;"/><glyph d="M180 759h231l-23-108h-104l-150-702h104l-23-108h-231z" glyph-name="bracketleft" horiz-adv-x="334" unicode="&#x5b;"/><glyph d="M176-159h-231l23 108h104l150 702h-104l23 108h231z" glyph-name="bracketright" horiz-adv-x="334" unicode="&#x5d;"/><glyph d="M-8 0h436l-24-114h-436z" glyph-name="underscore" horiz-adv-x="523" unicode="&#x5f;"/><glyph d="M19 710h162l47-160h-98z" glyph-name="grave" unicode="&#x60;"/><glyph d="M351 30q-24-19-54.5-28.5t-62.5-9.5q-43 0-80 18t-64.5 49-43 70.5-15.5 83.5q0 62 20.5 116t58 93.5 89.5 62.5 115 23q35 0 65.5-9t53.5-29l7 30h149l-106-500h-136zM276 130q24 0 48 8.5t43 24.5l36 172q-17 19-40 27t-47 8q-27 0-51.5-10t-43-28-29-43-10.5-56q0-50 26-76.5t68-26.5z" glyph-name="a" horiz-adv-x="595" unicode="&#x61;"/><glyph d="M157 710h151l-49-230q45 28 100 28 45 0 83-18t65.5-49 42.5-71 15-83q0-62-19-116t-55-93.5-89-62.5-120-23q-35 0-65.5 8.5t-53.5 28.5l-6-29h-151zM320 370q-24 0-48.5-8.5t-43.5-25.5l-36-171q17-20 40-27.5t48-7.5q27 0 51.5 10t43 28 29 43 10.5 56q0 50-26 76.5t-68 26.5z" glyph-name="b" horiz-adv-x="597" unicode="&#x62;"/><glyph d="M496 99q-39-49-97-78t-129-29q-57 0-101 19.5t-74.5 52-46 75-15.5 88.5q0 60 21 111t58.5 89 90 59.5 115.5 21.5q40 0 73.5-11t60.5-29 46.5-42 31.5-50l-125-74q-14 30-41 47.5t-59 17.5q-53 0-86.5-36t-33.5-91q0-51 28-79t70-28q34 0 60.5 15t45.5 40z" glyph-name="c" horiz-adv-x="534" unicode="&#x63;"/><glyph d="M351 30q-24-19-54.5-28.5t-62.5-9.5q-43 0-80 18t-64.5 49-43 70.5-15.5 83.5q0 62 20.5 116t58 93.5 89.5 62.5 115 23q35 0 65-8.5t53-28.5l51 239h151l-151-710h-136zM276 130q24 0 48 8.5t43 24.5l36 172q-17 20-40 27.5t-47 7.5q-27 0-51.5-10t-43-28-29-43-10.5-56q0-50 26-76.5t68-26.5z" glyph-name="d" horiz-adv-x="595" unicode="&#x64;"/><glyph d="M275 133q38 0 64 14.5t46 38.5l111-86q-39-51-97-79.5t-129-28.5q-57 0-101 19.5t-74.5 52-46 75-15.5 88.5q0 58 20.5 109.5t57.5 89.5 89.5 60 117.5 22q58 0 103-19.5t73.5-56.5 39-90 .5-119h-357q4-24 13.5-41.5t23-28 29.5-15.5 32-5zM304 387q-14 0-30.5-5.5t-32-15.5-30-24-23.5-31h209q1 20-7 34.5t-21 23.5-30 13.5-35 4.5z" glyph-name="e" horiz-adv-x="567" unicode="&#x65;"/><glyph d="M123 368h-65l28 132h80q-11 17-17.5 35t-6.5 47q0 18 8 40t27 41.5 50.5 33 78.5 13.5h156l-28-132h-107q-30 0-39.5-12.5t-9.5-27.5q0-14 10-26t31-12h99l-28-132h-116l-78-368h-151z" glyph-name="f" horiz-adv-x="382" unicode="&#x66;"/><glyph d="M502 97q11-55-2-107t-49.5-93-96.5-66-143-25q-57 0-115 13.5t-104 47.5l77 129q27-23 62.5-37.5t79.5-14.5q30 0 57 6t46.5 20 29.5 35.5 5 53.5q-32-18-63.5-24t-60.5-6q-45 0-80 17.5t-59 47-36.5 68-12.5 80.5q0 53 19.5 101.5t55 85 86.5 58 114 21.5q34 0 64.5-8.5t53.5-27.5l6 28h151zM274 167q26 0 54 10.5t47 30.5l26 127q-17 19-40 27t-47 8q-55 0-90.5-30.5t-35.5-84.5q0-45 22-66.5t64-21.5z" glyph-name="g" horiz-adv-x="597" unicode="&#x67;"/><glyph d="M157 710h151l-53-249q26 23 57.5 35t74.5 12q47 0 82-20.5t56-54 27-75.5-4-84l-58-274h-151l56 261q5 22 4.5 42t-8.5 35-24 23.5-42 8.5q-25 0-51-12t-49-39l-68-319h-151z" glyph-name="h" horiz-adv-x="594" unicode="&#x68;"/><glyph d="M112 500h152l-106-500h-152zM134 571q-5 8-8.5 21t-3.5 26q0 46 28 73t75 27q32 0 56.5-19.5t24.5-55.5q0-24-8.5-41t-22.5-31h-141z" glyph-name="i" horiz-adv-x="270" unicode="&#x69;"/><glyph d="M-98-41h31q22 0 36.5 3t24.5 11 16 22.5 11 37.5l100 467h152l-107-500q-14-64-35-100.5t-52-55-72-23.5-95-5h-41zM143 571q-5 8-8.5 21t-3.5 26q0 46 28 73t75 27q32 0 56.5-19.5t24.5-55.5q0-24-8.5-41t-22.5-31h-141z" glyph-name="j" horiz-adv-x="278" unicode="&#x6a;"/><glyph d="M157 710h151l-93-438 205 228h180l-230-255 135-245h-158l-137 249-53-249h-151z" glyph-name="k" horiz-adv-x="553" unicode="&#x6b;"/><glyph d="M157 710h152l-151-710h-152z" glyph-name="l" horiz-adv-x="270" unicode="&#x6c;"/><glyph d="M367 508q44 0 77-17.5t54-47.5q33 31 74 48t88 17q54 0 93-19t61.5-53 28.5-79.5-5-97.5l-55-259h-151l54 252q10 53-2.5 85.5t-55.5 32.5q-20 0-48-15t-48-47q-2-26-7-49l-55-259h-151l54 253q5 25 4.5 46t-7 37-20.5 25-35 9q-18 0-45-13.5t-45-39.5l-68-317h-151l106 500h149l-7-37q15 16 45 30.5t68 14.5z" glyph-name="m" horiz-adv-x="887" unicode="&#x6d;"/><glyph d="M112 500h149l-7-40q26 23 58 35.5t75 12.5q47 0 82-20.5t56-54 27-75.5-4-84l-58-274h-151l55 261q4 22 3.5 41.5t-8 34.5-23 24-41.5 9q-25 0-51-12t-49-38l-68-320h-151z" glyph-name="n" horiz-adv-x="594" unicode="&#x6e;"/><glyph d="M555 274q0-60-21-111.5t-58.5-89.5-90-59.5-115.5-21.5q-57 0-101 19.5t-74.5 52-46 75-15.5 88.5q0 60 21 111t58.5 89 90 59.5 115.5 21.5q57 0 101-19.5t74.5-52 46-74.5 15.5-88zM185 240q0-50 28-78.5t70-28.5q26 0 48 9.5t38 27 25 41 9 50.5q0 50-28 78t-70 28q-53 0-86.5-36t-33.5-91z" glyph-name="o" horiz-adv-x="588" unicode="&#x6f;"/><glyph d="M112 500h138l-5-30q47 38 114 38 45 0 83-18t65.5-49 42.5-71 15-83q0-62-19-116t-55-93.5-89-62.5-120-23q-35 0-65.5 8.5t-53.5 28.5l-45-213h-151zM320 370q-24 0-48-8.5t-43-25.5l-37-171q17-20 40-27.5t48-7.5q27 0 51.5 10t43 28 29 43 10.5 56q0 50-26 76.5t-68 26.5z" glyph-name="p" horiz-adv-x="597" unicode="&#x70;"/><glyph d="M336 20q-44-28-102-28-43 0-80 18t-64.5 49-43 70.5-15.5 83.5q0 62 20.5 116t58 93.5 89.5 62.5 115 23q35 0 65-9t53-28l6 29h151l-145-684h-151zM276 130q23 0 47.5 8t42.5 24l37 173q-17 19-40 27t-47 8q-27 0-51.5-10t-43-28-29-43-10.5-56q0-50 26-76.5t68-26.5z" glyph-name="q" horiz-adv-x="595" unicode="&#x71;"/><glyph d="M112 500h151l-9-43q23 26 55.5 38.5t69.5 12.5q12 0 25.5-1.5t26.5-6.5l-33-157q-16 9-34.5 13t-38.5 4q-23 0-50.5-8.5t-48.5-24.5l-69-327h-151z" glyph-name="r" horiz-adv-x="397" unicode="&#x72;"/><glyph d="M382 155q0-78-48.5-120.5t-135.5-42.5q-77 0-126.5 33t-69.5 79l107 74q7-13 15-24.5t18.5-20.5 24.5-14.5 33-5.5 30 7.5 11 21.5q0 15-11 24.5t-31 23.5l-34 23q-22 15-41 29.5t-32.5 31.5-21 37.5-7.5 46.5q0 30 11 57.5t33 48 54.5 32.5 76.5 12q63 0 109-25t67-63l-103-76q-14 24-33.5 35t-38.5 11q-18 0-26.5-8.5t-8.5-19.5q0-12 7.5-21t30.5-23l26-17q55-35 84.5-68.5t29.5-77.5z" glyph-name="s" horiz-adv-x="434" unicode="&#x73;"/><glyph d="M53 500h106l17 75 166 75-32-150h142l-30-132h-140l-36-171q-7-32 3.5-45.5t41.5-13.5h82l-29-138h-113q-82 0-120 50t-17 147l37 171h-78v132z" glyph-name="t" horiz-adv-x="428" unicode="&#x74;"/><glyph d="M340 40q-26-23-59-35.5t-76-12.5q-40 0-74 17t-56.5 49.5-30 78.5 4.5 104l55 259h151l-53-252q-11-52 2.5-85t64.5-33q29 0 55.5 13t46.5 45l66 312h151l-106-500h-149z" glyph-name="u" horiz-adv-x="594" unicode="&#x75;"/><glyph d="M36 500h156l65-225 154 225h177l-379-508z" glyph-name="v" horiz-adv-x="522" unicode="&#x76;"/><glyph d="M52 500h154l23-280 184 288 60-294 145 286h164l-265-500h-115l-44 206-138-206h-115z" glyph-name="w" horiz-adv-x="729" unicode="&#x77;"/><glyph d="M195 265l-126 235h161l68-126 120 126h186l-239-251 133-249h-161l-75 140-134-140h-186z" glyph-name="x" horiz-adv-x="554" unicode="&#x78;"/><glyph d="M131 0l-79 500h155l39-315 169 315h165l-398-684h-158z" glyph-name="y" horiz-adv-x="524" unicode="&#x79;"/><glyph d="M269 370h-200l27 130h454l-307-369h214l-28-131h-469z" glyph-name="z" horiz-adv-x="518" unicode="&#x7a;"/><glyph d="M156-159q-71 0-103 45t-12 139l36 168q5 22-4 37.5t-38 15.5h-8l23 108h8q29 0 44 15.5t20 37.5l45 210q9 42 25 69.5t38 43.5 49.5 22.5 59.5 6.5h89l-23-108h-47q-31 0-46.5-13t-22.5-44l-42-196q-8-37-27.5-62.5t-54.5-35.5q31-9 40-34.5t2-57.5l-43-202q-7-28 2-42.5t41-14.5h49l-23-108h-77z" glyph-name="braceleft" horiz-adv-x="350" unicode="&#x7b;"/><glyph d="M114 710h127v-894h-127v894z" glyph-name="bar" horiz-adv-x="349" unicode="&#x7c;"/><glyph d="M216 759q71 0 103-45t12-139l-36-168q-5-22 4-37.5t38-15.5h8l-23-108h-8q-29 0-44-15.5t-20-37.5l-45-210q-9-42-25-69.5t-38-43.5-49.5-22.5-59.5-6.5h-89l23 108h47q31 0 46.5 13t22.5 44l42 196q8 37 27.5 62.5t54.5 35.5q-31 9-40 34.5t-2 57.5l43 202q7 28-2 42.5t-41 14.5h-49l23 108h77z" glyph-name="braceright" horiz-adv-x="350" unicode="&#x7d;"/><glyph glyph-name="uni00A0" horiz-adv-x="222" unicode="&#xa0;"/><glyph d="M198 508q40 0 66-26.5t26-64.5q0-30-17-57t-43-44h-136q-11 11-17.5 31.5t-6.5 42.5q0 28 10.5 50t28 37 40.5 23 49 8zM183 87l-58-271h-152l58 271 69 184h92z" glyph-name="exclamdown" horiz-adv-x="288" unicode="&#xa1;"/><glyph d="M22 141h76l38 178h-76l16 74h96q-9 18-15.5 43t-6.5 50q0 48 17.5 90t50 73.5 78.5 50 104 18.5q52 0 94-18.5t70-49.5 40-71.5 4-83.5h-148q5 35-16.5 58.5t-60.5 23.5q-43 0-67-25.5t-24-67.5q0-37 21-64t65-27h57l-16-74h-131l-38-178h283l-30-141h-511z" glyph-name="sterling" horiz-adv-x="593" unicode="&#xa3;"/><glyph d="M101 225h178l15 72v1h-177l16 74h129l-143 338h171l104-258 216 258h187l-288-338h130l-16-74h-177l-15-73h176l-15-74h-177l-32-151h-152l32 151h-177z" glyph-name="yen" horiz-adv-x="725" unicode="&#xa5;"/><glyph d="M325 647q0-33-23.5-56.5t-56.5-23.5-56.5 23.5-23.5 56.5 23.5 56.5 56.5 23.5 56.5-23.5 23.5-56.5zM87 647q0-33-23.5-56.5t-56.5-23.5-56.5 23.5-23.5 56.5 23.5 56.5 56.5 23.5 56.5-23.5 23.5-56.5z" glyph-name="dieresis" unicode="&#xa8;"/><glyph d="M428-8q-75 0-141 28.5t-115.5 78-78 115.5-28.5 141 28.5 141 78 115.5 115.5 78 141 28.5 141-28.5 115.5-78 78-115.5 28.5-141-28.5-141-78-115.5-115.5-78-141-28.5zM428 73q58 0 108.5 21.5t87.5 59.5 58 89.5 21 112.5q0 59-21 110.5t-58 89.5-87.5 59.5-108.5 21.5q-59 0-109-21.5t-87-59.5-58-89.5-21-110.5q0-61 21-112.5t58-89.5 87-59.5 109-21.5zM441 183q-35 0-66.5 13.5t-55 37-37 55-13.5 66.5 13.5 66.5 37 55 55 37 66.5 13.5q44 0 81-20.5t62-55.5l-67-54q-11 20-31 33t-45 13q-18 0-33-7t-26.5-19-18-28-6.5-34 6.5-33.5 18-27.5 26.5-19 33-7q25 0 45 13t31 33l67-55q-25-35-62-55.5t-81-20.5z" glyph-name="copyright" horiz-adv-x="811" unicode="&#xa9;"/><glyph d="M27 250l215 241 88-81-157-171 81-173-114-57zM262 250l215 241 88-81-157-171 81-173-114-57z" glyph-name="guillemotleft" horiz-adv-x="566" unicode="&#xab;"/><glyph d="M78 354h284l-31-144h-284z" glyph-name="uni00AD" horiz-adv-x="396" unicode="&#xad;"/><glyph d="M-34 675h330l-20-96h-330z" glyph-name="macron" unicode="&#xaf;"/><glyph d="M224 470q-25 0-47.5 9.5t-39 26-26 39-9.5 47.5 9.5 47.5 26 39 39 26 47.5 9.5 47.5-9.5 39-26 26-39 9.5-47.5-9.5-47.5-26-39-39-26-47.5-9.5zM224 547q19 0 32 13t13 32-13 32-32 13-32-13-13-32 13-32 32-13z" glyph-name="degree" horiz-adv-x="309" unicode="&#xb0;"/><glyph d="M93 710h178l-182-160h-115z" glyph-name="acute" unicode="&#xb4;"/><glyph d="M149 142q-23 0-42.5 8.5t-34 23-23 34-8.5 42.5q0 22 8.5 42t23 34.5 34 23 42.5 8.5q22 0 42-8.5t34.5-23 23-34.5 8.5-42q0-23-8.5-42.5t-23-34-34.5-23-42-8.5z" glyph-name="periodcentered" horiz-adv-x="298" unicode="&#xb7;"/><glyph d="M-28 0h104l-80-165h-129z" glyph-name="cedilla" unicode="&#xb8;"/><glyph d="M304 250l-215-241-88 81 157 171-81 173 114 57zM539 250l-215-241-88 81 157 171-81 173 114 57z" glyph-name="guillemotright" horiz-adv-x="566" unicode="&#xbb;"/><glyph d="M331 508q40 0 66-26.5t26-64.5q0-30-17-57t-43-44h-136q-11 11-17.5 31.5t-6.5 42.5q0 28 10.5 50t28 37 40.5 23 49 8zM206-193q-51 0-90.5 18t-66.5 47.5-41 68-14 79.5q0 48 18.5 93t54.5 80 88.5 56 120.5 21h72l-30-141h-53q-65 0-94-28.5t-29-67.5q0-33 20-59t59-26q49 0 73 29t24 68h148q-2-47-20-90t-51.5-76-81-52.5-107.5-19.5z" glyph-name="questiondown" horiz-adv-x="538" unicode="&#xbf;"/><glyph d="M443 110h-259l-75-110h-178l503 718 197-718h-160zM410 240l-38 146-99-146h137zM290 913h158l39-145h-102z" glyph-name="Agrave" horiz-adv-x="669" unicode="&#xc0;"/><glyph d="M443 110h-259l-75-110h-178l503 718 197-718h-160zM410 240l-38 146-99-146h137zM490 913h172l-157-145h-116z" glyph-name="Aacute" horiz-adv-x="669" unicode="&#xc1;"/><glyph d="M443 110h-259l-75-110h-178l503 718 197-718h-160zM410 240l-38 146-99-146h137zM282 848l192 83 156-83-44-89-120 62-145-62z" glyph-name="Acircumflex" horiz-adv-x="669" unicode="&#xc2;"/><glyph d="M443 110h-259l-75-110h-178l503 718 197-718h-160zM410 240l-38 146-99-146h137zM254 777q21 76 59 110.5t84 34.5q22 0 39-6.5t32-14 28-13.5 27-6q17 0 26.5 9.5t20.5 32.5h101q-23-78-59.5-111.5t-82.5-33.5q-22 0-39.5 6t-32.5 13.5-28.5 14-26.5 6.5q-17 0-26.5-9.5t-20.5-32.5h-101z" glyph-name="Atilde" horiz-adv-x="669" unicode="&#xc3;"/><glyph d="M443 110h-259l-75-110h-178l503 718 197-718h-160zM410 240l-38 146-99-146h137zM661 850q0-33-23.5-56.5t-56.5-23.5-56.5 23.5-23.5 56.5 23.5 56.5 56.5 23.5 56.5-23.5 23.5-56.5zM423 850q0-33-23.5-56.5t-56.5-23.5-56.5 23.5-23.5 56.5 23.5 56.5 56.5 23.5 56.5-23.5 23.5-56.5z" glyph-name="Adieresis" horiz-adv-x="669" unicode="&#xc4;"/><glyph d="M443 110h-259l-75-110h-178l503 718 197-718h-160zM410 240l-38 146-99-146h137zM588 879q0-25-9.5-46.5t-26-38-38-26-46.5-9.5-46.5 9.5-38 26-26 38-9.5 46.5 9.5 46.5 26 38 38 26 46.5 9.5 46.5-9.5 38-26 26-38 9.5-46.5zM421 879q0-20 13.5-33.5t33.5-13.5 33.5 13.5 13.5 33.5-13.5 33.5-33.5 13.5-33.5-13.5-13.5-33.5z" glyph-name="Aring" horiz-adv-x="669" unicode="&#xc5;"/><glyph d="M459 110h-259l-75-110h-178l381 545-46 165h401l44-158h-233l33-120h172l43-154h-172l33-120h232l44-158h-392zM426 240l-38 146-99-146h137z" glyph-name="AE" horiz-adv-x="918" unicode="&#xc6;"/><glyph d="M705 123q-53-63-132-97t-178-34q-77 0-138.5 27.5t-104.5 74-66.5 107.5-23.5 128q0 75 26.5 145t78 124 127.5 87 176 33 174.5-43.5 115.5-111.5l-133-91q-24 39-69 65.5t-103 26.5q-53 0-96-18t-73-48-46.5-70-16.5-85q0-39 11-75t34-63 58-43 82-16q61 0 108.5 24t77.5 63zM346 0h104l-80-165h-129z" glyph-name="Ccedilla" horiz-adv-x="731" unicode="&#xc7;"/><glyph d="M174 710h440l-34-158h-280l-25-120h220l-33-154h-220l-25-120h280l-34-158h-440zM253 913h158l39-145h-102z" glyph-name="Egrave" horiz-adv-x="564" unicode="&#xc8;"/><glyph d="M174 710h440l-34-158h-280l-25-120h220l-33-154h-220l-25-120h280l-34-158h-440zM453 913h172l-157-145h-116z" glyph-name="Eacute" horiz-adv-x="564" unicode="&#xc9;"/><glyph d="M174 710h440l-34-158h-280l-25-120h220l-33-154h-220l-25-120h280l-34-158h-440zM245 848l192 83 156-83-44-89-120 62-145-62z" glyph-name="Ecircumflex" horiz-adv-x="564" unicode="&#xca;"/><glyph d="M174 710h440l-34-158h-280l-25-120h220l-33-154h-220l-25-120h280l-34-158h-440zM624 850q0-33-23.5-56.5t-56.5-23.5-56.5 23.5-23.5 56.5 23.5 56.5 56.5 23.5 56.5-23.5 23.5-56.5zM386 850q0-33-23.5-56.5t-56.5-23.5-56.5 23.5-23.5 56.5 23.5 56.5 56.5 23.5 56.5-23.5 23.5-56.5z" glyph-name="Edieresis" horiz-adv-x="564" unicode="&#xcb;"/><glyph d="M174 710h161l-151-710h-161zM111 913h158l39-145h-102z" glyph-name="Igrave" horiz-adv-x="313" unicode="&#xcc;"/><glyph d="M174 710h161l-151-710h-161zM311 913h172l-157-145h-116z" glyph-name="Iacute" horiz-adv-x="313" unicode="&#xcd;"/><glyph d="M174 710h161l-151-710h-161zM103 848l192 83 156-83-44-89-120 62-145-62z" glyph-name="Icircumflex" horiz-adv-x="313" unicode="&#xce;"/><glyph d="M174 710h161l-151-710h-161zM482 850q0-33-23.5-56.5t-56.5-23.5-56.5 23.5-23.5 56.5 23.5 56.5 56.5 23.5 56.5-23.5 23.5-56.5zM244 850q0-33-23.5-56.5t-56.5-23.5-56.5 23.5-23.5 56.5 23.5 56.5 56.5 23.5 56.5-23.5 23.5-56.5z" glyph-name="Idieresis" horiz-adv-x="313" unicode="&#xcf;"/><glyph d="M196 710h230q72 0 130-25t98.5-66 62-94.5 21.5-111.5q0-108-33-186t-91-128.5-137-74.5-171-24h-261zM319 146q51 0 97.5 16t82 47 56 75 20.5 101q0 37-11 70t-32.5 57-52.5 38-71 14h-83l-89-418h83zM40 392h338l-15-74h-338z" glyph-name="Eth" horiz-adv-x="754" unicode="&#xd0;"/><glyph d="M266 391l-83-391h-160l153 718 363-399 83 391h160l-153-718zM253 777q21 76 59 110.5t84 34.5q22 0 39-6.5t32-14 28-13.5 27-6q17 0 26.5 9.5t20.5 32.5h101q-23-78-59.5-111.5t-82.5-33.5q-22 0-39.5 6t-32.5 13.5-28.5 14-26.5 6.5q-17 0-26.5-9.5t-20.5-32.5h-101z" glyph-name="Ntilde" horiz-adv-x="760" unicode="&#xd1;"/><glyph d="M800 385q0-75-26-146t-77.5-125.5-127.5-88-175-33.5q-76 0-137.5 27.5t-105 74-67 106.5-23.5 125q0 75 26.5 146t77.5 125.5 127 88 175 33.5q76 0 137.5-27.5t105-74 67-106.5 23.5-125zM222 339q0-38 11.5-72.5t35-61.5 58-43 80.5-16q53 0 96 18t73 49 46.5 72 16.5 86q0 37-12 72t-35 62-57.5 43-80.5 16q-53 0-96-18t-73-49-46.5-72-16.5-86zM326 913h158l39-145h-102z" glyph-name="Ograve" horiz-adv-x="817" unicode="&#xd2;"/><glyph d="M800 385q0-75-26-146t-77.5-125.5-127.5-88-175-33.5q-76 0-137.5 27.5t-105 74-67 106.5-23.5 125q0 75 26.5 146t77.5 125.5 127 88 175 33.5q76 0 137.5-27.5t105-74 67-106.5 23.5-125zM222 339q0-38 11.5-72.5t35-61.5 58-43 80.5-16q53 0 96 18t73 49 46.5 72 16.5 86q0 37-12 72t-35 62-57.5 43-80.5 16q-53 0-96-18t-73-49-46.5-72-16.5-86zM526 913h172l-157-145h-116z" glyph-name="Oacute" horiz-adv-x="817" unicode="&#xd3;"/><glyph d="M800 385q0-75-26-146t-77.5-125.5-127.5-88-175-33.5q-76 0-137.5 27.5t-105 74-67 106.5-23.5 125q0 75 26.5 146t77.5 125.5 127 88 175 33.5q76 0 137.5-27.5t105-74 67-106.5 23.5-125zM222 339q0-38 11.5-72.5t35-61.5 58-43 80.5-16q53 0 96 18t73 49 46.5 72 16.5 86q0 37-12 72t-35 62-57.5 43-80.5 16q-53 0-96-18t-73-49-46.5-72-16.5-86zM318 848l192 83 156-83-44-89-120 62-145-62z" glyph-name="Ocircumflex" horiz-adv-x="817" unicode="&#xd4;"/><glyph d="M800 385q0-75-26-146t-77.5-125.5-127.5-88-175-33.5q-76 0-137.5 27.5t-105 74-67 106.5-23.5 125q0 75 26.5 146t77.5 125.5 127 88 175 33.5q76 0 137.5-27.5t105-74 67-106.5 23.5-125zM222 339q0-38 11.5-72.5t35-61.5 58-43 80.5-16q53 0 96 18t73 49 46.5 72 16.5 86q0 37-12 72t-35 62-57.5 43-80.5 16q-53 0-96-18t-73-49-46.5-72-16.5-86zM290 777q21 76 59 110.5t84 34.5q22 0 39-6.5t32-14 28-13.5 27-6q17 0 26.5 9.5t20.5 32.5h101q-23-78-59.5-111.5t-82.5-33.5q-22 0-39.5 6t-32.5 13.5-28.5 14-26.5 6.5q-17 0-26.5-9.5t-20.5-32.5h-101z" glyph-name="Otilde" horiz-adv-x="817" unicode="&#xd5;"/><glyph d="M800 385q0-75-26-146t-77.5-125.5-127.5-88-175-33.5q-76 0-137.5 27.5t-105 74-67 106.5-23.5 125q0 75 26.5 146t77.5 125.5 127 88 175 33.5q76 0 137.5-27.5t105-74 67-106.5 23.5-125zM222 339q0-38 11.5-72.5t35-61.5 58-43 80.5-16q53 0 96 18t73 49 46.5 72 16.5 86q0 37-12 72t-35 62-57.5 43-80.5 16q-53 0-96-18t-73-49-46.5-72-16.5-86zM697 850q0-33-23.5-56.5t-56.5-23.5-56.5 23.5-23.5 56.5 23.5 56.5 56.5 23.5 56.5-23.5 23.5-56.5zM459 850q0-33-23.5-56.5t-56.5-23.5-56.5 23.5-23.5 56.5 23.5 56.5 56.5 23.5 56.5-23.5 23.5-56.5z" glyph-name="Odieresis" horiz-adv-x="817" unicode="&#xd6;"/><glyph d="M89 134l128 128-128 128 81 81 128-128 128 128 80-81-128-128 128-128-80-80-128 128-128-128z" glyph-name="multiply" horiz-adv-x="590" unicode="&#xd7;"/><glyph d="M67-59l-52 53 119 119q-31 39-50 87-23 60-23 125 0 75 26.5 146t77.5 125.5 127 88 175 33.5q76 0 137-28 37-16 67-40l119 119 53-53-118-118q32-40 51-88 24-60 24-125 0-75-26-146t-77.5-125.5-127.5-88-175-33.5q-76 0-138 27-38 17-69 41zM326 162q35-16 81-16 53 0 96 18t73 49 46.5 72 16.5 86q0 37-12 72-7 21-19 39l-306-307q11-7 24-13zM222 339q0-38 11-73 7-20 17-37l306 306q-10 7-22 13-34 16-80 16-53 0-96-18t-73-49-46.5-72-16.5-86z" glyph-name="Oslash" horiz-adv-x="817" unicode="&#xd8;"/><glyph d="M656 288q-17-78-43.5-134t-66.5-92-94-53-126-17q-62 0-114 24t-86.5 66.5-47.5 101.5 2 130l84 396h160l-88-413q-8-40-2.5-68.5t20.5-47 38.5-27 52.5-8.5q59 0 97 34t53 106l90 424h161zM305 913h158l39-145h-102z" glyph-name="Ugrave" horiz-adv-x="717" unicode="&#xd9;"/><glyph d="M656 288q-17-78-43.5-134t-66.5-92-94-53-126-17q-62 0-114 24t-86.5 66.5-47.5 101.5 2 130l84 396h160l-88-413q-8-40-2.5-68.5t20.5-47 38.5-27 52.5-8.5q59 0 97 34t53 106l90 424h161zM505 913h172l-157-145h-116z" glyph-name="Uacute" horiz-adv-x="717" unicode="&#xda;"/><glyph d="M656 288q-17-78-43.5-134t-66.5-92-94-53-126-17q-62 0-114 24t-86.5 66.5-47.5 101.5 2 130l84 396h160l-88-413q-8-40-2.5-68.5t20.5-47 38.5-27 52.5-8.5q59 0 97 34t53 106l90 424h161zM297 848l192 83 156-83-44-89-120 62-145-62z" glyph-name="Ucircumflex" horiz-adv-x="717" unicode="&#xdb;"/><glyph d="M656 288q-17-78-43.5-134t-66.5-92-94-53-126-17q-62 0-114 24t-86.5 66.5-47.5 101.5 2 130l84 396h160l-88-413q-8-40-2.5-68.5t20.5-47 38.5-27 52.5-8.5q59 0 97 34t53 106l90 424h161zM676 850q0-33-23.5-56.5t-56.5-23.5-56.5 23.5-23.5 56.5 23.5 56.5 56.5 23.5 56.5-23.5 23.5-56.5zM438 850q0-33-23.5-56.5t-56.5-23.5-56.5 23.5-23.5 56.5 23.5 56.5 56.5 23.5 56.5-23.5 23.5-56.5z" glyph-name="Udieresis" horiz-adv-x="717" unicode="&#xdc;"/><glyph d="M270 298l-175 412h168l105-257 215 257h198l-351-412-63-298h-160zM475 913h172l-157-145h-116z" glyph-name="Yacute" horiz-adv-x="680" unicode="&#xdd;"/><glyph d="M174 710h160l-24-114h48q55 0 97-17t70-45.5 42.5-66.5 14.5-80q0-54-19.5-103t-57.5-87-94.5-60.5-129.5-22.5h-74l-24-114h-160zM307 263q49 0 82.5 28.5t33.5 72.5q0 16-5 30.5t-15.5 26-27.5 18.5-40 7h-57l-39-183h68z" glyph-name="Thorn" horiz-adv-x="591" unicode="&#xde;"/><glyph d="M210-32q71 0 108.5 28.5t37.5 82.5q0 43-30 66t-73 23l25 117 61 83h-103l-78-368h-152l118 556q15 72 61 113t125 41h103l-29-138h-46q-31 0-47.5-13.5t-23.5-45.5l-3-13h320l-167-230q46-30 68.5-76.5t22.5-105.5q0-58-22-107.5t-64.5-86-104-57.5-139.5-21z" glyph-name="germandbls" horiz-adv-x="578" unicode="&#xdf;"/><glyph d="M351 30q-24-19-54.5-28.5t-62.5-9.5q-43 0-80 18t-64.5 49-43 70.5-15.5 83.5q0 62 20.5 116t58 93.5 89.5 62.5 115 23q35 0 65.5-9t53.5-29l7 30h149l-106-500h-136zM276 130q24 0 48 8.5t43 24.5l36 172q-17 19-40 27t-47 8q-27 0-51.5-10t-43-28-29-43-10.5-56q0-50 26-76.5t68-26.5zM197 710h162l47-160h-98z" glyph-name="agrave" horiz-adv-x="595" unicode="&#xe0;"/><glyph d="M351 30q-24-19-54.5-28.5t-62.5-9.5q-43 0-80 18t-64.5 49-43 70.5-15.5 83.5q0 62 20.5 116t58 93.5 89.5 62.5 115 23q35 0 65.5-9t53.5-29l7 30h149l-106-500h-136zM276 130q24 0 48 8.5t43 24.5l36 172q-17 19-40 27t-47 8q-27 0-51.5-10t-43-28-29-43-10.5-56q0-50 26-76.5t68-26.5zM430 710h178l-182-160h-115z" glyph-name="aacute" horiz-adv-x="595" unicode="&#xe1;"/><glyph d="M351 30q-24-19-54.5-28.5t-62.5-9.5q-43 0-80 18t-64.5 49-43 70.5-15.5 83.5q0 62 20.5 116t58 93.5 89.5 62.5 115 23q35 0 65.5-9t53.5-29l7 30h149l-106-500h-136zM276 130q24 0 48 8.5t43 24.5l36 172q-17 19-40 27t-47 8q-27 0-51.5-10t-43-28-29-43-10.5-56q0-50 26-76.5t68-26.5zM209 634l197 94 152-99-54-83-111 68-142-68z" glyph-name="acircumflex" horiz-adv-x="595" unicode="&#xe2;"/><glyph d="M351 30q-24-19-54.5-28.5t-62.5-9.5q-43 0-80 18t-64.5 49-43 70.5-15.5 83.5q0 62 20.5 116t58 93.5 89.5 62.5 115 23q35 0 65.5-9t53.5-29l7 30h149l-106-500h-136zM276 130q24 0 48 8.5t43 24.5l36 172q-17 19-40 27t-47 8q-27 0-51.5-10t-43-28-29-43-10.5-56q0-50 26-76.5t68-26.5zM175 554q21 76 59 110.5t84 34.5q22 0 39-6.5t32-14 28-13.5 27-6q17 0 26.5 9.5t20.5 32.5h101q-23-78-59.5-111.5t-82.5-33.5q-22 0-39.5 6t-32.5 13.5-28.5 14-26.5 6.5q-17 0-26.5-9.5t-20.5-32.5h-101z" glyph-name="atilde" horiz-adv-x="595" unicode="&#xe3;"/><glyph d="M351 30q-24-19-54.5-28.5t-62.5-9.5q-43 0-80 18t-64.5 49-43 70.5-15.5 83.5q0 62 20.5 116t58 93.5 89.5 62.5 115 23q35 0 65.5-9t53.5-29l7 30h149l-106-500h-136zM276 130q24 0 48 8.5t43 24.5l36 172q-17 19-40 27t-47 8q-27 0-51.5-10t-43-28-29-43-10.5-56q0-50 26-76.5t68-26.5zM587 647q0-33-23.5-56.5t-56.5-23.5-56.5 23.5-23.5 56.5 23.5 56.5 56.5 23.5 56.5-23.5 23.5-56.5zM349 647q0-33-23.5-56.5t-56.5-23.5-56.5 23.5-23.5 56.5 23.5 56.5 56.5 23.5 56.5-23.5 23.5-56.5z" glyph-name="adieresis" horiz-adv-x="595" unicode="&#xe4;"/><glyph d="M351 30q-24-19-54.5-28.5t-62.5-9.5q-43 0-80 18t-64.5 49-43 70.5-15.5 83.5q0 62 20.5 116t58 93.5 89.5 62.5 115 23q35 0 65.5-9t53.5-29l7 30h149l-106-500h-136zM276 130q24 0 48 8.5t43 24.5l36 172q-17 19-40 27t-47 8q-27 0-51.5-10t-43-28-29-43-10.5-56q0-50 26-76.5t68-26.5zM512 666q0-25-9.5-46.5t-26-38-38-26-46.5-9.5-46.5 9.5-38 26-26 38-9.5 46.5 9.5 46.5 26 38 38 26 46.5 9.5 46.5-9.5 38-26 26-38 9.5-46.5zM345 666q0-20 13.5-33.5t33.5-13.5 33.5 13.5 13.5 33.5-13.5 33.5-33.5 13.5-33.5-13.5-13.5-33.5z" glyph-name="aring" horiz-adv-x="595" unicode="&#xe5;"/><glyph d="M798 100q-39-51-97-79.5t-129-28.5q-47 0-91.5 15.5t-76.5 47.5q-49-34-102-48.5t-113-14.5q-37 0-70 9t-57.5 27-38.5 45.5-14 63.5q0 80 56.5 125t162.5 45q62 0 111-26l3 19q0 38-30 53.5t-71 15.5q-35 0-71-8.5t-60-21.5l9 141q79 28 157 28 45 0 83.5-15.5t70.5-50.5q41 35 90 50.5t100 15.5q58 0 103-20t73.5-57 39.5-90 0-118h-356q6-48 34.5-69t62.5-21q38 0 64 14.5t46 38.5zM606 387q-14 0-31-3.5t-33-12.5-30-23.5-23-36.5h210q0 41-28.5 58.5t-64.5 17.5zM208 118q31 0 58.5 9t44.5 26l6 28q-32 23-90 23-33 0-55.5-12.5t-22.5-35.5q0-22 19-30t40-8z" glyph-name="ae" horiz-adv-x="869" unicode="&#xe6;"/><glyph d="M496 99q-39-49-97-78t-129-29q-57 0-101 19.5t-74.5 52-46 75-15.5 88.5q0 60 21 111t58.5 89 90 59.5 115.5 21.5q40 0 73.5-11t60.5-29 46.5-42 31.5-50l-125-74q-14 30-41 47.5t-59 17.5q-53 0-86.5-36t-33.5-91q0-51 28-79t70-28q34 0 60.5 15t45.5 40zM215 0h104l-80-165h-129z" glyph-name="ccedilla" horiz-adv-x="534" unicode="&#xe7;"/><glyph d="M275 133q38 0 64 14.5t46 38.5l111-86q-39-51-97-79.5t-129-28.5q-57 0-101 19.5t-74.5 52-46 75-15.5 88.5q0 58 20.5 109.5t57.5 89.5 89.5 60 117.5 22q58 0 103-19.5t73.5-56.5 39-90 .5-119h-357q4-24 13.5-41.5t23-28 29.5-15.5 32-5zM304 387q-14 0-30.5-5.5t-32-15.5-30-24-23.5-31h209q1 20-7 34.5t-21 23.5-30 13.5-35 4.5zM159 710h162l47-160h-98z" glyph-name="egrave" horiz-adv-x="567" unicode="&#xe8;"/><glyph d="M275 133q38 0 64 14.5t46 38.5l111-86q-39-51-97-79.5t-129-28.5q-57 0-101 19.5t-74.5 52-46 75-15.5 88.5q0 58 20.5 109.5t57.5 89.5 89.5 60 117.5 22q58 0 103-19.5t73.5-56.5 39-90 .5-119h-357q4-24 13.5-41.5t23-28 29.5-15.5 32-5zM304 387q-14 0-30.5-5.5t-32-15.5-30-24-23.5-31h209q1 20-7 34.5t-21 23.5-30 13.5-35 4.5zM392 710h178l-182-160h-115z" glyph-name="eacute" horiz-adv-x="567" unicode="&#xe9;"/><glyph d="M275 133q38 0 64 14.5t46 38.5l111-86q-39-51-97-79.5t-129-28.5q-57 0-101 19.5t-74.5 52-46 75-15.5 88.5q0 58 20.5 109.5t57.5 89.5 89.5 60 117.5 22q58 0 103-19.5t73.5-56.5 39-90 .5-119h-357q4-24 13.5-41.5t23-28 29.5-15.5 32-5zM304 387q-14 0-30.5-5.5t-32-15.5-30-24-23.5-31h209q1 20-7 34.5t-21 23.5-30 13.5-35 4.5zM171 634l197 94 152-99-54-83-111 68-142-68z" glyph-name="ecircumflex" horiz-adv-x="567" unicode="&#xea;"/><glyph d="M275 133q38 0 64 14.5t46 38.5l111-86q-39-51-97-79.5t-129-28.5q-57 0-101 19.5t-74.5 52-46 75-15.5 88.5q0 58 20.5 109.5t57.5 89.5 89.5 60 117.5 22q58 0 103-19.5t73.5-56.5 39-90 .5-119h-357q4-24 13.5-41.5t23-28 29.5-15.5 32-5zM304 387q-14 0-30.5-5.5t-32-15.5-30-24-23.5-31h209q1 20-7 34.5t-21 23.5-30 13.5-35 4.5zM549 647q0-33-23.5-56.5t-56.5-23.5-56.5 23.5-23.5 56.5 23.5 56.5 56.5 23.5 56.5-23.5 23.5-56.5zM311 647q0-33-23.5-56.5t-56.5-23.5-56.5 23.5-23.5 56.5 23.5 56.5 56.5 23.5 56.5-23.5 23.5-56.5z" glyph-name="edieresis" horiz-adv-x="567" unicode="&#xeb;"/><glyph d="M112 500h152l-106-500h-152zM29 710h162l47-160h-98z" glyph-name="igrave" horiz-adv-x="270" unicode="&#xec;"/><glyph d="M112 500h152l-106-500h-152zM262 710h178l-182-160h-115z" glyph-name="iacute" horiz-adv-x="270" unicode="&#xed;"/><glyph d="M112 500h152l-106-500h-152zM41 634l197 94 152-99-54-83-111 68-142-68z" glyph-name="icircumflex" horiz-adv-x="270" unicode="&#xee;"/><glyph d="M112 500h152l-106-500h-152zM126 567q-32 0-56 22.5t-24 57.5q0 33 23.5 56.5t56.5 23.5 56.5-23.5 23.5-56.5q0-17-6.5-31.5t-17.5-25.5-25.5-17-30.5-6zM314 567q-32 0-56 22.5t-24 57.5q0 33 23.5 56.5t56.5 23.5 56.5-23.5 23.5-56.5q0-17-6.5-31.5t-17.5-25.5-25.5-17-30.5-6z" glyph-name="idieresis" horiz-adv-x="270" unicode="&#xef;"/><glyph d="M197 638h73l-30 72h149l31-72h126l-14-65h-84l75-175q13-30 22.5-60.5t9.5-63.5q0-59-22-110.5t-60-89.5-90-60-113-22q-57 0-101 19.5t-74.5 52-46 75-15.5 88.5q0 58 21.5 109.5t60 89.5 90.5 60 113 22h7l-27 65h-115zM185 240q0-51 28-79t70-28q53 0 86.5 36t33.5 92q0 50-28 78t-70 28q-53 0-86.5-36t-33.5-91z" glyph-name="eth" horiz-adv-x="587" unicode="&#xf0;"/><glyph d="M112 500h149l-7-40q26 23 58 35.5t75 12.5q47 0 82-20.5t56-54 27-75.5-4-84l-58-274h-151l55 261q4 22 3.5 41.5t-8 34.5-23 24-41.5 9q-25 0-51-12t-49-38l-68-320h-151zM182 554q21 76 59 110.5t84 34.5q22 0 39-6.5t32-14 28-13.5 27-6q17 0 26.5 9.5t20.5 32.5h101q-23-78-59.5-111.5t-82.5-33.5q-22 0-39.5 6t-32.5 13.5-28.5 14-26.5 6.5q-17 0-26.5-9.5t-20.5-32.5h-101z" glyph-name="ntilde" horiz-adv-x="594" unicode="&#xf1;"/><glyph d="M555 274q0-60-21-111.5t-58.5-89.5-90-59.5-115.5-21.5q-57 0-101 19.5t-74.5 52-46 75-15.5 88.5q0 60 21 111t58.5 89 90 59.5 115.5 21.5q57 0 101-19.5t74.5-52 46-74.5 15.5-88zM185 240q0-50 28-78.5t70-28.5q26 0 48 9.5t38 27 25 41 9 50.5q0 50-28 78t-70 28q-53 0-86.5-36t-33.5-91zM159 710h162l47-160h-98z" glyph-name="ograve" horiz-adv-x="588" unicode="&#xf2;"/><glyph d="M555 274q0-60-21-111.5t-58.5-89.5-90-59.5-115.5-21.5q-57 0-101 19.5t-74.5 52-46 75-15.5 88.5q0 60 21 111t58.5 89 90 59.5 115.5 21.5q57 0 101-19.5t74.5-52 46-74.5 15.5-88zM185 240q0-50 28-78.5t70-28.5q26 0 48 9.5t38 27 25 41 9 50.5q0 50-28 78t-70 28q-53 0-86.5-36t-33.5-91zM392 710h178l-182-160h-115z" glyph-name="oacute" horiz-adv-x="588" unicode="&#xf3;"/><glyph d="M555 274q0-60-21-111.5t-58.5-89.5-90-59.5-115.5-21.5q-57 0-101 19.5t-74.5 52-46 75-15.5 88.5q0 60 21 111t58.5 89 90 59.5 115.5 21.5q57 0 101-19.5t74.5-52 46-74.5 15.5-88zM185 240q0-50 28-78.5t70-28.5q26 0 48 9.5t38 27 25 41 9 50.5q0 50-28 78t-70 28q-53 0-86.5-36t-33.5-91zM171 634l197 94 152-99-54-83-111 68-142-68z" glyph-name="ocircumflex" horiz-adv-x="588" unicode="&#xf4;"/><glyph d="M555 274q0-60-21-111.5t-58.5-89.5-90-59.5-115.5-21.5q-57 0-101 19.5t-74.5 52-46 75-15.5 88.5q0 60 21 111t58.5 89 90 59.5 115.5 21.5q57 0 101-19.5t74.5-52 46-74.5 15.5-88zM185 240q0-50 28-78.5t70-28.5q26 0 48 9.5t38 27 25 41 9 50.5q0 50-28 78t-70 28q-53 0-86.5-36t-33.5-91zM137 554q21 76 59 110.5t84 34.5q22 0 39-6.5t32-14 28-13.5 27-6q17 0 26.5 9.5t20.5 32.5h101q-23-78-59.5-111.5t-82.5-33.5q-22 0-39.5 6t-32.5 13.5-28.5 14-26.5 6.5q-17 0-26.5-9.5t-20.5-32.5h-101z" glyph-name="otilde" horiz-adv-x="588" unicode="&#xf5;"/><glyph d="M555 274q0-60-21-111.5t-58.5-89.5-90-59.5-115.5-21.5q-57 0-101 19.5t-74.5 52-46 75-15.5 88.5q0 60 21 111t58.5 89 90 59.5 115.5 21.5q57 0 101-19.5t74.5-52 46-74.5 15.5-88zM185 240q0-50 28-78.5t70-28.5q26 0 48 9.5t38 27 25 41 9 50.5q0 50-28 78t-70 28q-53 0-86.5-36t-33.5-91zM549 647q0-33-23.5-56.5t-56.5-23.5-56.5 23.5-23.5 56.5 23.5 56.5 56.5 23.5 56.5-23.5 23.5-56.5zM311 647q0-33-23.5-56.5t-56.5-23.5-56.5 23.5-23.5 56.5 23.5 56.5 56.5 23.5 56.5-23.5 23.5-56.5z" glyph-name="odieresis" horiz-adv-x="588" unicode="&#xf6;"/><glyph d="M302 369q-33 0-56.5 23.5t-23.5 56.5 23.5 56.5 56.5 23.5 56.5-23.5 23.5-56.5-23.5-56.5-56.5-23.5zM84 339h436v-114h-436v114zM302 35q-33 0-56.5 23.5t-23.5 56.5 23.5 56.5 56.5 23.5 56.5-23.5 23.5-56.5-23.5-56.5-56.5-23.5z" glyph-name="divide" horiz-adv-x="590" unicode="&#xf7;"/><glyph d="M583 559l46-54-109-99q14-21 22-44 16-42 16-88 0-60-21-111.5t-58.5-89.5-90-59.5-115.5-21.5q-57 0-101 19-29 13-53 31l-110-100-45 54 108 99q-12 20-21 43-15 43-15 89 0 60 21 111t58.5 89 90 59.5 115.5 21.5q57 0 101-20 28-12 50-30zM286 133q26 0 48 9.5t38 27 25 41 9 50.5q0 20-5 37l-167-152q23-13 52-13zM188 240q0-20 4-36l166 150q-22 13-50 13-53 0-86.5-36t-33.5-91z" glyph-name="oslash" horiz-adv-x="593" unicode="&#xf8;"/><glyph d="M340 40q-26-23-59-35.5t-76-12.5q-40 0-74 17t-56.5 49.5-30 78.5 4.5 104l55 259h151l-53-252q-11-52 2.5-85t64.5-33q29 0 55.5 13t46.5 45l66 312h151l-106-500h-149zM186 710h162l47-160h-98z" glyph-name="ugrave" horiz-adv-x="594" unicode="&#xf9;"/><glyph d="M340 40q-26-23-59-35.5t-76-12.5q-40 0-74 17t-56.5 49.5-30 78.5 4.5 104l55 259h151l-53-252q-11-52 2.5-85t64.5-33q29 0 55.5 13t46.5 45l66 312h151l-106-500h-149zM419 710h178l-182-160h-115z" glyph-name="uacute" horiz-adv-x="594" unicode="&#xfa;"/><glyph d="M340 40q-26-23-59-35.5t-76-12.5q-40 0-74 17t-56.5 49.5-30 78.5 4.5 104l55 259h151l-53-252q-11-52 2.5-85t64.5-33q29 0 55.5 13t46.5 45l66 312h151l-106-500h-149zM198 634l197 94 152-99-54-83-111 68-142-68z" glyph-name="ucircumflex" horiz-adv-x="594" unicode="&#xfb;"/><glyph d="M340 40q-26-23-59-35.5t-76-12.5q-40 0-74 17t-56.5 49.5-30 78.5 4.5 104l55 259h151l-53-252q-11-52 2.5-85t64.5-33q29 0 55.5 13t46.5 45l66 312h151l-106-500h-149zM576 647q0-33-23.5-56.5t-56.5-23.5-56.5 23.5-23.5 56.5 23.5 56.5 56.5 23.5 56.5-23.5 23.5-56.5zM338 647q0-33-23.5-56.5t-56.5-23.5-56.5 23.5-23.5 56.5 23.5 56.5 56.5 23.5 56.5-23.5 23.5-56.5z" glyph-name="udieresis" horiz-adv-x="594" unicode="&#xfc;"/><glyph d="M131 0l-79 500h155l39-315 169 315h165l-398-684h-158zM384 710h178l-182-160h-115z" glyph-name="yacute" horiz-adv-x="524" unicode="&#xfd;"/><glyph d="M157 710h152l-55-233q46 31 105 31 45 0 83-18t65.5-49 42.5-71 15-83q0-62-19-116t-55-93.5-89-62.5-120-23q-35 0-65.5 8.5t-53.5 28.5l-45-213h-151zM320 370q-24 0-48-8.5t-43-25.5l-37-171q17-20 40-27.5t48-7.5q27 0 51.5 10t43 28 29 43 10.5 56q0 50-26 76.5t-68 26.5z" glyph-name="thorn" horiz-adv-x="597" unicode="&#xfe;"/><glyph d="M131 0l-79 500h155l39-315 169 315h165l-398-684h-158zM541 647q0-33-23.5-56.5t-56.5-23.5-56.5 23.5-23.5 56.5 23.5 56.5 56.5 23.5 56.5-23.5 23.5-56.5zM303 647q0-33-23.5-56.5t-56.5-23.5-56.5 23.5-23.5 56.5 23.5 56.5 56.5 23.5 56.5-23.5 23.5-56.5z" glyph-name="ydieresis" horiz-adv-x="524" unicode="&#xff;"/><glyph d="M443 110h-259l-75-110h-178l503 718 197-718h-160zM410 240l-38 146-99-146h137zM649 950q-5-87-56.5-135.5t-141.5-48.5q-41 0-73 13.5t-54 37.5-33.5 58-10.5 75h86q1-28 8.5-47t20-30.5 29-16.5 36.5-5q40 0 68 22.5t35 76.5h86z" glyph-name="Abreve" horiz-adv-x="669" unicode="&#x102;"/><glyph d="M443 110h-259l-75-110h-178l503 718 197-718h-160zM410 240l-38 146-99-146h137zM307 902h330l-23-106h-330z" glyph-name="Amacron" horiz-adv-x="669" unicode="&#x100;"/><glyph d="M507-188q-38 0-65 22.5t-27 60.5q0 29 15.5 55.5t40.5 49.5l-28 110h-259l-75-110h-178l503 718 197-718q-40-19-56-34t-16-29q0-11 6.5-17.5t17.5-6.5q10 0 18.5 4.5t13.5 8.5l-18-87q-19-16-42.5-21.5t-47.5-5.5zM410 240l-38 146-99-146h137z" glyph-name="Aogonek" horiz-adv-x="669" unicode="&#x104;"/><glyph d="M705 123q-53-63-132-97t-178-34q-77 0-138.5 27.5t-104.5 74-66.5 107.5-23.5 128q0 75 26.5 145t78 124 127.5 87 176 33 174.5-43.5 115.5-111.5l-133-91q-24 39-69 65.5t-103 26.5q-53 0-96-18t-73-48-46.5-70-16.5-85q0-39 11-75t34-63 58-43 82-16q61 0 108.5 24t77.5 63zM528 913h172l-157-145h-116z" glyph-name="Cacute" horiz-adv-x="731" unicode="&#x106;"/><glyph d="M705 123q-53-63-132-97t-178-34q-77 0-138.5 27.5t-104.5 74-66.5 107.5-23.5 128q0 75 26.5 145t78 124 127.5 87 176 33 174.5-43.5 115.5-111.5l-133-91q-24 39-69 65.5t-103 26.5q-53 0-96-18t-73-48-46.5-70-16.5-85q0-39 11-75t34-63 58-43 82-16q61 0 108.5 24t77.5 63zM674 839l-195-80-156 83 46 89 119-62 148 62z" glyph-name="Ccaron" horiz-adv-x="731" unicode="&#x10c;"/><glyph d="M705 123q-53-63-132-97t-178-34q-77 0-138.5 27.5t-104.5 74-66.5 107.5-23.5 128q0 75 26.5 145t78 124 127.5 87 176 33 174.5-43.5 115.5-111.5l-133-91q-24 39-69 65.5t-103 26.5q-53 0-96-18t-73-48-46.5-70-16.5-85q0-39 11-75t34-63 58-43 82-16q61 0 108.5 24t77.5 63zM320 848l192 83 156-83-44-89-120 62-145-62z" glyph-name="Ccircumflex" horiz-adv-x="731" unicode="&#x108;"/><glyph d="M705 123q-53-63-132-97t-178-34q-77 0-138.5 27.5t-104.5 74-66.5 107.5-23.5 128q0 75 26.5 145t78 124 127.5 87 176 33 174.5-43.5 115.5-111.5l-133-91q-24 39-69 65.5t-103 26.5q-53 0-96-18t-73-48-46.5-70-16.5-85q0-39 11-75t34-63 58-43 82-16q61 0 108.5 24t77.5 63zM500 770q-32 0-56 22.5t-24 57.5q0 33 23.5 56.5t56.5 23.5 56.5-23.5 23.5-56.5q0-17-6.5-31.5t-17.5-25.5-25.5-17-30.5-6z" glyph-name="Cdotaccent" horiz-adv-x="731" unicode="&#x10a;"/><glyph d="M174 710h230q72 0 130-25t98.5-66 62-94.5 21.5-111.5q0-108-33-186t-91-128.5-137-74.5-171-24h-261zM297 146q51 0 97.5 16t82 47 56 75 20.5 101q0 37-11 70t-32.5 57-52.5 38-71 14h-83l-89-418h83zM631 839l-195-80-156 83 46 89 119-62 148 62z" glyph-name="Dcaron" horiz-adv-x="732" unicode="&#x10e;"/><glyph d="M196 710h230q72 0 130-25t98.5-66 62-94.5 21.5-111.5q0-108-33-186t-91-128.5-137-74.5-171-24h-261zM319 146q51 0 97.5 16t82 47 56 75 20.5 101q0 37-11 70t-32.5 57-52.5 38-71 14h-83l-89-418h83zM40 392h338l-15-74h-338z" glyph-name="Dcroat" horiz-adv-x="754" unicode="&#x110;"/><glyph d="M174 710h440l-34-158h-280l-25-120h220l-33-154h-220l-25-120h280l-34-158h-440zM612 950q-5-87-56.5-135.5t-141.5-48.5q-41 0-73 13.5t-54 37.5-33.5 58-10.5 75h86q1-28 8.5-47t20-30.5 29-16.5 36.5-5q40 0 68 22.5t35 76.5h86z" glyph-name="Ebreve" horiz-adv-x="564" unicode="&#x114;"/><glyph d="M174 710h440l-34-158h-280l-25-120h220l-33-154h-220l-25-120h280l-34-158h-440zM599 839l-195-80-156 83 46 89 119-62 148 62z" glyph-name="Ecaron" horiz-adv-x="564" unicode="&#x11a;"/><glyph d="M174 710h440l-34-158h-280l-25-120h220l-33-154h-220l-25-120h280l-34-158h-440zM270 902h330l-23-106h-330z" glyph-name="Emacron" horiz-adv-x="564" unicode="&#x112;"/><glyph d="M174 710h440l-34-158h-280l-25-120h220l-33-154h-220l-25-120h280l-34-158h-440zM339-188q-38 0-65 22.5t-27 60.5q0 29 15 55.5t40 49.5h161q-40-19-56-34t-16-29q0-11 6.5-17.5t17.5-6.5q10 0 18.5 4.5t13.5 8.5l-18-87q-19-16-42.5-21.5t-47.5-5.5z" glyph-name="Eogonek" horiz-adv-x="564" unicode="&#x118;"/><glyph d="M174 710h440l-34-158h-280l-25-120h220l-33-154h-220l-25-120h280l-34-158h-440zM425 770q-32 0-56 22.5t-24 57.5q0 33 23.5 56.5t56.5 23.5 56.5-23.5 23.5-56.5q0-17-6.5-31.5t-17.5-25.5-25.5-17-30.5-6z" glyph-name="Edotaccent" horiz-adv-x="564" unicode="&#x116;"/><glyph d="M676 79q-48-38-117.5-62.5t-165.5-24.5q-75 0-136.5 27t-104.5 72-66.5 103.5-23.5 122.5q0 79 25 151.5t76 128 127.5 88.5 179.5 33q99 0 173.5-43t116.5-112l-133-91q-26 39-70.5 65.5t-101.5 26.5q-56 0-99.5-18t-73-49.5-44.5-73.5-15-90q0-38 11.5-71.5t35-59.5 58-41 80.5-15q44 0 76 8t59 25l22 101h-171l99 150h257zM687 950q-5-87-56.5-135.5t-141.5-48.5q-41 0-73 13.5t-54 37.5-33.5 58-10.5 75h86q1-28 8.5-47t20-30.5 29-16.5 36.5-5q40 0 68 22.5t35 76.5h86z" glyph-name="Gbreve" horiz-adv-x="763" unicode="&#x11e;"/><glyph d="M676 79q-48-38-117.5-62.5t-165.5-24.5q-75 0-136.5 27t-104.5 72-66.5 103.5-23.5 122.5q0 79 25 151.5t76 128 127.5 88.5 179.5 33q99 0 173.5-43t116.5-112l-133-91q-26 39-70.5 65.5t-101.5 26.5q-56 0-99.5-18t-73-49.5-44.5-73.5-15-90q0-38 11.5-71.5t35-59.5 58-41 80.5-15q44 0 76 8t59 25l22 101h-171l99 150h257zM320 848l192 83 156-83-44-89-120 62-145-62z" glyph-name="Gcircumflex" horiz-adv-x="763" unicode="&#x11c;"/><glyph d="M676 79q-48-38-117.5-62.5t-165.5-24.5q-75 0-136.5 27t-104.5 72-66.5 103.5-23.5 122.5q0 79 25 151.5t76 128 127.5 88.5 179.5 33q99 0 173.5-43t116.5-112l-133-91q-26 39-70.5 65.5t-101.5 26.5q-56 0-99.5-18t-73-49.5-44.5-73.5-15-90q0-38 11.5-71.5t35-59.5 58-41 80.5-15q44 0 76 8t59 25l22 101h-171l99 150h257zM299-50h148l-113-165h-86z" glyph-name="uni0122" horiz-adv-x="763" unicode="&#x122;"/><glyph d="M676 79q-48-38-117.5-62.5t-165.5-24.5q-75 0-136.5 27t-104.5 72-66.5 103.5-23.5 122.5q0 79 25 151.5t76 128 127.5 88.5 179.5 33q99 0 173.5-43t116.5-112l-133-91q-26 39-70.5 65.5t-101.5 26.5q-56 0-99.5-18t-73-49.5-44.5-73.5-15-90q0-38 11.5-71.5t35-59.5 58-41 80.5-15q44 0 76 8t59 25l22 101h-171l99 150h257zM500 770q-32 0-56 22.5t-24 57.5q0 33 23.5 56.5t56.5 23.5 56.5-23.5 23.5-56.5q0-17-6.5-31.5t-17.5-25.5-25.5-17-30.5-6z" glyph-name="Gdotaccent" horiz-adv-x="763" unicode="&#x120;"/><glyph d="M182 710h160l-59-278h284l59 278h160l-151-710h-160l59 278h-284l-59-278h-160zM96 609h738l-16-74h-738z" glyph-name="Hbar" horiz-adv-x="775" unicode="&#x126;"/><glyph d="M174 710h160l-59-278h284l59 278h160l-151-710h-160l59 278h-284l-59-278h-160zM327 848l192 83 156-83-44-89-120 62-145-62z" glyph-name="Hcircumflex" horiz-adv-x="756" unicode="&#x124;"/><glyph d="M174 710h161l-151-710h-161zM470 950q-5-87-56.5-135.5t-141.5-48.5q-41 0-73 13.5t-54 37.5-33.5 58-10.5 75h86q1-28 8.5-47t20-30.5 29-16.5 36.5-5q40 0 68 22.5t35 76.5h86z" glyph-name="Ibreve" horiz-adv-x="313" unicode="&#x12c;"/><glyph d="M174 710h161l-151-710h-161zM283 770q-32 0-56 22.5t-24 57.5q0 33 23.5 56.5t56.5 23.5 56.5-23.5 23.5-56.5q0-17-6.5-31.5t-17.5-25.5-25.5-17-30.5-6z" glyph-name="Idotaccent" horiz-adv-x="313" unicode="&#x130;"/><glyph d="M174 710h161l-151-710h-161zM128 902h330l-23-106h-330z" glyph-name="Imacron" horiz-adv-x="313" unicode="&#x12a;"/><glyph d="M174 710h161l-151-710h-161zM60-188q-38 0-65 22.5t-27 60.5q0 29 15 55.5t40 49.5h161q-40-19-56-34t-16-29q0-11 6.5-17.5t17.5-6.5q10 0 18.5 4.5t13.5 8.5l-18-87q-19-16-42.5-21.5t-47.5-5.5z" glyph-name="Iogonek" horiz-adv-x="313" unicode="&#x12e;"/><glyph d="M174 710h161l-151-710h-161zM75 777q21 76 59 110.5t84 34.5q22 0 39-6.5t32-14 28-13.5 27-6q17 0 26.5 9.5t20.5 32.5h101q-23-78-59.5-111.5t-82.5-33.5q-22 0-39.5 6t-32.5 13.5-28.5 14-26.5 6.5q-17 0-26.5-9.5t-20.5-32.5h-101z" glyph-name="Itilde" horiz-adv-x="313" unicode="&#x128;"/><glyph d="M174 710h161l-151-710h-161zM77-206q-32 0-56 22.5t-24 57.5q0 33 23.5 56.5t56.5 23.5 56.5-23.5 23.5-56.5q0-17-6.5-31.5t-17.5-25.5-25.5-17-30.5-6z" glyph-name="uni1ECA" horiz-adv-x="313" unicode="&#x1eca;"/><glyph d="M445 202q-12-56-30.5-95.5t-47-65-69.5-37.5-98-12q-47 0-87 19t-66.5 51-38 74-1.5 89h160q-9-42 5.5-65t43.5-23 45 14.5 26 60.5l106 498h160zM323 848l192 83 156-83-44-89-120 62-145-62z" glyph-name="Jcircumflex" horiz-adv-x="527" unicode="&#x134;"/><glyph d="M174 710h160l-75-354 321 354h191l-341-376 195-334h-176l-195 332-71-332h-160zM229-50h148l-113-165h-86z" glyph-name="uni0136" horiz-adv-x="674" unicode="&#x136;"/><glyph d="M174 710h161l-117-551h275l-34-159h-436zM312 913h172l-157-145h-116z" glyph-name="Lacute" horiz-adv-x="531" unicode="&#x139;"/><glyph d="M174 710h161l-117-551h275l-34-159h-436zM557 710l-101-160h-100l53 160h148z" glyph-name="Lcaron" horiz-adv-x="535" unicode="&#x13d;"/><glyph d="M174 710h161l-117-551h275l-34-159h-436zM162-50h148l-113-165h-86z" glyph-name="uni013B" horiz-adv-x="531" unicode="&#x13b;"/><glyph d="M174 710h161l-117-551h275l-34-159h-436zM452 343q-32 0-56 22.5t-24 57.5q0 33 23.5 56.5t56.5 23.5 56.5-23.5 23.5-56.5q0-17-6.5-31.5t-17.5-25.5-25.5-17-30.5-6z" glyph-name="Ldot" horiz-adv-x="540" unicode="&#x13f;"/><glyph d="M246 710h161l-117-551h275l-34-159h-436zM13 287l445 226 34-67-445-227z" glyph-name="Lslash" horiz-adv-x="603" unicode="&#x141;"/><glyph d="M266 391l-83-391h-160l153 718 363-399 83 391h160l-153-718zM489 913h172l-157-145h-116z" glyph-name="Nacute" horiz-adv-x="760" unicode="&#x143;"/><glyph d="M266 391l-83-391h-160l153 718 363-399 83 391h160l-153-718zM635 839l-195-80-156 83 46 89 119-62 148 62z" glyph-name="Ncaron" horiz-adv-x="760" unicode="&#x147;"/><glyph d="M266 391l-83-391h-160l153 718 363-399 83 391h160l-153-718zM316-50h148l-113-165h-86z" glyph-name="uni0145" horiz-adv-x="760" unicode="&#x145;"/><glyph d="M555 19q-71-27-161-27-76 0-137.5 27.5t-105 74-67 106.5-23.5 125q0 75 26.5 146t77.5 125.5 127 88 175 33.5q66 0 121.5-21.5t97.5-58.5l15 72h440l-34-158h-280l-25-120h220l-33-154h-203q-9-32-22-62.5t-32-57.5h292l-34-158h-440zM222 339q0-38 11.5-72.5t35-61.5 58-43 80.5-16q53 0 96 18t73 49 46.5 72 16.5 86q0 37-12 72t-35 62-57.5 43-80.5 16q-53 0-96-18t-73-49-46.5-72-16.5-86z" glyph-name="OE" horiz-adv-x="1091" unicode="&#x152;"/><glyph d="M800 385q0-75-26-146t-77.5-125.5-127.5-88-175-33.5q-76 0-137.5 27.5t-105 74-67 106.5-23.5 125q0 75 26.5 146t77.5 125.5 127 88 175 33.5q76 0 137.5-27.5t105-74 67-106.5 23.5-125zM222 339q0-38 11.5-72.5t35-61.5 58-43 80.5-16q53 0 96 18t73 49 46.5 72 16.5 86q0 37-12 72t-35 62-57.5 43-80.5 16q-53 0-96-18t-73-49-46.5-72-16.5-86zM685 950q-5-87-56.5-135.5t-141.5-48.5q-41 0-73 13.5t-54 37.5-33.5 58-10.5 75h86q1-28 8.5-47t20-30.5 29-16.5 36.5-5q40 0 68 22.5t35 76.5h86z" glyph-name="Obreve" horiz-adv-x="817" unicode="&#x14e;"/><glyph d="M800 385q0-75-26-146t-77.5-125.5-127.5-88-175-33.5q-76 0-137.5 27.5t-105 74-67 106.5-23.5 125q0 75 26.5 146t77.5 125.5 127 88 175 33.5q76 0 137.5-27.5t105-74 67-106.5 23.5-125zM222 339q0-38 11.5-72.5t35-61.5 58-43 80.5-16q53 0 96 18t73 49 46.5 72 16.5 86q0 37-12 72t-35 62-57.5 43-80.5 16q-53 0-96-18t-73-49-46.5-72-16.5-86zM621 913h163l-157-145h-107zM427 913h163l-157-145h-107z" glyph-name="Ohungarumlaut" horiz-adv-x="817" unicode="&#x150;"/><glyph d="M800 385q0-75-26-146t-77.5-125.5-127.5-88-175-33.5q-76 0-137.5 27.5t-105 74-67 106.5-23.5 125q0 75 26.5 146t77.5 125.5 127 88 175 33.5q76 0 137.5-27.5t105-74 67-106.5 23.5-125zM222 339q0-38 11.5-72.5t35-61.5 58-43 80.5-16q53 0 96 18t73 49 46.5 72 16.5 86q0 37-12 72t-35 62-57.5 43-80.5 16q-53 0-96-18t-73-49-46.5-72-16.5-86zM343 902h330l-23-106h-330z" glyph-name="Omacron" horiz-adv-x="817" unicode="&#x14c;"/><glyph d="M800 385q0-75-26-146t-77.5-125.5-127.5-88-175-33.5q-76 0-137.5 27.5t-105 74-67 106.5-23.5 125q0 75 26.5 146t77.5 125.5 127 88 175 33.5q76 0 137.5-27.5t105-74 67-106.5 23.5-125zM222 339q0-38 11.5-72.5t35-61.5 58-43 80.5-16q53 0 96 18t73 49 46.5 72 16.5 86q0 37-12 72t-35 62-57.5 43-80.5 16q-53 0-96-18t-73-49-46.5-72-16.5-86zM366-206q-32 0-56 22.5t-24 57.5q0 33 23.5 56.5t56.5 23.5 56.5-23.5 23.5-56.5q0-17-6.5-31.5t-17.5-25.5-25.5-17-30.5-6z" glyph-name="uni1ECC" horiz-adv-x="817" unicode="&#x1ecc;"/><glyph d="M246 288h-3l-61-288h-159l151 710h226q50 0 89.5-16t67-42.5 42-60.5 14.5-69q0-48-15-87t-42-67.5-64-47-81-26.5l163-294h-169zM363 423q37 0 64 21.5t27 57.5q0 25-16.5 43.5t-44.5 18.5h-91l-30-141h91zM437 913h172l-157-145h-116z" glyph-name="Racute" horiz-adv-x="637" unicode="&#x154;"/><glyph d="M246 288h-3l-61-288h-159l151 710h226q50 0 89.5-16t67-42.5 42-60.5 14.5-69q0-48-15-87t-42-67.5-64-47-81-26.5l163-294h-169zM363 423q37 0 64 21.5t27 57.5q0 25-16.5 43.5t-44.5 18.5h-91l-30-141h91zM601 839l-195-80-156 83 46 89 119-62 148 62z" glyph-name="Rcaron" horiz-adv-x="637" unicode="&#x158;"/><glyph d="M246 288h-3l-61-288h-159l151 710h226q50 0 89.5-16t67-42.5 42-60.5 14.5-69q0-48-15-87t-42-67.5-64-47-81-26.5l163-294h-169zM363 423q37 0 64 21.5t27 57.5q0 25-16.5 43.5t-44.5 18.5h-91l-30-141h91zM212-50h148l-113-165h-86z" glyph-name="uni0156" horiz-adv-x="637" unicode="&#x156;"/><glyph d="M506 212q0-48-16.5-88.5t-47.5-70-75.5-45.5-101.5-16q-94 0-155.5 45.5t-90.5 117.5l138 79q20-50 46-71.5t68-21.5q28 0 49 14.5t21 40.5q0 21-14 37.5t-53 44.5l-36 26q-29 22-54 45t-43 47.5-28.5 52.5-10.5 60q0 50 17.5 89t47.5 65.5 70 40.5 84 14q32 0 63-5t60-19 55-38.5 49-62.5l-138-79q-20 36-42 45.5t-45 9.5q-24 0-41.5-12.5t-17.5-34.5q0-23 19-43.5t57-48.5l35-26q24-17 47-37.5t42-44.5 30.5-51.5 11.5-58.5zM408 913h172l-157-145h-116z" glyph-name="Sacute" horiz-adv-x="547" unicode="&#x15a;"/><glyph d="M506 212q0-48-16.5-88.5t-47.5-70-75.5-45.5-101.5-16q-94 0-155.5 45.5t-90.5 117.5l138 79q20-50 46-71.5t68-21.5q28 0 49 14.5t21 40.5q0 21-14 37.5t-53 44.5l-36 26q-29 22-54 45t-43 47.5-28.5 52.5-10.5 60q0 50 17.5 89t47.5 65.5 70 40.5 84 14q32 0 63-5t60-19 55-38.5 49-62.5l-138-79q-20 36-42 45.5t-45 9.5q-24 0-41.5-12.5t-17.5-34.5q0-23 19-43.5t57-48.5l35-26q24-17 47-37.5t42-44.5 30.5-51.5 11.5-58.5zM554 839l-195-80-156 83 46 89 119-62 148 62z" glyph-name="Scaron" horiz-adv-x="547" unicode="&#x160;"/><glyph d="M506 212q0-48-16.5-88.5t-47.5-70-75.5-45.5-101.5-16q-94 0-155.5 45.5t-90.5 117.5l138 79q20-50 46-71.5t68-21.5q28 0 49 14.5t21 40.5q0 21-14 37.5t-53 44.5l-36 26q-29 22-54 45t-43 47.5-28.5 52.5-10.5 60q0 50 17.5 89t47.5 65.5 70 40.5 84 14q32 0 63-5t60-19 55-38.5 49-62.5l-138-79q-20 36-42 45.5t-45 9.5q-24 0-41.5-12.5t-17.5-34.5q0-23 19-43.5t57-48.5l35-26q24-17 47-37.5t42-44.5 30.5-51.5 11.5-58.5zM216 0h104l-80-165h-129z" glyph-name="Scedilla" horiz-adv-x="547" unicode="&#x15e;"/><glyph d="M506 212q0-48-16.5-88.5t-47.5-70-75.5-45.5-101.5-16q-94 0-155.5 45.5t-90.5 117.5l138 79q20-50 46-71.5t68-21.5q28 0 49 14.5t21 40.5q0 21-14 37.5t-53 44.5l-36 26q-29 22-54 45t-43 47.5-28.5 52.5-10.5 60q0 50 17.5 89t47.5 65.5 70 40.5 84 14q32 0 63-5t60-19 55-38.5 49-62.5l-138-79q-20 36-42 45.5t-45 9.5q-24 0-41.5-12.5t-17.5-34.5q0-23 19-43.5t57-48.5l35-26q24-17 47-37.5t42-44.5 30.5-51.5 11.5-58.5zM200 848l192 83 156-83-44-89-120 62-145-62z" glyph-name="Scircumflex" horiz-adv-x="547" unicode="&#x15c;"/><glyph d="M506 212q0-48-16.5-88.5t-47.5-70-75.5-45.5-101.5-16q-94 0-155.5 45.5t-90.5 117.5l138 79q20-50 46-71.5t68-21.5q28 0 49 14.5t21 40.5q0 21-14 37.5t-53 44.5l-36 26q-29 22-54 45t-43 47.5-28.5 52.5-10.5 60q0 50 17.5 89t47.5 65.5 70 40.5 84 14q32 0 63-5t60-19 55-38.5 49-62.5l-138-79q-20 36-42 45.5t-45 9.5q-24 0-41.5-12.5t-17.5-34.5q0-23 19-43.5t57-48.5l35-26q24-17 47-37.5t42-44.5 30.5-51.5 11.5-58.5zM171-50h148l-113-165h-86z" glyph-name="uni0218" horiz-adv-x="547" unicode="&#x218;"/><glyph d="M253 552h-169l34 158h501l-34-158h-169l-117-552h-163zM572 839l-195-80-156 83 46 89 119-62 148 62z" glyph-name="Tcaron" horiz-adv-x="542" unicode="&#x164;"/><glyph d="M253 552h-169l34 158h501l-34-158h-169l-117-552h-163zM123-50h148l-113-165h-86z" glyph-name="uni0162" horiz-adv-x="542" unicode="&#x162;"/><glyph d="M253 552h-169l34 158h501l-34-158h-169l-117-552h-163zM123-50h148l-113-165h-86z" glyph-name="uni021A" horiz-adv-x="542" unicode="&#x21a;"/><glyph d="M656 288q-17-78-43.5-134t-66.5-92-94-53-126-17q-62 0-114 24t-86.5 66.5-47.5 101.5 2 130l84 396h160l-88-413q-8-40-2.5-68.5t20.5-47 38.5-27 52.5-8.5q59 0 97 34t53 106l90 424h161zM664 950q-5-87-56.5-135.5t-141.5-48.5q-41 0-73 13.5t-54 37.5-33.5 58-10.5 75h86q1-28 8.5-47t20-30.5 29-16.5 36.5-5q40 0 68 22.5t35 76.5h86z" glyph-name="Ubreve" horiz-adv-x="717" unicode="&#x16c;"/><glyph d="M656 288q-17-78-43.5-134t-66.5-92-94-53-126-17q-62 0-114 24t-86.5 66.5-47.5 101.5 2 130l84 396h160l-88-413q-8-40-2.5-68.5t20.5-47 38.5-27 52.5-8.5q59 0 97 34t53 106l90 424h161zM600 913h163l-157-145h-107zM406 913h163l-157-145h-107z" glyph-name="Uhungarumlaut" horiz-adv-x="717" unicode="&#x170;"/><glyph d="M656 288q-17-78-43.5-134t-66.5-92-94-53-126-17q-62 0-114 24t-86.5 66.5-47.5 101.5 2 130l84 396h160l-88-413q-8-40-2.5-68.5t20.5-47 38.5-27 52.5-8.5q59 0 97 34t53 106l90 424h161zM322 902h330l-23-106h-330z" glyph-name="Umacron" horiz-adv-x="717" unicode="&#x16a;"/><glyph d="M656 288q-17-78-43.5-134t-66.5-92-94-53-126-17q-62 0-114 24t-86.5 66.5-47.5 101.5 2 130l84 396h160l-88-413q-8-40-2.5-68.5t20.5-47 38.5-27 52.5-8.5q59 0 97 34t53 106l90 424h161zM291-188q-38 0-65 22.5t-27 60.5q0 29 15 55.5t40 49.5h161q-40-19-56-34t-16-29q0-11 6.5-17.5t17.5-6.5q10 0 18.5 4.5t13.5 8.5l-18-87q-19-16-42.5-21.5t-47.5-5.5z" glyph-name="Uogonek" horiz-adv-x="717" unicode="&#x172;"/><glyph d="M656 288q-17-78-43.5-134t-66.5-92-94-53-126-17q-62 0-114 24t-86.5 66.5-47.5 101.5 2 130l84 396h160l-88-413q-8-40-2.5-68.5t20.5-47 38.5-27 52.5-8.5q59 0 97 34t53 106l90 424h161zM603 879q0-25-9.5-46.5t-26-38-38-26-46.5-9.5-46.5 9.5-38 26-26 38-9.5 46.5 9.5 46.5 26 38 38 26 46.5 9.5 46.5-9.5 38-26 26-38 9.5-46.5zM436 879q0-20 13.5-33.5t33.5-13.5 33.5 13.5 13.5 33.5-13.5 33.5-33.5 13.5-33.5-13.5-13.5-33.5z" glyph-name="Uring" horiz-adv-x="717" unicode="&#x16e;"/><glyph d="M656 288q-17-78-43.5-134t-66.5-92-94-53-126-17q-62 0-114 24t-86.5 66.5-47.5 101.5 2 130l84 396h160l-88-413q-8-40-2.5-68.5t20.5-47 38.5-27 52.5-8.5q59 0 97 34t53 106l90 424h161zM269 777q21 76 59 110.5t84 34.5q22 0 39-6.5t32-14 28-13.5 27-6q17 0 26.5 9.5t20.5 32.5h101q-23-78-59.5-111.5t-82.5-33.5q-22 0-39.5 6t-32.5 13.5-28.5 14-26.5 6.5q-17 0-26.5-9.5t-20.5-32.5h-101z" glyph-name="Utilde" horiz-adv-x="717" unicode="&#x168;"/><glyph d="M656 288q-17-78-43.5-134t-66.5-92-94-53-126-17q-62 0-114 24t-86.5 66.5-47.5 101.5 2 130l84 396h160l-88-413q-8-40-2.5-68.5t20.5-47 38.5-27 52.5-8.5q59 0 97 34t53 106l90 424h161zM299-206q-32 0-56 22.5t-24 57.5q0 33 23.5 56.5t56.5 23.5 56.5-23.5 23.5-56.5q0-17-6.5-31.5t-17.5-25.5-25.5-17-30.5-6z" glyph-name="uni1EE4" horiz-adv-x="717" unicode="&#x1ee4;"/><glyph d="M93 710h159l38-329 234 337 82-350 186 342h167l-399-718-94 411-280-411zM580 913h172l-157-145h-116z" glyph-name="Wacute" horiz-adv-x="858" unicode="&#x1e82;"/><glyph d="M93 710h159l38-329 234 337 82-350 186 342h167l-399-718-94 411-280-411zM372 848l192 83 156-83-44-89-120 62-145-62z" glyph-name="Wcircumflex" horiz-adv-x="858" unicode="&#x174;"/><glyph d="M93 710h159l38-329 234 337 82-350 186 342h167l-399-718-94 411-280-411zM751 850q0-33-23.5-56.5t-56.5-23.5-56.5 23.5-23.5 56.5 23.5 56.5 56.5 23.5 56.5-23.5 23.5-56.5zM513 850q0-33-23.5-56.5t-56.5-23.5-56.5 23.5-23.5 56.5 23.5 56.5 56.5 23.5 56.5-23.5 23.5-56.5z" glyph-name="Wdieresis" horiz-adv-x="858" unicode="&#x1e84;"/><glyph d="M93 710h159l38-329 234 337 82-350 186 342h167l-399-718-94 411-280-411zM380 913h158l39-145h-102z" glyph-name="Wgrave" horiz-adv-x="858" unicode="&#x1e80;"/><glyph d="M270 298l-175 412h168l105-257 215 257h198l-351-412-63-298h-160zM267 848l192 83 156-83-44-89-120 62-145-62z" glyph-name="Ycircumflex" horiz-adv-x="680" unicode="&#x176;"/><glyph d="M270 298l-175 412h168l105-257 215 257h198l-351-412-63-298h-160zM646 850q0-33-23.5-56.5t-56.5-23.5-56.5 23.5-23.5 56.5 23.5 56.5 56.5 23.5 56.5-23.5 23.5-56.5zM408 850q0-33-23.5-56.5t-56.5-23.5-56.5 23.5-23.5 56.5 23.5 56.5 56.5 23.5 56.5-23.5 23.5-56.5z" glyph-name="Ydieresis" horiz-adv-x="680" unicode="&#x178;"/><glyph d="M270 298l-175 412h168l105-257 215 257h198l-351-412-63-298h-160zM275 913h158l39-145h-102z" glyph-name="Ygrave" horiz-adv-x="680" unicode="&#x1ef2;"/><glyph d="M270 298l-175 412h168l105-257 215 257h198l-351-412-63-298h-160zM292 902h330l-23-106h-330z" glyph-name="uni0232" horiz-adv-x="680" unicode="&#x232;"/><glyph d="M394 552h-279l34 158h560l-438-552h300l-34-158h-581zM464 913h172l-157-145h-116z" glyph-name="Zacute" horiz-adv-x="629" unicode="&#x179;"/><glyph d="M394 552h-279l34 158h560l-438-552h300l-34-158h-581zM610 839l-195-80-156 83 46 89 119-62 148 62z" glyph-name="Zcaron" horiz-adv-x="629" unicode="&#x17d;"/><glyph d="M394 552h-279l34 158h560l-438-552h300l-34-158h-581zM436 770q-32 0-56 22.5t-24 57.5q0 33 23.5 56.5t56.5 23.5 56.5-23.5 23.5-56.5q0-17-6.5-31.5t-17.5-25.5-25.5-17-30.5-6z" glyph-name="Zdotaccent" horiz-adv-x="629" unicode="&#x17b;"/><glyph d="M173 710h501l-166-268q50-22 79.5-69.5t29.5-111.5q0-59-20-107t-57.5-82-92-53-122.5-19h-72l32 152h49q55 0 88.5 29t33.5 75q0 39-28 63.5t-73 24.5h-29l24 113 67 108h-115l-119-565h-160z" glyph-name="uni1E9E" horiz-adv-x="657" unicode="&#x1e9e;"/><glyph d="M351 30q-24-19-54.5-28.5t-62.5-9.5q-43 0-80 18t-64.5 49-43 70.5-15.5 83.5q0 62 20.5 116t58 93.5 89.5 62.5 115 23q35 0 65.5-9t53.5-29l7 30h149l-106-500h-136zM276 130q24 0 48 8.5t43 24.5l36 172q-17 19-40 27t-47 8q-27 0-51.5-10t-43-28-29-43-10.5-56q0-50 26-76.5t68-26.5zM568 710q-3-36-17.5-66t-39.5-52-60.5-34-80.5-12q-41 0-72.5 13t-53.5 35.5-33.5 52-11.5 63.5h86q2-41 28-60t62-19q43 0 71.5 20.5t35.5 58.5h86z" glyph-name="abreve" horiz-adv-x="595" unicode="&#x103;"/><glyph d="M351 30q-24-19-54.5-28.5t-62.5-9.5q-43 0-80 18t-64.5 49-43 70.5-15.5 83.5q0 62 20.5 116t58 93.5 89.5 62.5 115 23q35 0 65.5-9t53.5-29l7 30h149l-106-500h-136zM276 130q24 0 48 8.5t43 24.5l36 172q-17 19-40 27t-47 8q-27 0-51.5-10t-43-28-29-43-10.5-56q0-50 26-76.5t68-26.5zM228 675h330l-20-96h-330z" glyph-name="amacron" horiz-adv-x="595" unicode="&#x101;"/><glyph d="M359-188q-38 0-61.5 23t-23.5 60q0 33 18.5 58.5t54.5 46.5l4 30q-24-19-54.5-28.5t-62.5-9.5q-43 0-80 18t-64.5 49-43 70.5-15.5 83.5q0 62 20.5 116t58 93.5 89.5 62.5 115 23q35 0 65.5-9t53.5-29l7 30h149l-106-500q-40-19-56-36t-16-27q0-11 6.5-17.5t17.5-6.5q10 0 18.5 4.5t13.5 8.5l-18-87q-19-16-42.5-21.5t-47.5-5.5zM276 130q24 0 48 8.5t43 24.5l36 172q-17 19-40 27t-47 8q-27 0-51.5-10t-43-28-29-43-10.5-56q0-50 26-76.5t68-26.5z" glyph-name="aogonek" horiz-adv-x="595" unicode="&#x105;"/><glyph d="M496 99q-39-49-97-78t-129-29q-57 0-101 19.5t-74.5 52-46 75-15.5 88.5q0 60 21 111t58.5 89 90 59.5 115.5 21.5q40 0 73.5-11t60.5-29 46.5-42 31.5-50l-125-74q-14 30-41 47.5t-59 17.5q-53 0-86.5-36t-33.5-91q0-51 28-79t70-28q34 0 60.5 15t45.5 40zM392 710h178l-182-160h-115z" glyph-name="cacute" horiz-adv-x="534" unicode="&#x107;"/><glyph d="M496 99q-39-49-97-78t-129-29q-57 0-101 19.5t-74.5 52-46 75-15.5 88.5q0 60 21 111t58.5 89 90 59.5 115.5 21.5q40 0 73.5-11t60.5-29 46.5-42 31.5-50l-125-74q-14 30-41 47.5t-59 17.5q-53 0-86.5-36t-33.5-91q0-51 28-79t70-28q34 0 60.5 15t45.5 40zM523 636l-197-90-152 99 54 83 109-68 144 68z" glyph-name="ccaron" horiz-adv-x="534" unicode="&#x10d;"/><glyph d="M496 99q-39-49-97-78t-129-29q-57 0-101 19.5t-74.5 52-46 75-15.5 88.5q0 60 21 111t58.5 89 90 59.5 115.5 21.5q40 0 73.5-11t60.5-29 46.5-42 31.5-50l-125-74q-14 30-41 47.5t-59 17.5q-53 0-86.5-36t-33.5-91q0-51 28-79t70-28q34 0 60.5 15t45.5 40zM171 634l197 94 152-99-54-83-111 68-142-68z" glyph-name="ccircumflex" horiz-adv-x="534" unicode="&#x109;"/><glyph d="M496 99q-39-49-97-78t-129-29q-57 0-101 19.5t-74.5 52-46 75-15.5 88.5q0 60 21 111t58.5 89 90 59.5 115.5 21.5q40 0 73.5-11t60.5-29 46.5-42 31.5-50l-125-74q-14 30-41 47.5t-59 17.5q-53 0-86.5-36t-33.5-91q0-51 28-79t70-28q34 0 60.5 15t45.5 40zM350 567q-32 0-56 22.5t-24 57.5q0 33 23.5 56.5t56.5 23.5 56.5-23.5 23.5-56.5q0-17-6.5-31.5t-17.5-25.5-25.5-17-30.5-6z" glyph-name="cdotaccent" horiz-adv-x="534" unicode="&#x10b;"/><glyph d="M351 30q-24-19-54.5-28.5t-62.5-9.5q-43 0-80 18t-64.5 49-43 70.5-15.5 83.5q0 62 20.5 116t58 93.5 89.5 62.5 115 23q35 0 65-8.5t53-28.5l51 239h151l-151-710h-136zM276 130q24 0 48 8.5t43 24.5l36 172q-17 20-40 27.5t-47 7.5q-27 0-51.5-10t-43-28-29-43-10.5-56q0-50 26-76.5t68-26.5zM836 710l-101-160h-100l53 160h148z" glyph-name="dcaron" horiz-adv-x="619" unicode="&#x10f;"/><glyph d="M351 30q-24-19-54.5-28.5t-62.5-9.5q-43 0-80 18t-64.5 49-43 70.5-15.5 83.5q0 62 20.5 116t58 93.5 89.5 62.5 115 23q35 0 65-8.5t53-28.5l51 239h151l-151-710h-136zM276 130q24 0 48 8.5t43 24.5l36 172q-17 20-40 27.5t-47 7.5q-27 0-51.5-10t-43-28-29-43-10.5-56q0-50 26-76.5t68-26.5zM326 579l14 65h349l-14-65h-349z" glyph-name="dcroat" horiz-adv-x="595" unicode="&#x111;"/><glyph d="M275 133q38 0 64 14.5t46 38.5l111-86q-39-51-97-79.5t-129-28.5q-57 0-101 19.5t-74.5 52-46 75-15.5 88.5q0 58 20.5 109.5t57.5 89.5 89.5 60 117.5 22q58 0 103-19.5t73.5-56.5 39-90 .5-119h-357q4-24 13.5-41.5t23-28 29.5-15.5 32-5zM304 387q-14 0-30.5-5.5t-32-15.5-30-24-23.5-31h209q1 20-7 34.5t-21 23.5-30 13.5-35 4.5zM530 710q-3-36-17.5-66t-39.5-52-60.5-34-80.5-12q-41 0-72.5 13t-53.5 35.5-33.5 52-11.5 63.5h86q2-41 28-60t62-19q43 0 71.5 20.5t35.5 58.5h86z" glyph-name="ebreve" horiz-adv-x="567" unicode="&#x115;"/><glyph d="M275 133q38 0 64 14.5t46 38.5l111-86q-39-51-97-79.5t-129-28.5q-57 0-101 19.5t-74.5 52-46 75-15.5 88.5q0 58 20.5 109.5t57.5 89.5 89.5 60 117.5 22q58 0 103-19.5t73.5-56.5 39-90 .5-119h-357q4-24 13.5-41.5t23-28 29.5-15.5 32-5zM304 387q-14 0-30.5-5.5t-32-15.5-30-24-23.5-31h209q1 20-7 34.5t-21 23.5-30 13.5-35 4.5zM523 636l-197-90-152 99 54 83 109-68 144 68z" glyph-name="ecaron" horiz-adv-x="567" unicode="&#x11b;"/><glyph d="M275 133q38 0 64 14.5t46 38.5l111-86q-39-51-97-79.5t-129-28.5q-57 0-101 19.5t-74.5 52-46 75-15.5 88.5q0 58 20.5 109.5t57.5 89.5 89.5 60 117.5 22q58 0 103-19.5t73.5-56.5 39-90 .5-119h-357q4-24 13.5-41.5t23-28 29.5-15.5 32-5zM304 387q-14 0-30.5-5.5t-32-15.5-30-24-23.5-31h209q1 20-7 34.5t-21 23.5-30 13.5-35 4.5zM190 675h330l-20-96h-330z" glyph-name="emacron" horiz-adv-x="567" unicode="&#x113;"/><glyph d="M437-161q-19-16-41-21.5t-46-5.5q-37 0-62.5 23t-25.5 60q0 23 12 49t39 52q-16-2-25.5-3t-17.5-1q-57 0-101 19.5t-74.5 52-46 75-15.5 88.5q0 58 20.5 109.5t57.5 89.5 89.5 60 117.5 22q58 0 103-19.5t73.5-56.5 39-90 .5-119h-356q8-49 36.5-69.5t60.5-20.5q38 0 64 14.5t46 38.5l111-86q-45-57-71.5-98.5t-26.5-64.5q0-14 7-19t18-5q10 0 18.5 4.5t13.5 8.5zM397 311q1 20-7 34.5t-21 23.5-30 13.5-35 4.5q-28 0-62-20.5t-53-55.5h208z" glyph-name="eogonek" horiz-adv-x="567" unicode="&#x119;"/><glyph d="M275 133q38 0 64 14.5t46 38.5l111-86q-39-51-97-79.5t-129-28.5q-57 0-101 19.5t-74.5 52-46 75-15.5 88.5q0 58 20.5 109.5t57.5 89.5 89.5 60 117.5 22q58 0 103-19.5t73.5-56.5 39-90 .5-119h-357q4-24 13.5-41.5t23-28 29.5-15.5 32-5zM304 387q-14 0-30.5-5.5t-32-15.5-30-24-23.5-31h209q1 20-7 34.5t-21 23.5-30 13.5-35 4.5zM350 567q-32 0-56 22.5t-24 57.5q0 33 23.5 56.5t56.5 23.5 56.5-23.5 23.5-56.5q0-17-6.5-31.5t-17.5-25.5-25.5-17-30.5-6z" glyph-name="edotaccent" horiz-adv-x="567" unicode="&#x117;"/><glyph d="M502 97q11-55-2-107t-49.5-93-96.5-66-143-25q-57 0-115 13.5t-104 47.5l77 129q27-23 62.5-37.5t79.5-14.5q30 0 57 6t46.5 20 29.5 35.5 5 53.5q-32-18-63.5-24t-60.5-6q-45 0-80 17.5t-59 47-36.5 68-12.5 80.5q0 53 19.5 101.5t55 85 86.5 58 114 21.5q34 0 64.5-8.5t53.5-27.5l6 28h151zM274 167q26 0 54 10.5t47 30.5l26 127q-17 19-40 27t-47 8q-55 0-90.5-30.5t-35.5-84.5q0-45 22-66.5t64-21.5zM524 710q-3-36-17.5-66t-39.5-52-60.5-34-80.5-12q-41 0-72.5 13t-53.5 35.5-33.5 52-11.5 63.5h86q2-41 28-60t62-19q43 0 71.5 20.5t35.5 58.5h86z" glyph-name="gbreve" horiz-adv-x="597" unicode="&#x11f;"/><glyph d="M502 97q11-55-2-107t-49.5-93-96.5-66-143-25q-57 0-115 13.5t-104 47.5l77 129q27-23 62.5-37.5t79.5-14.5q30 0 57 6t46.5 20 29.5 35.5 5 53.5q-32-18-63.5-24t-60.5-6q-45 0-80 17.5t-59 47-36.5 68-12.5 80.5q0 53 19.5 101.5t55 85 86.5 58 114 21.5q34 0 64.5-8.5t53.5-27.5l6 28h151zM274 167q26 0 54 10.5t47 30.5l26 127q-17 19-40 27t-47 8q-55 0-90.5-30.5t-35.5-84.5q0-45 22-66.5t64-21.5zM165 634l197 94 152-99-54-83-111 68-142-68z" glyph-name="gcircumflex" horiz-adv-x="597" unicode="&#x11d;"/><glyph d="M502 97q11-55-2-107t-49.5-93-96.5-66-143-25q-57 0-115 13.5t-104 47.5l77 129q27-23 62.5-37.5t79.5-14.5q30 0 57 6t46.5 20 29.5 35.5 5 53.5q-32-18-63.5-24t-60.5-6q-45 0-80 17.5t-59 47-36.5 68-12.5 80.5q0 53 19.5 101.5t55 85 86.5 58 114 21.5q34 0 64.5-8.5t53.5-27.5l6 28h151zM274 167q26 0 54 10.5t47 30.5l26 127q-17 19-40 27t-47 8q-55 0-90.5-30.5t-35.5-84.5q0-45 22-66.5t64-21.5zM396.976 551.967h-147.991l112.993 164.989h85.9951z" glyph-name="uni0123" horiz-adv-x="597" unicode="&#x123;"/><glyph d="M502 97q11-55-2-107t-49.5-93-96.5-66-143-25q-57 0-115 13.5t-104 47.5l77 129q27-23 62.5-37.5t79.5-14.5q30 0 57 6t46.5 20 29.5 35.5 5 53.5q-32-18-63.5-24t-60.5-6q-45 0-80 17.5t-59 47-36.5 68-12.5 80.5q0 53 19.5 101.5t55 85 86.5 58 114 21.5q34 0 64.5-8.5t53.5-27.5l6 28h151zM274 167q26 0 54 10.5t47 30.5l26 127q-17 19-40 27t-47 8q-55 0-90.5-30.5t-35.5-84.5q0-45 22-66.5t64-21.5zM344 567q-32 0-56 22.5t-24 57.5q0 33 23.5 56.5t56.5 23.5 56.5-23.5 23.5-56.5q0-17-6.5-31.5t-17.5-25.5-25.5-17-30.5-6z" glyph-name="gdotaccent" horiz-adv-x="597" unicode="&#x121;"/><glyph d="M157 710h151l-53-249q26 23 57.5 35t74.5 12q47 0 82-20.5t56-54 27-75.5-4-84l-58-274h-151l56 261q5 22 4.5 42t-8.5 35-24 23.5-42 8.5q-25 0-51-12t-49-39l-68-319h-151zM60 579l14 65h349l-14-65h-349z" glyph-name="hbar" horiz-adv-x="594" unicode="&#x127;"/><glyph d="M157 710h151l-53-249q26 23 57.5 35t74.5 12q47 0 82-20.5t56-54 27-75.5-4-84l-58-274h-151l56 261q5 22 4.5 42t-8.5 35-24 23.5-42 8.5q-25 0-51-12t-49-39l-68-319h-151zM280 848l192 83 156-83-44-89-120 62-145-62z" glyph-name="hcircumflex" horiz-adv-x="594" unicode="&#x125;"/><glyph d="M112 500h152l-106-500h-152z" glyph-name="dotlessi" horiz-adv-x="270" unicode="&#x131;"/><glyph d="M112 500h152l-106-500h-152zM400 710q-3-36-17.5-66t-39.5-52-60.5-34-80.5-12q-41 0-72.5 13t-53.5 35.5-33.5 52-11.5 63.5h86q2-41 28-60t62-19q43 0 71.5 20.5t35.5 58.5h86z" glyph-name="ibreve" horiz-adv-x="270" unicode="&#x12d;"/><glyph d="M112 500h152l-106-500h-152zM60 675h330l-20-96h-330z" glyph-name="imacron" horiz-adv-x="270" unicode="&#x12b;"/><glyph d="M112 500h152l-106-500h-152zM134 571q-5 8-8.5 21t-3.5 26q0 46 28 73t75 27q32 0 56.5-19.5t24.5-55.5q0-24-8.5-41t-22.5-31h-141zM34-188q-38 0-61.5 23t-23.5 60q0 29 16 57t41 48h152q-40-19-56-36t-16-27q0-11 6.5-17.5t17.5-6.5q10 0 18.5 4.5t13.5 8.5l-18-87q-19-16-42.5-21.5t-47.5-5.5z" glyph-name="iogonek" horiz-adv-x="270" unicode="&#x12f;"/><glyph d="M112 500h152l-106-500h-152zM7 554q21 76 59 110.5t84 34.5q22 0 39-6.5t32-14 28-13.5 27-6q17 0 26.5 9.5t20.5 32.5h101q-23-78-59.5-111.5t-82.5-33.5q-22 0-39.5 6t-32.5 13.5-28.5 14-26.5 6.5q-17 0-26.5-9.5t-20.5-32.5h-101z" glyph-name="itilde" horiz-adv-x="270" unicode="&#x129;"/><glyph d="M112 500h152l-106-500h-152zM134 571q-5 8-8.5 21t-3.5 26q0 46 28 73t75 27q32 0 56.5-19.5t24.5-55.5q0-24-8.5-41t-22.5-31h-141zM56-206q-32 0-56 22.5t-24 57.5q0 33 23.5 56.5t56.5 23.5 56.5-23.5 23.5-56.5q0-17-6.5-31.5t-17.5-25.5-25.5-17-30.5-6z" glyph-name="uni1ECB" horiz-adv-x="270" unicode="&#x1ecb;"/><glyph d="M-98-41h31q22 0 36.5 3t24.5 11 16 22.5 11 37.5l100 467h152l-107-500q-14-64-35-100.5t-52-55-72-23.5-95-5h-41z" glyph-name="glyph269" horiz-adv-x="278"/><glyph d="M-98-41h31q22 0 36.5 3t24.5 11 16 22.5 11 37.5l100 467h152l-107-500q-14-64-35-100.5t-52-55-72-23.5-95-5h-41zM49 634l197 94 152-99-54-83-111 68-142-68z" glyph-name="jcircumflex" horiz-adv-x="278" unicode="&#x135;"/><glyph d="M157 710h151l-93-438 205 228h180l-230-255 135-245h-158l-137 249-53-249h-151zM176-50h148l-113-165h-86z" glyph-name="uni0137" horiz-adv-x="553" unicode="&#x137;"/><glyph d="M157 710h152l-151-710h-152zM307 920h178l-182-160h-115z" glyph-name="lacute" horiz-adv-x="270" unicode="&#x13a;"/><glyph d="M157 710h152l-151-710h-152zM511 710l-101-160h-100l53 160h148z" glyph-name="lcaron" horiz-adv-x="294" unicode="&#x13e;"/><glyph d="M157 710h152l-151-710h-152zM-10-50h148l-113-165h-86z" glyph-name="uni013C" horiz-adv-x="270" unicode="&#x13c;"/><glyph d="M157 710h152l-151-710h-152zM368 291q-32 0-56 22.5t-24 57.5q0 33 23.5 56.5t56.5 23.5 56.5-23.5 23.5-56.5q0-17-6.5-31.5t-17.5-25.5-25.5-17-30.5-6z" glyph-name="ldot" horiz-adv-x="407" unicode="&#x140;"/><glyph d="M230 710h152l-151-710h-152zM25 303l388 196 32-60-388-197z" glyph-name="lslash" horiz-adv-x="401" unicode="&#x142;"/><glyph d="M112 500h149l-7-40q26 23 58 35.5t75 12.5q47 0 82-20.5t56-54 27-75.5-4-84l-58-274h-151l55 261q4 22 3.5 41.5t-8 34.5-23 24-41.5 9q-25 0-51-12t-49-38l-68-320h-151zM437 710h178l-182-160h-115z" glyph-name="nacute" horiz-adv-x="594" unicode="&#x144;"/><glyph d="M112 500h149l-7-40q26 23 58 35.5t75 12.5q47 0 82-20.5t56-54 27-75.5-4-84l-58-274h-151l55 261q4 22 3.5 41.5t-8 34.5-23 24-41.5 9q-25 0-51-12t-49-38l-68-320h-151zM568 636l-197-90-152 99 54 83 109-68 144 68z" glyph-name="ncaron" horiz-adv-x="594" unicode="&#x148;"/><glyph d="M112 500h149l-7-40q26 23 58 35.5t75 12.5q47 0 82-20.5t56-54 27-75.5-4-84l-58-274h-151l55 261q4 22 3.5 41.5t-8 34.5-23 24-41.5 9q-25 0-51-12t-49-38l-68-320h-151zM172-50h148l-113-165h-86z" glyph-name="uni0146" horiz-adv-x="594" unicode="&#x146;"/><glyph d="M866 100q-39-51-97-79.5t-129-28.5q-53 0-98 17.5t-82 57.5q-41-42-88.5-58.5t-101.5-16.5q-57 0-101 19.5t-74.5 52-46 75-15.5 88.5q0 60 21 111t58.5 89 90 59.5 115.5 21.5q52 0 95-18.5t74-57.5q45 42 95 59t106 17q58 0 102.5-19.5t73-56.5 39.5-89.5 1-119.5h-356q2-23 11.5-40t23-28 30-16.5 32.5-5.5q38 0 64 14.5t46 38.5zM674 387q-15 0-31.5-3.5t-32.5-12.5-29.5-23.5-21.5-36.5h208q1 20-7 34.5t-21 23.5-30 13.5-35 4.5zM185 240q0-50 28-78.5t70-28.5q26 0 48 9.5t38 27 25 41 9 50.5q0 50-28 78t-70 28q-53 0-86.5-36t-33.5-91z" glyph-name="oe" horiz-adv-x="937" unicode="&#x153;"/><glyph d="M555 274q0-60-21-111.5t-58.5-89.5-90-59.5-115.5-21.5q-57 0-101 19.5t-74.5 52-46 75-15.5 88.5q0 60 21 111t58.5 89 90 59.5 115.5 21.5q57 0 101-19.5t74.5-52 46-74.5 15.5-88zM185 240q0-50 28-78.5t70-28.5q26 0 48 9.5t38 27 25 41 9 50.5q0 50-28 78t-70 28q-53 0-86.5-36t-33.5-91zM530 710q-3-36-17.5-66t-39.5-52-60.5-34-80.5-12q-41 0-72.5 13t-53.5 35.5-33.5 52-11.5 63.5h86q2-41 28-60t62-19q43 0 71.5 20.5t35.5 58.5h86z" glyph-name="obreve" horiz-adv-x="588" unicode="&#x14f;"/><glyph d="M555 274q0-60-21-111.5t-58.5-89.5-90-59.5-115.5-21.5q-57 0-101 19.5t-74.5 52-46 75-15.5 88.5q0 60 21 111t58.5 89 90 59.5 115.5 21.5q57 0 101-19.5t74.5-52 46-74.5 15.5-88zM185 240q0-50 28-78.5t70-28.5q26 0 48 9.5t38 27 25 41 9 50.5q0 50-28 78t-70 28q-53 0-86.5-36t-33.5-91zM500 710h156l-179-160h-98zM311 710h156l-179-160h-98z" glyph-name="ohungarumlaut" horiz-adv-x="588" unicode="&#x151;"/><glyph d="M555 274q0-60-21-111.5t-58.5-89.5-90-59.5-115.5-21.5q-57 0-101 19.5t-74.5 52-46 75-15.5 88.5q0 60 21 111t58.5 89 90 59.5 115.5 21.5q57 0 101-19.5t74.5-52 46-74.5 15.5-88zM185 240q0-50 28-78.5t70-28.5q26 0 48 9.5t38 27 25 41 9 50.5q0 50-28 78t-70 28q-53 0-86.5-36t-33.5-91zM190 675h330l-20-96h-330z" glyph-name="omacron" horiz-adv-x="588" unicode="&#x14d;"/><glyph d="M555 274q0-60-21-111.5t-58.5-89.5-90-59.5-115.5-21.5q-57 0-101 19.5t-74.5 52-46 75-15.5 88.5q0 60 21 111t58.5 89 90 59.5 115.5 21.5q57 0 101-19.5t74.5-52 46-74.5 15.5-88zM185 240q0-50 28-78.5t70-28.5q26 0 48 9.5t38 27 25 41 9 50.5q0 50-28 78t-70 28q-53 0-86.5-36t-33.5-91zM243-206q-32 0-56 22.5t-24 57.5q0 33 23.5 56.5t56.5 23.5 56.5-23.5 23.5-56.5q0-17-6.5-31.5t-17.5-25.5-25.5-17-30.5-6z" glyph-name="uni1ECD" horiz-adv-x="588" unicode="&#x1ecd;"/><glyph d="M112 500h151l-9-43q23 26 55.5 38.5t69.5 12.5q12 0 25.5-1.5t26.5-6.5l-33-157q-16 9-34.5 13t-38.5 4q-23 0-50.5-8.5t-48.5-24.5l-69-327h-151zM359 710h178l-182-160h-115z" glyph-name="racute" horiz-adv-x="397" unicode="&#x155;"/><glyph d="M112 500h151l-9-43q23 26 55.5 38.5t69.5 12.5q12 0 25.5-1.5t26.5-6.5l-33-157q-16 9-34.5 13t-38.5 4q-23 0-50.5-8.5t-48.5-24.5l-69-327h-151zM490 636l-197-90-152 99 54 83 109-68 144 68z" glyph-name="rcaron" horiz-adv-x="397" unicode="&#x159;"/><glyph d="M112 500h151l-9-43q23 26 55.5 38.5t69.5 12.5q12 0 25.5-1.5t26.5-6.5l-33-157q-16 9-34.5 13t-38.5 4q-23 0-50.5-8.5t-48.5-24.5l-69-327h-151zM-4-50h148l-113-165h-86z" glyph-name="uni0157" horiz-adv-x="397" unicode="&#x157;"/><glyph d="M382 155q0-78-48.5-120.5t-135.5-42.5q-77 0-126.5 33t-69.5 79l107 74q7-13 15-24.5t18.5-20.5 24.5-14.5 33-5.5 30 7.5 11 21.5q0 15-11 24.5t-31 23.5l-34 23q-22 15-41 29.5t-32.5 31.5-21 37.5-7.5 46.5q0 30 11 57.5t33 48 54.5 32.5 76.5 12q63 0 109-25t67-63l-103-76q-14 24-33.5 35t-38.5 11q-18 0-26.5-8.5t-8.5-19.5q0-12 7.5-21t30.5-23l26-17q55-35 84.5-68.5t29.5-77.5zM312 710h178l-182-160h-115z" glyph-name="sacute" horiz-adv-x="434" unicode="&#x15b;"/><glyph d="M382 155q0-78-48.5-120.5t-135.5-42.5q-77 0-126.5 33t-69.5 79l107 74q7-13 15-24.5t18.5-20.5 24.5-14.5 33-5.5 30 7.5 11 21.5q0 15-11 24.5t-31 23.5l-34 23q-22 15-41 29.5t-32.5 31.5-21 37.5-7.5 46.5q0 30 11 57.5t33 48 54.5 32.5 76.5 12q63 0 109-25t67-63l-103-76q-14 24-33.5 35t-38.5 11q-18 0-26.5-8.5t-8.5-19.5q0-12 7.5-21t30.5-23l26-17q55-35 84.5-68.5t29.5-77.5zM443 636l-197-90-152 99 54 83 109-68 144 68z" glyph-name="scaron" horiz-adv-x="434" unicode="&#x161;"/><glyph d="M382 155q0-78-48.5-120.5t-135.5-42.5q-77 0-126.5 33t-69.5 79l107 74q7-13 15-24.5t18.5-20.5 24.5-14.5 33-5.5 30 7.5 11 21.5q0 15-11 24.5t-31 23.5l-34 23q-22 15-41 29.5t-32.5 31.5-21 37.5-7.5 46.5q0 30 11 57.5t33 48 54.5 32.5 76.5 12q63 0 109-25t67-63l-103-76q-14 24-33.5 35t-38.5 11q-18 0-26.5-8.5t-8.5-19.5q0-12 7.5-21t30.5-23l26-17q55-35 84.5-68.5t29.5-77.5zM143 0h104l-80-165h-129z" glyph-name="scedilla" horiz-adv-x="434" unicode="&#x15f;"/><glyph d="M382 155q0-78-48.5-120.5t-135.5-42.5q-77 0-126.5 33t-69.5 79l107 74q7-13 15-24.5t18.5-20.5 24.5-14.5 33-5.5 30 7.5 11 21.5q0 15-11 24.5t-31 23.5l-34 23q-22 15-41 29.5t-32.5 31.5-21 37.5-7.5 46.5q0 30 11 57.5t33 48 54.5 32.5 76.5 12q63 0 109-25t67-63l-103-76q-14 24-33.5 35t-38.5 11q-18 0-26.5-8.5t-8.5-19.5q0-12 7.5-21t30.5-23l26-17q55-35 84.5-68.5t29.5-77.5zM91 634l197 94 152-99-54-83-111 68-142-68z" glyph-name="scircumflex" horiz-adv-x="434" unicode="&#x15d;"/><glyph d="M382 155q0-78-48.5-120.5t-135.5-42.5q-77 0-126.5 33t-69.5 79l107 74q7-13 15-24.5t18.5-20.5 24.5-14.5 33-5.5 30 7.5 11 21.5q0 15-11 24.5t-31 23.5l-34 23q-22 15-41 29.5t-32.5 31.5-21 37.5-7.5 46.5q0 30 11 57.5t33 48 54.5 32.5 76.5 12q63 0 109-25t67-63l-103-76q-14 24-33.5 35t-38.5 11q-18 0-26.5-8.5t-8.5-19.5q0-12 7.5-21t30.5-23l26-17q55-35 84.5-68.5t29.5-77.5zM104-50h148l-113-165h-86z" glyph-name="uni0219" horiz-adv-x="434" unicode="&#x219;"/><glyph d="M53 500h106l17 75 166 75-32-150h142l-30-132h-140l-36-171q-7-32 3.5-45.5t41.5-13.5h82l-29-138h-113q-82 0-120 50t-17 147l37 171h-78v132zM566 710l-101-160h-100l53 160h148z" glyph-name="tcaron" horiz-adv-x="428" unicode="&#x165;"/><glyph d="M53 500h106l17 75 166 75-32-150h142l-30-132h-140l-36-171q-7-32 3.5-45.5t41.5-13.5h82l-29-138h-113q-82 0-120 50t-17 147l37 171h-78v132zM125-50h148l-113-165h-86z" glyph-name="uni0163" horiz-adv-x="428" unicode="&#x163;"/><glyph d="M53 500h106l17 75 166 75-32-150h142l-30-132h-140l-36-171q-7-32 3.5-45.5t41.5-13.5h82l-29-138h-113q-82 0-120 50t-17 147l37 171h-78v132zM125-50h148l-113-165h-86z" glyph-name="uni021B" horiz-adv-x="428" unicode="&#x21b;"/><glyph d="M340 40q-26-23-59-35.5t-76-12.5q-40 0-74 17t-56.5 49.5-30 78.5 4.5 104l55 259h151l-53-252q-11-52 2.5-85t64.5-33q29 0 55.5 13t46.5 45l66 312h151l-106-500h-149zM557 710q-3-36-17.5-66t-39.5-52-60.5-34-80.5-12q-41 0-72.5 13t-53.5 35.5-33.5 52-11.5 63.5h86q2-41 28-60t62-19q43 0 71.5 20.5t35.5 58.5h86z" glyph-name="ubreve" horiz-adv-x="594" unicode="&#x16d;"/><glyph d="M340 40q-26-23-59-35.5t-76-12.5q-40 0-74 17t-56.5 49.5-30 78.5 4.5 104l55 259h151l-53-252q-11-52 2.5-85t64.5-33q29 0 55.5 13t46.5 45l66 312h151l-106-500h-149zM527 710h156l-179-160h-98zM338 710h156l-179-160h-98z" glyph-name="uhungarumlaut" horiz-adv-x="594" unicode="&#x171;"/><glyph d="M340 40q-26-23-59-35.5t-76-12.5q-40 0-74 17t-56.5 49.5-30 78.5 4.5 104l55 259h151l-53-252q-11-52 2.5-85t64.5-33q29 0 55.5 13t46.5 45l66 312h151l-106-500h-149zM217 675h330l-20-96h-330z" glyph-name="umacron" horiz-adv-x="594" unicode="&#x16b;"/><glyph d="M358-188q-38 0-61.5 23t-23.5 60q0 29 16 57t44 48l7 40q-26-23-59-35.5t-76-12.5q-40 0-74 17t-56.5 49.5-30 78.5 4.5 104l55 259h151l-53-252q-11-52 2.5-85t64.5-33q29 0 55.5 13t46.5 45l66 312h151l-106-500q-40-19-56-36t-16-27q0-11 6.5-17.5t17.5-6.5q10 0 18.5 4.5t13.5 8.5l-18-87q-19-16-42.5-21.5t-47.5-5.5z" glyph-name="uogonek" horiz-adv-x="594" unicode="&#x173;"/><glyph d="M340 40q-26-23-59-35.5t-76-12.5q-40 0-74 17t-56.5 49.5-30 78.5 4.5 104l55 259h151l-53-252q-11-52 2.5-85t64.5-33q29 0 55.5 13t46.5 45l66 312h151l-106-500h-149zM501 666q0-25-9.5-46.5t-26-38-38-26-46.5-9.5-46.5 9.5-38 26-26 38-9.5 46.5 9.5 46.5 26 38 38 26 46.5 9.5 46.5-9.5 38-26 26-38 9.5-46.5zM334 666q0-20 13.5-33.5t33.5-13.5 33.5 13.5 13.5 33.5-13.5 33.5-33.5 13.5-33.5-13.5-13.5-33.5z" glyph-name="uring" horiz-adv-x="594" unicode="&#x16f;"/><glyph d="M340 40q-26-23-59-35.5t-76-12.5q-40 0-74 17t-56.5 49.5-30 78.5 4.5 104l55 259h151l-53-252q-11-52 2.5-85t64.5-33q29 0 55.5 13t46.5 45l66 312h151l-106-500h-149zM164 554q21 76 59 110.5t84 34.5q22 0 39-6.5t32-14 28-13.5 27-6q17 0 26.5 9.5t20.5 32.5h101q-23-78-59.5-111.5t-82.5-33.5q-22 0-39.5 6t-32.5 13.5-28.5 14-26.5 6.5q-17 0-26.5-9.5t-20.5-32.5h-101z" glyph-name="utilde" horiz-adv-x="594" unicode="&#x169;"/><glyph d="M340 40q-26-23-59-35.5t-76-12.5q-40 0-74 17t-56.5 49.5-30 78.5 4.5 104l55 259h151l-53-252q-11-52 2.5-85t64.5-33q29 0 55.5 13t46.5 45l66 312h151l-106-500h-149zM198-206q-32 0-56 22.5t-24 57.5q0 33 23.5 56.5t56.5 23.5 56.5-23.5 23.5-56.5q0-17-6.5-31.5t-17.5-25.5-25.5-17-30.5-6z" glyph-name="uni1EE5" horiz-adv-x="594" unicode="&#x1ee5;"/><glyph d="M52 500h154l23-280 184 288 60-294 145 286h164l-265-500h-115l-44 206-138-206h-115zM486 710h178l-182-160h-115z" glyph-name="wacute" horiz-adv-x="729" unicode="&#x1e83;"/><glyph d="M52 500h154l23-280 184 288 60-294 145 286h164l-265-500h-115l-44 206-138-206h-115zM265 634l197 94 152-99-54-83-111 68-142-68z" glyph-name="wcircumflex" horiz-adv-x="729" unicode="&#x175;"/><glyph d="M52 500h154l23-280 184 288 60-294 145 286h164l-265-500h-115l-44 206-138-206h-115zM643 647q0-33-23.5-56.5t-56.5-23.5-56.5 23.5-23.5 56.5 23.5 56.5 56.5 23.5 56.5-23.5 23.5-56.5zM405 647q0-33-23.5-56.5t-56.5-23.5-56.5 23.5-23.5 56.5 23.5 56.5 56.5 23.5 56.5-23.5 23.5-56.5z" glyph-name="wdieresis" horiz-adv-x="729" unicode="&#x1e85;"/><glyph d="M52 500h154l23-280 184 288 60-294 145 286h164l-265-500h-115l-44 206-138-206h-115zM253 710h162l47-160h-98z" glyph-name="wgrave" horiz-adv-x="729" unicode="&#x1e81;"/><glyph d="M131 0l-79 500h155l39-315 169 315h165l-398-684h-158zM163 634l197 94 152-99-54-83-111 68-142-68z" glyph-name="ycircumflex" horiz-adv-x="524" unicode="&#x177;"/><glyph d="M131 0l-79 500h155l39-315 169 315h165l-398-684h-158zM151 710h162l47-160h-98z" glyph-name="ygrave" horiz-adv-x="524" unicode="&#x1ef3;"/><glyph d="M131 0l-79 500h155l39-315 169 315h165l-398-684h-158zM182 675h330l-20-96h-330z" glyph-name="uni0233" horiz-adv-x="524" unicode="&#x233;"/><glyph d="M269 370h-200l27 130h454l-307-369h214l-28-131h-469zM381 710h178l-182-160h-115z" glyph-name="zacute" horiz-adv-x="518" unicode="&#x17a;"/><glyph d="M269 370h-200l27 130h454l-307-369h214l-28-131h-469zM512 636l-197-90-152 99 54 83 109-68 144 68z" glyph-name="zcaron" horiz-adv-x="518" unicode="&#x17e;"/><glyph d="M269 370h-200l27 130h454l-307-369h214l-28-131h-469zM339 567q-32 0-56 22.5t-24 57.5q0 33 23.5 56.5t56.5 23.5 56.5-23.5 23.5-56.5q0-17-6.5-31.5t-17.5-25.5-25.5-17-30.5-6z" glyph-name="zdotaccent" horiz-adv-x="518" unicode="&#x17c;"/><glyph d="M122-8q-23 0-42.5 8.5t-34 23-23 34-8.5 42.5q0 22 8.5 42t23 34.5 34 23 42.5 8.5q22 0 42-8.5t34.5-23 23-34.5 8.5-42q0-23-8.5-42.5t-23-34-34.5-23-42-8.5zM408-8q-23 0-42.5 8.5t-34 23-23 34-8.5 42.5q0 22 8.5 42t23 34.5 34 23 42.5 8.5q22 0 42-8.5t34.5-23 23-34.5 8.5-42q0-23-8.5-42.5t-23-34-34.5-23-42-8.5zM694-8q-23 0-42.5 8.5t-34 23-23 34-8.5 42.5q0 22 8.5 42t23 34.5 34 23 42.5 8.5q22 0 42-8.5t34.5-23 23-34.5 8.5-42q0-23-8.5-42.5t-23-34-34.5-23-42-8.5z" glyph-name="ellipsis" horiz-adv-x="861" unicode="&#x2026;"/><glyph d="M79 354h484l-32-144h-484z" glyph-name="endash" horiz-adv-x="597" unicode="&#x2013;"/><glyph d="M79 354h777l-32-144h-777z" glyph-name="emdash" horiz-adv-x="890" unicode="&#x2014;"/><glyph d="M27 250l215 241 88-81-157-171 81-173-114-57z" glyph-name="guilsinglleft" horiz-adv-x="331" unicode="&#x2039;"/><glyph d="M304 250l-215-241-88 81 157 171-81 173 114 57z" glyph-name="guilsinglright" horiz-adv-x="331" unicode="&#x203a;"/><glyph d="M222 556h67l-37-174h-174l37 174 97 154h87z" glyph-name="quoteleft" horiz-adv-x="274" unicode="&#x2018;"/><glyph d="M173 536h-67l37 174h174l-37-174-97-154h-87z" glyph-name="quoteright" horiz-adv-x="263" unicode="&#x2019;"/><glyph d="M222 556h67l-37-174h-174l37 174 97 154h87zM446 556h67l-37-174h-174l37 174 97 154h87z" glyph-name="quotedblleft" horiz-adv-x="498" unicode="&#x201c;"/><glyph d="M173 536h-67l37 174h174l-37-174-97-154h-87zM397 536h-67l37 174h174l-37-174-97-154h-87z" glyph-name="quotedblright" horiz-adv-x="487" unicode="&#x201d;"/><glyph d="M77 0h-67l37 174h174l-37-174-97-154h-87z" glyph-name="quotesinglbase" horiz-adv-x="286" unicode="&#x201a;"/><glyph d="M77 0h-67l37 174h174l-37-174-97-154h-87zM301 0h-67l37 174h174l-37-174-97-154h-87z" glyph-name="quotedblbase" horiz-adv-x="510" unicode="&#x201e;"/><glyph d="M208 166q-28 0-53 10.5t-43.5 29-29 43.5-10.5 53 10.5 53 29 43.5 43.5 29 53 10.5 53-10.5 43.5-29 29-43.5 10.5-53-10.5-53-29-43.5-43.5-29-53-10.5z" glyph-name="bullet" horiz-adv-x="397" unicode="&#x2022;"/><glyph d="M83 339h436v-114h-436v114z" glyph-name="minus" horiz-adv-x="590" unicode="&#x2212;"/><glyph d="M71 317h105v21q0 19 3 42h-119l42 74h96q17 48 49 95t79.5 84.5 111.5 61 146 23.5q73 0 130.5-23.5t99.5-63.5l-77-135q-29 35-74.5 57.5t-104.5 22.5q-66 0-124.5-30.5t-90.5-91.5h369l-41-74h-351q-3-20-3-42v-11q0-5 1-10h316l-41-74h-259q13-31 33.5-52t44.5-34 50-18.5 49-5.5q37 0 72.5 8t73.5 25l-35-150q-26-12-58-18t-65-6q-56 0-107 16.5t-92.5 48.5-71 79-42.5 107h-158z" glyph-name="Euro" horiz-adv-x="762" unicode="&#x20ac;"/><glyph d="M123 368h-65l28 132h80q-11 17-17.5 35t-6.5 47q0 18 8 40t27 41.5 50.5 33 78.5 13.5h156l-28-132h-107q-30 0-39.5-12.5t-9.5-27.5q0-14 10-26t31-12h99l-28-132h-116l-78-368h-151zM494 500h152l-106-500h-152zM516 571q-5 8-8.5 21t-3.5 26q0 46 28 73t75 27q32 0 56.5-19.5t24.5-55.5q0-24-8.5-41t-22.5-31h-141z" glyph-name="uniFB01" horiz-adv-x="652" unicode="&#xfb01;"/><glyph d="M123 368h-65l28 132h80q-11 17-17.5 35t-6.5 47q0 18 8 40t27 41.5 50.5 33 78.5 13.5h156l-28-132h-107q-30 0-39.5-12.5t-9.5-27.5q0-14 10-26t31-12h99l-28-132h-116l-78-368h-151zM539 710h152l-151-710h-152z" glyph-name="uniFB02" horiz-adv-x="652" unicode="&#xfb02;"/><glyph d="M126 571q-5 8-8.5 21t-3.5 26q0 46 28 73t75 27q32 0 56.5-19.5t24.5-55.5q0-24-8.5-41t-22.5-31h-141z" glyph-name="glyph329" horiz-adv-x="253"/><glyph d="M306 710q-3-36-17.5-66t-39.5-52-60.5-34-80.5-12q-41 0-72.5 13t-53.5 35.5-33.5 52-11.5 63.5h86q2-41 28-60t62-19q43 0 71.5 20.5t35.5 58.5h86z" glyph-name="breve" unicode="&#x2d8;"/><glyph d="M299 636l-197-90-152 99 54 83 109-68 144 68z" glyph-name="caron" unicode="&#x2c7;"/><glyph d="M-53 634l197 94 152-99-54-83-111 68-142-68z" glyph-name="circumflex" unicode="&#x2c6;"/><glyph d="M126 567q-32 0-56 22.5t-24 57.5q0 33 23.5 56.5t56.5 23.5 56.5-23.5 23.5-56.5q0-17-6.5-31.5t-17.5-25.5-25.5-17-30.5-6z" glyph-name="dotaccent" unicode="&#x2d9;"/><glyph d="M277 710h156l-179-160h-98zM88 710h156l-179-160h-98z" glyph-name="hungarumlaut" unicode="&#x2dd;"/><glyph d="M-88-50h148l-113-165h-86z" glyph-name="glyph335"/><glyph d="M-51-188q-38 0-61.5 23t-23.5 60q0 29 16 57t41 48h152q-40-19-56-36t-16-27q0-11 6.5-17.5t17.5-6.5q10 0 18.5 4.5t13.5 8.5l-18-87q-19-16-42.5-21.5t-47.5-5.5z" glyph-name="ogonek" unicode="&#x2db;"/><glyph d="M250 666q0-25-9.5-46.5t-26-38-38-26-46.5-9.5-46.5 9.5-38 26-26 38-9.5 46.5 9.5 46.5 26 38 38 26 46.5 9.5 46.5-9.5 38-26 26-38 9.5-46.5zM83 666q0-20 13.5-33.5t33.5-13.5 33.5 13.5 13.5 33.5-13.5 33.5-33.5 13.5-33.5-13.5-13.5-33.5z" glyph-name="ring" unicode="&#x2da;"/><glyph d="M-87 554q21 76 59 110.5t84 34.5q22 0 39-6.5t32-14 28-13.5 27-6q17 0 26.5 9.5t20.5 32.5h101q-23-78-59.5-111.5t-82.5-33.5q-22 0-39.5 6t-32.5 13.5-28.5 14-26.5 6.5q-17 0-26.5-9.5t-20.5-32.5h-101z" glyph-name="tilde" unicode="&#x2dc;"/><glyph d="M223 710l-101-160h-100l53 160h148z" glyph-name="glyph339"/><glyph d="M32 567q-32 0-56 22.5t-24 57.5q0 33 23.5 56.5t56.5 23.5 56.5-23.5 23.5-56.5q0-17-6.5-31.5t-17.5-25.5-25.5-17-30.5-6zM220 567q-32 0-56 22.5t-24 57.5q0 33 23.5 56.5t56.5 23.5 56.5-23.5 23.5-56.5q0-17-6.5-31.5t-17.5-25.5-25.5-17-30.5-6z" glyph-name="glyph340"/><glyph d="M-63 579l14 65h349l-14-65h-349z" glyph-name="glyph341"/><glyph d="M-143 302l388 196 32-60-388-197z" glyph-name="glyph342"/><glyph d="M132 913h172l-157-145h-116z" glyph-name="glyph343"/><glyph d="M356 950q-5-87-56.5-135.5t-141.5-48.5q-41 0-73 13.5t-54 37.5-33.5 58-10.5 75h86q1-28 8.5-47t20-30.5 29-16.5 36.5-5q40 0 68 22.5t35 76.5h86z" glyph-name="glyph344"/><glyph d="M343 839l-195-80-156 83 46 89 119-62 148 62z" glyph-name="glyph345"/><glyph d="M-13 848l192 83 156-83-44-89-120 62-145-62z" glyph-name="glyph346"/><glyph d="M69 913h158l39-145h-102z" glyph-name="glyph347"/><glyph d="M233 913h163l-157-145h-107zM39 913h163l-157-145h-107z" glyph-name="glyph348"/><glyph d="M15 902h330l-23-106h-330z" glyph-name="glyph349"/><glyph d="M-51-188q-38 0-65 22.5t-27 60.5q0 29 15 55.5t40 49.5h161q-40-19-56-34t-16-29q0-11 6.5-17.5t17.5-6.5q10 0 18.5 4.5t13.5 8.5l-18-87q-19-16-42.5-21.5t-47.5-5.5z" glyph-name="glyph350"/><glyph d="M-98 392h338l-15-74h-338z" glyph-name="glyph351"/><glyph d="M-172 296l445 226 34-67-445-227z" glyph-name="glyph352"/><glyph d="M-251 608h738l-16-74h-738z" glyph-name="glyph353"/></font>
</defs>
</svg>
