<svg xmlns="http://www.w3.org/2000/svg"><defs><font horiz-adv-x="0"><font-face ascent="800" bbox="-369 -215 977 999" cap-height="710" descent="-200" panose-1="2 11 8 4 0 0 0 0 0 0" underline-position="-140" underline-thickness="100" unicode-range="U+000D-FB02" x-height="500"/><missing-glyph d="M0 710h500v-710h-500v710zM250 371l216 320h-432zM19 28l221 327-221 327v-654zM481 28v654l-220-327zM466 19l-216 320-216-320h432z" horiz-adv-x="500"/><glyph d="M0 710h500v-710h-500v710zM250 371l216 320h-432zM19 28l221 327-221 327v-654zM481 28v654l-220-327zM466 19l-216 320-216-320h432z" glyph-name=".notdef" horiz-adv-x="500"/><glyph glyph-name="glyph1"/><glyph glyph-name="uni000D" horiz-adv-x="218" unicode="&#xd;"/><glyph glyph-name="space" horiz-adv-x="218" unicode="&#x20;"/><glyph d="M73 439v271h152v-271l-30-184h-92zM149-8q-23 0-42.5 8.5t-34 23-23 34-8.5 42.5q0 26 11 47.5t29 36.5h136q18-15 29-36.5t11-47.5q0-23-8.5-42.5t-23-34-34.5-23-42-8.5z" glyph-name="exclam" horiz-adv-x="298" unicode="&#x21;"/><glyph d="M57 710h127v-298h-127v298zM259 710h127v-298h-127v298z" glyph-name="quotedbl" horiz-adv-x="443" unicode="&#x22;"/><glyph d="M58 0l56 181h-83v114h119l37 120h-83v114h119l56 181h128l-56-181h131l56 181h128l-56-181h82v-114h-118l-37-120h83v-114h-119l-56-181h-128l56 181h-131l-56-181h-128zM409 295l37 120h-131l-37-120h131z" glyph-name="numbersign" horiz-adv-x="723" unicode="&#x23;"/><glyph d="M233-6q-139 16-204 137l110 90q23-37 55.5-62.5t77.5-25.5q35 0 51.5 17.5t16.5 42.5q0 24-19 41.5t-64 37.5l-40 18q-81 36-119 93.5t-38 129.5q0 42 13.5 76.5t36.5 61 55 43 68 21.5v83h83v-83q40-6 73-25.5t68-60.5l-96-101q-26 29-44 39t-40 10q-33 0-49-17t-16-41q0-28 23.5-46t72.5-40l38-17q146-66 146-213 0-43-12.5-78.5t-35-62.5-55.5-44-73-23v-83h-83v82z" glyph-name="dollar" horiz-adv-x="527" unicode="&#x24;"/><glyph d="M200 445q-28 0-52.5 10.5t-42.5 28.5-28.5 42.5-10.5 52.5 10.5 52.5 28.5 43 42.5 29 52.5 10.5 52.5-10.5 43-29 29-43 10.5-52.5-10.5-52.5-29-42.5-43-28.5-52.5-10.5zM200 536q18 0 30.5 12.5t12.5 30.5-12.5 30.5-30.5 12.5-30.5-12.5-12.5-30.5 12.5-30.5 30.5-12.5zM46 412h309v-114h-309v114zM200-4q-28 0-52.5 10.5t-42.5 28.5-28.5 42.5-10.5 52.5 10.5 52.5 28.5 43 42.5 29 52.5 10.5 52.5-10.5 43-29 29-43 10.5-52.5-10.5-52.5-29-42.5-43-28.5-52.5-10.5zM200 87q18 0 30.5 12.5t12.5 30.5-12.5 30.5-30.5 12.5-30.5-12.5-12.5-30.5 12.5-30.5 30.5-12.5z" glyph-name="percent" horiz-adv-x="401" unicode="&#x25;"/><glyph d="M260-8q-47 0-88.5 18t-72.5 49-49 72.5-18 88.5q0 43 13.5 78.5t35.5 63 50 46.5 57 29q8 3 20.5 6t32.5 5l-128 262h405v-132h-173l283-578h-168l-35 71q-35-47-76-63t-89-16zM260 135q34 0 58 25t24 60-24 60-58 25-58-25-24-60 24-60 58-25z" glyph-name="ampersand" horiz-adv-x="619" unicode="&#x26;"/><glyph d="M57 710h127v-298h-127v298z" glyph-name="quotesingle" horiz-adv-x="241" unicode="&#x27;"/><glyph d="M261.984-115q-42.998 101-68.4961 205.5t-25.498 209.5 25.498 209.5 68.4961 205.5l-110.993 49q-56.9971-104-83.4951-217.5-26.499-113.5-26.499-246.5t26.499-246.5q26.498-113.5 83.4951-217.5z" glyph-name="parenleft" horiz-adv-x="289" unicode="&#x28;"/><glyph d="M27-115q43 101 68.5 205.5t25.5 209.5-25.5 209.5-68.5 205.5l111 49q57-104 83.5-217.5t26.5-246.5-26.5-246.5-83.5-217.5z" glyph-name="parenright" horiz-adv-x="290" unicode="&#x29;"/><glyph d="M83 343l88 120-142 46 32 98 142-46v149h103v-149l141 47 32-98-141-47 88-120-83-60-88 119-89-119z" glyph-name="asterisk" horiz-adv-x="508" unicode="&#x2a;"/><glyph d="M77 339h161v161h114v-161h161v-114h-161v-161h-114v161h-161v114z" glyph-name="plus" horiz-adv-x="590" unicode="&#x2b;"/><glyph d="M124 0h-67v174h174v-174l-64-154h-87z" glyph-name="comma" horiz-adv-x="288" unicode="&#x2c;"/><glyph d="M56 354h284v-144h-284v144z" glyph-name="hyphen" horiz-adv-x="396" unicode="&#x2d;"/><glyph d="M145-8q-23 0-42.5 8.5t-34 23-23 34-8.5 42.5 8.5 43 23.5 34.5 34.5 22.5 41.5 8 41.5-8 34.5-22.5 23.5-34.5 8.5-43-8.5-42.5-23-34-34.5-23-42-8.5z" glyph-name="period" horiz-adv-x="290" unicode="&#x2e;"/><glyph d="M351 710h136l-331-710h-136z" glyph-name="slash" horiz-adv-x="505" unicode="&#x2f;"/><glyph d="M405-8q-75 0-141.5 28.5t-116.5 78-79 115.5-29 141 29 141 79 115.5 116.5 78 141.5 28.5 141.5-28.5 116.5-78 79-115.5 29-141-29-141-79-115.5-116.5-78-141.5-28.5zM405 133q47 0 86 17.5t67.5 47.5 44.5 70.5 16 86.5-16 86.5-44.5 70.5-67.5 47.5-86 17.5-86-17.5-67.5-47.5-44.5-70.5-16-86.5 16-86.5 44.5-70.5 67.5-47.5 86-17.5z" glyph-name="zero" horiz-adv-x="810" unicode="&#x30;"/><glyph d="M67 566l152 152v-718h-152v566z" glyph-name="one" horiz-adv-x="295" unicode="&#x31;"/><glyph d="M236 270q-33 6-63 26.5t-53 50.5-36.5 66.5-13.5 75.5q0 48 18.5 90t50.5 72.5 75 48.5 91 18 91-18 75-48.5 51-72.5 19-90q0-42-14.5-79t-39.5-67l-163-202h216v-141h-524zM305 400q38 0 61 26.5t23 62.5-23 62-61 26-60.5-26-22.5-62 22.5-62.5 60.5-26.5z" glyph-name="two" horiz-adv-x="591" unicode="&#x32;"/><glyph d="M240-8q-68 0-124.5 26.5t-92.5 73.5l107 99q17-25 41-41.5t59-16.5q50 0 79 28.5t29 78.5-29 78.5-79 28.5h-72l105 222h-207v141h429l-118-250q64-34 94-92t30-128q0-56-18-102t-51-78.5-79.5-50-102.5-17.5z" glyph-name="three" horiz-adv-x="535" unicode="&#x33;"/><glyph d="M376 160h-376l528 558v-426h76v-132h-76v-160h-152v160zM376 292v101l-96-101h96z" glyph-name="four" horiz-adv-x="643" unicode="&#x34;"/><glyph d="M261-8q-69 0-125.5 26t-91.5 74l110 102q14-22 37.5-41.5t59.5-19.5q23 0 41 8t30.5 21 19 30.5 6.5 36.5-6.5 36.5-19 30.5-30.5 21-41 8q-35 0-57.5-16.5t-32.5-42.5l-98 41v403h387v-141h-235v-106q17 2 27 2.5t19 .5q54 0 98-17t75.5-47.5 49-74.5 17.5-98-17.5-98-49-74.5-75.5-47.5-98-17z" glyph-name="five" horiz-adv-x="541" unicode="&#x35;"/><glyph d="M285-8q-53 0-98.5 18t-79 50-52.5 75.5-19 93.5q0 39 14 72.5t31 65.5l187 343h169l-133-245q47-2 89-20.5t73.5-49.5 49.5-73.5 18-92.5-19-93.5-52.5-75.5-79-50-98.5-18zM285 133q23 0 41 8t30.5 21 19 30.5 6.5 36.5-6.5 36.5-19 30.5-30.5 21-41 8-41-8-30.5-21-19-30.5-6.5-36.5 6.5-36.5 19-30.5 30.5-21 41-8z" glyph-name="six" horiz-adv-x="565" unicode="&#x36;"/><glyph d="M302 569h-264v141h492l-322-710h-164z" glyph-name="seven" horiz-adv-x="529" unicode="&#x37;"/><glyph d="M287-8q-53 0-98.5 18t-79 50-52.5 75.5-19 93.5q0 58 25 104t68 76q-19 22-29.5 50t-10.5 62q0 41 15.5 77t42 62.5 62 42 76.5 15.5 76.5-15.5 62-42 42-62.5 15.5-77q0-34-10.5-62t-29.5-50q43-30 68-76t25-104q0-50-19-93.5t-52.5-75.5-79-50-98.5-18zM287 577q-26 0-40-16.5t-14-39.5 14-39.5 40-16.5 40 16.5 14 39.5-14 39.5-40 16.5zM287 133q23 0 41 8t30.5 21 19 30.5 6.5 36.5-6.5 36.5-19 30.5-30.5 21-41 8-41-8-30.5-21-19-30.5-6.5-36.5 6.5-36.5 19-30.5 30.5-21 41-8z" glyph-name="eight" horiz-adv-x="574" unicode="&#x38;"/><glyph d="M261 245q-47 2-89 20.5t-73.5 49.5-49.5 73.5-18 92.5 19 93.5 52.5 75.5 79 50 98.5 18 98.5-18 79-50 52.5-75.5 19-93.5q0-39-14-72.5t-31-65.5l-187-343h-169zM280 385q23 0 41 8t30.5 21 19 30.5 6.5 36.5-6.5 36.5-19 30.5-30.5 21-41 8-41-8-30.5-21-19-30.5-6.5-36.5 6.5-36.5 19-30.5 30.5-21 41-8z" glyph-name="nine" horiz-adv-x="565" unicode="&#x39;"/><glyph d="M155 292q-23 0-42.5 8.5t-34 23-23 34-8.5 42.5 8.5 43 23.5 34.5 34.5 22.5 41.5 8 41.5-8 34.5-22.5 23.5-34.5 8.5-43-8.5-42.5-23-34-34.5-23-42-8.5zM155-8q-23 0-42.5 8.5t-34 23-23 34-8.5 42.5 8.5 43 23.5 34.5 34.5 22.5 41.5 8 41.5-8 34.5-22.5 23.5-34.5 8.5-43-8.5-42.5-23-34-34.5-23-42-8.5z" glyph-name="colon" horiz-adv-x="310" unicode="&#x3a;"/><glyph d="M154 292q-23 0-42.5 8.5t-34 23-23 34-8.5 42.5 8.5 43 23.5 34.5 34.5 22.5 41.5 8 41.5-8 34.5-22.5 23.5-34.5 8.5-43-8.5-42.5-23-34-34.5-23-42-8.5zM134 0h-67v174h174v-174l-64-154h-87z" glyph-name="semicolon" horiz-adv-x="308" unicode="&#x3b;"/><glyph d="M77 442h436v-114h-436v114zM77 236h436v-114h-436v114z" glyph-name="equal" horiz-adv-x="590" unicode="&#x3d;"/><glyph d="M177 396h67q42 0 70.5 21.5t28.5 68.5q0 23-7.5 40t-19 28.5-26.5 17-30 5.5q-30 0-55-22t-25-69h-152q0 48 17.5 90.5t48.5 74 73.5 49.5 92.5 18 93-18 74.5-49.5 49.5-74 18-90.5-18.5-90.5-51.5-73.5-79-49-102-18h-67v141zM240-8q-23 0-42.5 8.5t-34 23-23 34-8.5 42.5q0 26 10.5 47.5t29.5 36.5h136q18-15 29-36.5t11-47.5q0-23-8.5-42.5t-23-34-34.5-23-42-8.5z" glyph-name="question" horiz-adv-x="536" unicode="&#x3f;"/><glyph d="M384-8q-81 0-145.5 27t-110 73.5-69.5 109.5-24 135q0 85 31.5 155.5t84.5 120.5 123.5 77.5 147.5 27.5q74 0 137-22t109-62.5 72-98 26-129.5q0-65-16-111.5t-41.5-75.5-59-42.5-67.5-13.5q-33 0-58 13.5t-42 33.5q-29-24-61-34.5t-60-10.5q-41 0-72 13.5t-52 37-31.5 55-10.5 66.5q0 45 16 85t44.5 70 68.5 47 88 17q28 0 50.5-7t39.5-20l4 17h95l-47-220q-7-33 2.5-56t41.5-23q40 0 62 36.5t22 124.5q0 58-21.5 101.5t-57.5 71.5-83 42-99 14q-58 0-112-19.5t-95-58-66-94.5-25-128q0-59 18.5-107.5t52-82.5 82-52.5 108.5-18.5q45 0 90 10t86 31l33-81q-47-21-103.5-32.5t-105.5-11.5zM299 345q0-39 19-62.5t59-23.5q23 0 41.5 7.5t32.5 21.5q0 2 .5 4t.5 4l30 139q-14 14-32 21t-37 7q-50 0-82-33.5t-32-84.5z" glyph-name="at" horiz-adv-x="790" unicode="&#x40;"/><glyph d="M335 718l350-718h-168l-52 110h-260l-52-110h-168zM404 240l-69 147-69-147h138z" glyph-name="A" horiz-adv-x="670" unicode="&#x41;"/><glyph d="M76 710h267q43 0 81.5-16.5t67.5-45.5 45.5-67.5 16.5-81.5q0-38-13.5-68.5t-36.5-53.5q45-24 72.5-66.5t27.5-99.5q0-44-16.5-82.5t-46-67-68.5-45-84-16.5h-313v710zM325 423q32 0 53 20.5t21 49.5-21 50-53 21h-89v-141h89zM374 147q32 0 53 20.5t21 49.5-21 50-53 21h-138v-141h138z" glyph-name="B" horiz-adv-x="637" unicode="&#x42;"/><glyph d="M400-8q-75 0-141 28.5t-115.5 78-78 115.5-28.5 141 28.5 141 78 115.5 115.5 78 141 28.5q92 0 169.5-42t127.5-112l-121-99q-27 44-73 71.5t-103 27.5q-43 0-80-16.5t-64-45-42.5-66.5-15.5-81 15.5-81 42.5-66.5 64-45 80-16.5q57 0 103 27.5t73 71.5l121-99q-50-70-127.5-112t-169.5-42z" glyph-name="C" horiz-adv-x="715" unicode="&#x43;"/><glyph d="M76 710h249q75 0 141-28t114.5-76 77-113 28.5-138q0-74-28.5-138.5t-77-112.5-114.5-76-141-28h-249v710zM325 146q45 0 81.5 16.5t63 45 41 66.5 14.5 81-14.5 81-41 66.5-63 45-81.5 16.5h-89v-418h89z" glyph-name="D" horiz-adv-x="723" unicode="&#x44;"/><glyph d="M76 710h440v-158h-280v-120h220v-154h-220v-120h280v-158h-440v710z" glyph-name="E" horiz-adv-x="564" unicode="&#x45;"/><glyph d="M76 710h420v-158h-260v-120h200v-154h-200v-278h-160v710z" glyph-name="F" horiz-adv-x="527" unicode="&#x46;"/><glyph d="M400-8q-75 0-141 28.5t-115.5 78-78 115.5-28.5 141 28.5 141 78 115.5 115.5 78 141 28.5q92 0 163.5-35t123.5-99l-121-99q-32 41-70.5 60t-95.5 19q-43 0-80-16.5t-64-45-42.5-66.5-15.5-81 15.5-81 42.5-66.5 64-45 80-16.5q44 0 77.5 8t59.5 27v99h-171l68 150h258v-322q-53-60-127-88t-165-28z" glyph-name="G" horiz-adv-x="744" unicode="&#x47;"/><glyph d="M76 710h160v-278h284v278h160v-710h-160v278h-284v-278h-160v710z" glyph-name="H" horiz-adv-x="756" unicode="&#x48;"/><glyph d="M76 710h160v-710h-160v710z" glyph-name="I" horiz-adv-x="312" unicode="&#x49;"/><glyph d="M236-8q-45 0-85 12.5t-70 39.5-47.5 68.5-17.5 99.5h160q0-38 15.5-54.5t44.5-16.5 44.5 16.5 15.5 54.5v498h160v-508q0-56-17.5-95.5t-47.5-65-70-37.5-85-12z" glyph-name="J" horiz-adv-x="527" unicode="&#x4a;"/><glyph d="M76 710h160v-356l248 356h184l-249-359 281-351h-198l-266 333v-333h-160v710z" glyph-name="K" horiz-adv-x="685" unicode="&#x4b;"/><glyph d="M76 710h160v-551h276v-159h-436v710z" glyph-name="L" horiz-adv-x="533" unicode="&#x4c;"/><glyph d="M76 718l354-355 354 355v-718h-160v348l-194-194-194 194v-348h-160v718z" glyph-name="M" horiz-adv-x="860" unicode="&#x4d;"/><glyph d="M236 371v-371h-160v718l448-379v371h160v-718z" glyph-name="N" horiz-adv-x="760" unicode="&#x4e;"/><glyph d="M400-8q-75 0-141 28.5t-115.5 78-78 115.5-28.5 141 28.5 141 78 115.5 115.5 78 141 28.5 141-28.5 115.5-78 78-115.5 28.5-141-28.5-141-78-115.5-115.5-78-141-28.5zM400 146q43 0 80 16.5t64 45 42.5 66.5 15.5 81-15.5 81-42.5 66.5-64 45-80 16.5-80-16.5-64-45-42.5-66.5-15.5-81 15.5-81 42.5-66.5 64-45 80-16.5z" glyph-name="O" horiz-adv-x="800" unicode="&#x4f;"/><glyph d="M76 710h234q52 0 96.5-19t77-51.5 51-76.5 18.5-94-18.5-94-51-76.5-77-51.5-96.5-19h-74v-228h-160v710zM308 377q19 0 35.5 7.5t28.5 20.5 19 29.5 7 34.5q0 36-25.5 63.5t-64.5 27.5h-72v-183h72z" glyph-name="P" horiz-adv-x="579" unicode="&#x50;"/><glyph d="M400-8q-75 0-141 28.5t-115.5 78-78 115.5-28.5 141 28.5 141 78 115.5 115.5 78 141 28.5 141-28.5 115.5-78 78-115.5 28.5-141q0-46-11-89t-31-81l101-81-91-112-101 82q-48-39-106-60.5t-124-21.5zM400 146q59 0 105 29l-108 88 91 111 104-84q5 15 7.5 31.5t2.5 33.5q0 43-15.5 81t-42.5 66.5-64 45-80 16.5-80-16.5-64-45-42.5-66.5-15.5-81 15.5-81 42.5-66.5 64-45 80-16.5z" glyph-name="Q" horiz-adv-x="811" unicode="&#x51;"/><glyph d="M76 710h268q43 0 81.5-16.5t67.5-45.5 45.5-67.5 16.5-81.5q0-68-38.5-121.5t-98.5-76.5l231-301h-191l-220 288h-2v-288h-160v710zM326 423q32 0 53 20.5t21 49.5-21 50-53 21h-90v-141h90z" glyph-name="R" horiz-adv-x="643" unicode="&#x52;"/><glyph d="M282-8q-86 0-152 35t-103 104l121 99q23-37 58.5-62.5t72.5-25.5q68 0 68 51 0 24-19 41.5t-64 37.5l-40 18q-81 36-123.5 93.5t-42.5 129.5q0 46 18 84t48 65 69 41.5 81 14.5q59 0 106.5-18.5t92.5-70.5l-108-114q-27 33-46.5 43t-44.5 10q-20 0-37.5-12.5t-17.5-36.5q0-28 23.5-46t72.5-40l38-17q74-33 114.5-86t40.5-127q0-48-17-87t-47-66.5-71.5-42.5-90.5-15z" glyph-name="S" horiz-adv-x="542" unicode="&#x53;"/><glyph d="M191 552h-170v158h501v-158h-171v-552h-160v552z" glyph-name="T" horiz-adv-x="543" unicode="&#x54;"/><glyph d="M359-8q-64 0-117.5 21t-92 60-60 93.5-21.5 121.5v422h160v-424q0-65 36-102.5t95-37.5 95 37.5 36 102.5v424h160v-423q0-67-21.5-121.5t-60-93-92-59.5-117.5-21z" glyph-name="U" horiz-adv-x="718" unicode="&#x55;"/><glyph d="M-9 710h178l157-355 157 355h178l-335-718z" glyph-name="V" horiz-adv-x="652" unicode="&#x56;"/><glyph d="M-3 710h163l110-333 160 341 160-341 110 333h163l-246-718-187 410-187-410z" glyph-name="W" horiz-adv-x="860" unicode="&#x57;"/><glyph d="M228 356l-209 354h185l137-236 137 236h185l-209-354 224-356h-186l-151 244-151-244h-186z" glyph-name="X" horiz-adv-x="682" unicode="&#x58;"/><glyph d="M261 298l-263 412h187l156-252 156 252h187l-263-412v-298h-160v298z" glyph-name="Y" horiz-adv-x="682" unicode="&#x59;"/><glyph d="M336 552h-287v158h560l-329-552h308v-158h-581z" glyph-name="Z" horiz-adv-x="627" unicode="&#x5a;"/><glyph d="M301.981-159v108h-103.993v702h103.993v108h-230.985v-918h230.985z" glyph-name="bracketleft" horiz-adv-x="334" unicode="&#x5b;"/><glyph d="M32-159v108h104v702h-104v108h231v-918h-231z" glyph-name="bracketright" horiz-adv-x="334" unicode="&#x5d;"/><glyph d="M45 0h436v-114h-436v114z" glyph-name="underscore" horiz-adv-x="526" unicode="&#x5f;"/><glyph d="M-126 710h173l84-160h-110z" glyph-name="grave" unicode="&#x60;"/><glyph d="M385 29q-22-18-50.5-27.5t-59.5-9.5q-56 0-100.5 21t-76 56.5-48.5 82.5-17 98 17 98 48.5 82.5 76 56.5 100.5 21q31 0 59.5-10t50.5-28v30h151v-500h-151v29zM300 130q53 0 85 41v157q-16 20-36.5 31t-48.5 11q-27 0-48.5-9.5t-36-26-22.5-38-8-46.5 8-46.5 22.5-38 36-26 48.5-9.5z" glyph-name="a" horiz-adv-x="596" unicode="&#x61;"/><glyph d="M60 710h151v-240q22 18 50.5 28t59.5 10q55 0 100-21t76.5-56.5 48.5-82.5 17-98-17-98-48.5-82.5-76.5-56.5-100-21q-31 0-59.5 9.5t-50.5 27.5v-29h-151v710zM296 370q-54 0-85-42v-157q30-41 85-41 27 0 48.5 9.5t36 26 22.5 38 8 46.5-8 46.5-22.5 38-36 26-48.5 9.5z" glyph-name="b" horiz-adv-x="596" unicode="&#x62;"/><glyph d="M292-8q-54 0-101.5 20.5t-82.5 55.5-55.5 82-20.5 100 20.5 100 55.5 82 82.5 55.5 101.5 20.5q69 0 126.5-32t92.5-86l-120-85q-15 28-40.5 45t-58.5 17q-47 0-77.5-32.5t-30.5-84.5 30.5-84.5 77.5-32.5q33 0 58.5 17t40.5 45l120-85q-35-54-92.5-86t-126.5-32z" glyph-name="c" horiz-adv-x="530" unicode="&#x63;"/><glyph d="M385 0v29q-22-18-50.5-27.5t-59.5-9.5q-56 0-100.5 21t-76 56.5-48.5 82.5-17 98 17 98 48.5 82.5 76 56.5 100.5 21q31 0 59.5-10t50.5-28v240h151v-710h-151zM300 370q-27 0-48.5-9.5t-36-26-22.5-38-8-46.5 8-46.5 22.5-38 36-26 48.5-9.5q55 0 85 41v157q-31 42-85 42z" glyph-name="d" horiz-adv-x="596" unicode="&#x64;"/><glyph d="M288-8q-50 0-96 18.5t-81 52.5-56.5 81.5-21.5 105.5q0 55 18.5 102.5t52.5 82 81.5 54 105.5 19.5q56 0 103.5-20t80-57 48-89.5 6.5-118.5h-351q3-25 14-42.5t26.5-29 33.5-16.5 35-5q40 0 66 17.5t41 45.5l120-81q-35-54-93-87t-133-33zM282 387q-14 0-29.5-3.5t-30-12-26-23.5-17.5-37h204q-6 40-35 58t-66 18z" glyph-name="e" horiz-adv-x="564" unicode="&#x65;"/><glyph d="M98 368h-65v132h73q-14 17-22.5 38t-8.5 45q0 27 9.5 50t27 40 42.5 27 56 10h155v-132h-98q-26 0-37.5-11t-11.5-28 11-28 28-11h108v-132h-116v-368h-151v368z" glyph-name="f" horiz-adv-x="383" unicode="&#x66;"/><glyph d="M290-194q-57 0-114 10.5t-111 45.5l68 133q30-23 66.5-37t80.5-14q22 0 43 4t36.5 13.5 25 24.5 9.5 38q0 8-2.5 19.5t-10.5 22.5q-22-18-51-28t-60-10q-57 0-101 20.5t-74 54-45.5 76.5-15.5 89 15.5 89 45.5 76.5 74 54 101 20.5q31 0 59.5-10t50.5-28v30h151v-403q11-26 16-50.5t5-47.5q0-53-22.5-89.5t-59.5-59.5-84-33.5-96-10.5zM290 166q56 0 90 42v120q-34 42-90 42-25 0-44.5-9t-32.5-23-20-32.5-7-37.5 7-37.5 20-32.5 32.5-23 44.5-9z" glyph-name="g" horiz-adv-x="594" unicode="&#x67;"/><glyph d="M60 710h151v-241q47 39 115 39 53 0 93.5-17t68.5-47 42-72 14-93v-279h-151v252q0 50-21.5 84t-70.5 34q-22 0-46.5-11t-43.5-32v-327h-151v710z" glyph-name="h" horiz-adv-x="598" unicode="&#x68;"/><glyph d="M60 500h151v-500h-151v500zM66 571q-20 23-20 57 0 38 26 64t64 26 64-26 26-64q0-34-20-57h-140z" glyph-name="i" horiz-adv-x="271" unicode="&#x69;"/><glyph d="M-36-41h25q36 0 57.5 12t21.5 48v481h151v-500q0-46-16-80.5t-45-57.5-70-34.5-90-11.5h-34v143zM74 571q-20 23-20 57 0 38 26 64t64 26 64-26 26-64q0-34-20-57h-140z" glyph-name="j" horiz-adv-x="279" unicode="&#x6a;"/><glyph d="M60 710h151v-439l163 229h174l-170-237 196-263h-178l-185 249v-249h-151v710z" glyph-name="k" horiz-adv-x="564" unicode="&#x6b;"/><glyph d="M60 710h151v-710h-151v710z" glyph-name="l" horiz-adv-x="271" unicode="&#x6c;"/><glyph d="M373 252q0 24-4 45.5t-13 37.5-24.5 25-37.5 9q-24 0-46-10.5t-37-29.5v-329h-151v500h151v-30q22 17 52 27.5t62 10.5q45 0 80.5-16t61.5-45q22 22 62 41.5t98 19.5q56 0 95.5-18t65-49.5 37.5-73 12-88.5v-279h-151v252q0 24-4 45.5t-13 37.5-24.5 25-37.5 9q-26 0-48.5-11.5t-37.5-31.5q3-23 3-47v-279h-151v252z" glyph-name="m" horiz-adv-x="891" unicode="&#x6d;"/><glyph d="M60 500h151v-31q47 39 115 39 53 0 93.5-17t68.5-47 42-72 14-93v-279h-151v252q0 50-21.5 84t-70.5 34q-22 0-46.5-11t-43.5-32v-327h-151v500z" glyph-name="n" horiz-adv-x="598" unicode="&#x6e;"/><glyph d="M292-8q-54 0-101.5 20.5t-82.5 55.5-55.5 82-20.5 100 20.5 100 55.5 82 82.5 55.5 101.5 20.5 101.5-20.5 82.5-55.5 55.5-82 20.5-100-20.5-100-55.5-82-82.5-55.5-101.5-20.5zM292 133q47 0 77.5 32.5t30.5 84.5-30.5 84.5-77.5 32.5-77.5-32.5-30.5-84.5 30.5-84.5 77.5-32.5z" glyph-name="o" horiz-adv-x="584" unicode="&#x6f;"/><glyph d="M211 500v-29q22 18 50.5 27.5t59.5 9.5q55 0 100-21t76.5-56.5 48.5-82.5 17-98-17-98-48.5-82.5-76.5-56.5-100-21q-31 0-59.5 10t-50.5 28v-214h-151v684h151zM296 130q27 0 48.5 9.5t36 26 22.5 38 8 46.5-8 46.5-22.5 38-36 26-48.5 9.5q-55 0-85-41v-157q31-42 85-42z" glyph-name="p" horiz-adv-x="596" unicode="&#x70;"/><glyph d="M536-184h-151v214q-22-18-50.5-28t-59.5-10q-56 0-100.5 21t-76 56.5-48.5 82.5-17 98 17 98 48.5 82.5 76 56.5 100.5 21q31 0 59.5-9.5t50.5-27.5v29h151v-684zM300 130q54 0 85 42v157q-30 41-85 41-27 0-48.5-9.5t-36-26-22.5-38-8-46.5 8-46.5 22.5-38 36-26 48.5-9.5z" glyph-name="q" horiz-adv-x="596" unicode="&#x71;"/><glyph d="M60 500h151v-44q43 52 114 52 12 0 26-1.5t28-6.5v-157q-17 9-37 13t-40 4q-23 0-48-8.5t-43-24.5v-327h-151v500z" glyph-name="r" horiz-adv-x="398" unicode="&#x72;"/><glyph d="M226-8q-66 0-117.5 24.5t-83.5 81.5l115 78q15-27 36.5-44t55.5-17q16 0 27.5 4.5t11.5 18.5-13 22-50 22l-26 10q-132 52-132 161 0 34 13.5 63t36.5 49 54.5 31.5 67.5 11.5q48 0 88.5-18.5t69.5-60.5l-86-85q-14 20-31.5 32.5t-40.5 12.5q-15 0-25.5-5.5t-10.5-17.5q0-15 14-23t52-22l21-8q72-27 103-66.5t31-95.5q0-38-14-68t-38.5-50-57.5-30.5-71-10.5z" glyph-name="s" horiz-adv-x="439" unicode="&#x73;"/><glyph d="M259 0q-71 0-112 41t-41 113v214h-65l-33 132h98v75l151 75v-150h158l-33-132h-125v-171q0-32 13.5-45.5t44.5-13.5h82v-138h-138v0z" glyph-name="t" horiz-adv-x="430" unicode="&#x74;"/><glyph d="M387 37q-23-22-55-33.5t-64-11.5q-51 0-90.5 16.5t-67 47-42 72.5-14.5 93v279h151v-252q0-51 21.5-84.5t66.5-33.5q28 0 53.5 13t40.5 37v320h151v-500h-151v37z" glyph-name="u" horiz-adv-x="598" unicode="&#x75;"/><glyph d="M-15 500h174l117-218 117 218h174l-291-508z" glyph-name="v" horiz-adv-x="552" unicode="&#x76;"/><glyph d="M2 500h159l83-282 123 290 123-290 83 282h159l-159-500h-115l-91 205-91-205h-115z" glyph-name="w" horiz-adv-x="734" unicode="&#x77;"/><glyph d="M182 252l-171 248h175l94-143 94 143h175l-171-248 180-252h-175l-103 150-103-150h-175z" glyph-name="x" horiz-adv-x="560" unicode="&#x78;"/><glyph d="M185 0l-184 500h160l104-317 104 317h160l-252-684h-160z" glyph-name="y" horiz-adv-x="528" unicode="&#x79;"/><glyph d="M245 370h-202v130h454l-231-369h216v-131h-469z" glyph-name="z" horiz-adv-x="518" unicode="&#x7a;"/><glyph d="M320.98-159v108h-46.9971q-30.998 0-43.9971 13-13 13-13 44v196q0 44-17.498 67.5-17.499 23.5-44.498 30.5 26.999 7 44.498 30.5 17.498 23.5 17.498 67.5v196q0 31 13 44 12.999 13 43.9971 13h46.9971v108h-88.9941q-64.9961 0-103.494-38.5t-38.498-103.5v-210q0-22-11.999-37.5t-40.9971-15.5h-8v-108h8q28.998 0 40.9971-15.5t11.999-37.5v-210q0-65 41.498-103.5 41.4971-38.5 106.493-38.5h82.9951z" glyph-name="braceleft" horiz-adv-x="352" unicode="&#x7b;"/><glyph d="M71 710h127v-894h-127v894z" glyph-name="bar" horiz-adv-x="269" unicode="&#x7c;"/><glyph d="M30-159v108h47q31 0 44 13t13 44v196q0 44 17.5 67.5t44.5 30.5q-27 7-44.5 30.5t-17.5 67.5v196q0 31-13 44t-44 13h-47v108h89q65 0 103.5-38.5t38.5-103.5v-210q0-22 12-37.5t41-15.5h8v-108h-8q-29 0-41-15.5t-12-37.5v-210q0-65-41.5-103.5t-106.5-38.5h-83z" glyph-name="braceright" horiz-adv-x="351" unicode="&#x7d;"/><glyph glyph-name="uni00A0" horiz-adv-x="218" unicode="&#xa0;"/><glyph d="M143 508q22 0 42-8.5t34.5-23 23-34.5 8.5-42q0-26-11-47.5t-29-36.5h-136q-18 15-29 36.5t-11 47.5q0 22 8.5 42t23 34.5 34 23 42.5 8.5zM189 245l30-184v-245h-152v245l30 184h92z" glyph-name="exclamdown" horiz-adv-x="286" unicode="&#xa1;"/><glyph d="M46 141h76v178h-76v74h80q-12 18-22 45t-10 63q0 43 17.5 82.5t48.5 69.5 73.5 47.5 91.5 17.5q47 0 88.5-17.5t72.5-47.5 50-71 21-87h-152q0 36-23 59t-57 23-56.5-23-22.5-67q0-38 24-66t68-28h67v-74h-131v-178h283v-141h-511v141z" glyph-name="sterling" horiz-adv-x="598" unicode="&#xa3;"/><glyph d="M111 372h126l-216 338h187l156-252 156 252h187l-216-338h126v-74h-173v-73h173v-74h-173v-151h-160v151h-173v74h173v73h-173v74z" glyph-name="yen" horiz-adv-x="728" unicode="&#xa5;"/><glyph d="M119 567q-33 0-56.5 23.5t-23.5 56.5q0 35 24 57.5t56 22.5 56-22.5 24-57.5q0-33-23.5-56.5t-56.5-23.5zM-119 567q-33 0-56.5 23.5t-23.5 56.5q0 35 24 57.5t56 22.5 56-22.5 24-57.5q0-33-23.5-56.5t-56.5-23.5z" glyph-name="dieresis" unicode="&#xa8;"/><glyph d="M400-8q-75 0-141 28.5t-115.5 78-78 115.5-28.5 141 28.5 141 78 115.5 115.5 78 141 28.5 141-28.5 115.5-78 78-115.5 28.5-141-28.5-141-78-115.5-115.5-78-141-28.5zM400 73q58 0 108.5 21.5t87.5 59.5 58 89.5 21 112.5q0 59-21 110.5t-58 89.5-87.5 59.5-108.5 21.5q-59 0-109-21.5t-87-59.5-58-89.5-21-110.5q0-61 21-112.5t58-89.5 87-59.5 109-21.5zM413 183q-35 0-66.5 13.5t-55 37-37 55-13.5 66.5 13.5 66.5 37 55 55 37 66.5 13.5q44 0 81-20.5t62-55.5l-67-54q-11 20-31 33t-45 13q-18 0-33-7t-26.5-19-18-28-6.5-34 6.5-33.5 18-27.5 26.5-19 33-7q25 0 45 13t31 33l67-55q-25-35-62-55.5t-81-20.5z" glyph-name="copyright" horiz-adv-x="800" unicode="&#xa9;"/><glyph d="M261 250l164 241 100-68-118-173 118-173-100-68zM26 250l164 241 100-68-118-173 118-173-100-68z" glyph-name="guillemotleft" horiz-adv-x="562" unicode="&#xab;"/><glyph d="M56 354h284v-144h-284v144z" glyph-name="uni00AD" horiz-adv-x="396" unicode="&#xad;"/><glyph d="M-165 675h330v-96h-330v96z" glyph-name="macron" unicode="&#xaf;"/><glyph d="M154 470q-25 0-47.5 9.5t-39 26-26 39-9.5 47.5 9.5 47.5 26 39 39 26 47.5 9.5 47.5-9.5 39-26 26-39 9.5-47.5-9.5-47.5-26-39-39-26-47.5-9.5zM154 547q19 0 32 13t13 32-13 32-32 13-32-13-13-32 13-32 32-13z" glyph-name="degree" horiz-adv-x="308" unicode="&#xb0;"/><glyph d="M126.992 710h-172.989l-83.9951-160h109.993z" glyph-name="acute" unicode="&#xb4;"/><glyph d="M149 142q-23 0-42.5 8.5t-34 23-23 34-8.5 42.5 8.5 43 23.5 34.5 34.5 22.5 41.5 8 41.5-8 34.5-22.5 23.5-34.5 8.5-43-8.5-42.5-23-34-34.5-23-42-8.5z" glyph-name="periodcentered" horiz-adv-x="298" unicode="&#xb7;"/><glyph d="M-21 0h102l-47-165h-127z" glyph-name="cedilla" unicode="&#xb8;"/><glyph d="M272 77l118 173-118 173 100 68 164-241-164-241zM37 77l118 173-118 173 100 68 164-241-164-241z" glyph-name="guillemotright" horiz-adv-x="562" unicode="&#xbb;"/><glyph d="M225 316q-18 15-29 36.5t-11 47.5q0 22 8.5 42t23 34.5 34 23 42.5 8.5q22 0 42-8.5t34.5-23 23-34.5 8.5-42q0-26-10.5-47.5t-29.5-36.5h-136zM273-194q-50 0-93 18t-74.5 49.5-49.5 74-18 90.5 18.5 90.5 51.5 73.5 79 49 102 18h67v-141h-67q-42 0-70.5-21.5t-28.5-68.5q0-23 7.5-40.5t19-28.5 26.5-16.5 30-5.5q30 0 55 22t25 69h152q0-48-17.5-90.5t-48.5-74-73.5-49.5-92.5-18z" glyph-name="questiondown" horiz-adv-x="529" unicode="&#xbf;"/><glyph d="M335 718l350-718h-168l-52 110h-260l-52-110h-168zM404 240l-69 147-69-147h138zM155 913h166l70-145h-110z" glyph-name="Agrave" horiz-adv-x="670" unicode="&#xc0;"/><glyph d="M335 718l350-718h-168l-52 110h-260l-52-110h-168zM404 240l-69 147-69-147h138zM526.968 913h-165.99l-69.9951-145h109.993z" glyph-name="Aacute" horiz-adv-x="670" unicode="&#xc1;"/><glyph d="M335 718l350-718h-168l-52 110h-260l-52-110h-168zM404 240l-69 147-69-147h138zM158 855l177 76 177-76-41-96-136 59-136-59z" glyph-name="Acircumflex" horiz-adv-x="670" unicode="&#xc2;"/><glyph d="M335 718l350-718h-168l-52 110h-260l-52-110h-168zM404 240l-69 147-69-147h138zM146 806q4 28 15.5 49.5t27.5 36.5 35.5 22.5 38.5 7.5q22 0 40-6.5t33.5-14 28.5-13.5 24-6q17 0 27 9.5t16 32.5h96l-4-29q-4-28-15.5-49.5t-27.5-36.5-35.5-22.5-38.5-7.5q-22 0-40 6t-33.5 13.5-28.5 14-24 6.5q-17 0-27-9.5t-16-32.5h-96z" glyph-name="Atilde" horiz-adv-x="670" unicode="&#xc3;"/><glyph d="M335 718l350-718h-168l-52 110h-260l-52-110h-168zM404 240l-69 147-69-147h138zM454 770q-33 0-56.5 23.5t-23.5 56.5q0 35 24 57.5t56 22.5 56-22.5 24-57.5q0-33-23.5-56.5t-56.5-23.5zM216 770q-33 0-56.5 23.5t-23.5 56.5q0 35 24 57.5t56 22.5 56-22.5 24-57.5q0-33-23.5-56.5t-56.5-23.5z" glyph-name="Adieresis" horiz-adv-x="670" unicode="&#xc4;"/><glyph d="M335 718l350-718h-168l-52 110h-260l-52-110h-168zM404 240l-69 147-69-147h138zM335 759q-25 0-46.5 9.5t-38 26-26 38-9.5 46.5 9.5 46.5 26 38 38 26 46.5 9.5 46.5-9.5 38-26 26-38 9.5-46.5-9.5-46.5-26-38-38-26-46.5-9.5zM335 832q20 0 33.5 13.5t13.5 33.5-13.5 33.5-33.5 13.5-33.5-13.5-13.5-33.5 13.5-33.5 33.5-13.5z" glyph-name="Aring" horiz-adv-x="670" unicode="&#xc5;"/><glyph d="M1 0l266 545-81 165h401l77-158h-232l58-120h172l75-154h-171l58-120h232l77-158h-400l-54 110h-258l-52-110h-168zM416 240l-68 139-66-139h134z" glyph-name="AE" horiz-adv-x="922" unicode="&#xc6;"/><glyph d="M400-8q-75 0-141 28.5t-115.5 78-78 115.5-28.5 141 28.5 141 78 115.5 115.5 78 141 28.5q92 0 169.5-42t127.5-112l-121-99q-27 44-73 71.5t-103 27.5q-43 0-80-16.5t-64-45-42.5-66.5-15.5-81 15.5-81 42.5-66.5 64-45 80-16.5q57 0 103 27.5t73 71.5l121-99q-50-70-127.5-112t-169.5-42zM353 0h102l-47-165h-127z" glyph-name="Ccedilla" horiz-adv-x="715" unicode="&#xc7;"/><glyph d="M76 710h440v-158h-280v-120h220v-154h-220v-120h280v-158h-440v710zM116 913h166l70-145h-110z" glyph-name="Egrave" horiz-adv-x="564" unicode="&#xc8;"/><glyph d="M76 710h440v-158h-280v-120h220v-154h-220v-120h280v-158h-440v710zM487.971 913h-165.99l-69.9961-145h109.993z" glyph-name="Eacute" horiz-adv-x="564" unicode="&#xc9;"/><glyph d="M76 710h440v-158h-280v-120h220v-154h-220v-120h280v-158h-440v710zM119 855l177 76 177-76-41-96-136 59-136-59z" glyph-name="Ecircumflex" horiz-adv-x="564" unicode="&#xca;"/><glyph d="M76 710h440v-158h-280v-120h220v-154h-220v-120h280v-158h-440v710zM415 770q-33 0-56.5 23.5t-23.5 56.5q0 35 24 57.5t56 22.5 56-22.5 24-57.5q0-33-23.5-56.5t-56.5-23.5zM177 770q-33 0-56.5 23.5t-23.5 56.5q0 35 24 57.5t56 22.5 56-22.5 24-57.5q0-33-23.5-56.5t-56.5-23.5z" glyph-name="Edieresis" horiz-adv-x="564" unicode="&#xcb;"/><glyph d="M76 710h160v-710h-160v710zM-23 913h166l70-145h-110z" glyph-name="Igrave" horiz-adv-x="312" unicode="&#xcc;"/><glyph d="M76 710h160v-710h-160v710zM348.979 913h-165.989l-69.9961-145h109.993z" glyph-name="Iacute" horiz-adv-x="312" unicode="&#xcd;"/><glyph d="M76 710h160v-710h-160v710zM-20 855l177 76 177-76-41-96-136 59-136-59z" glyph-name="Icircumflex" horiz-adv-x="312" unicode="&#xce;"/><glyph d="M76 710h160v-710h-160v710zM276 770q-33 0-56.5 23.5t-23.5 56.5q0 35 24 57.5t56 22.5 56-22.5 24-57.5q0-33-23.5-56.5t-56.5-23.5zM38 770q-33 0-56.5 23.5t-23.5 56.5q0 35 24 57.5t56 22.5 56-22.5 24-57.5q0-33-23.5-56.5t-56.5-23.5z" glyph-name="Idieresis" horiz-adv-x="312" unicode="&#xcf;"/><glyph d="M101 710h249q75 0 141-28t114.5-76 77-113 28.5-138q0-74-28.5-138.5t-77-112.5-114.5-76-141-28h-249v710zM350 146q45 0 81.5 16.5t63 45 41 66.5 14.5 81-14.5 81-41 66.5-63 45-81.5 16.5h-89v-418h89zM12 392h338v-74h-338v74z" glyph-name="Eth" horiz-adv-x="748" unicode="&#xd0;"/><glyph d="M236 371v-371h-160v718l448-379v371h160v-718zM158 806q4 28 15.5 49.5t27.5 36.5 35.5 22.5 38.5 7.5q22 0 40-6.5t33.5-14 28.5-13.5 24-6q17 0 27 9.5t16 32.5h96l-4-29q-4-28-15.5-49.5t-27.5-36.5-35.5-22.5-38.5-7.5q-22 0-40 6t-33.5 13.5-28.5 14-24 6.5q-17 0-27-9.5t-16-32.5h-96z" glyph-name="Ntilde" horiz-adv-x="760" unicode="&#xd1;"/><glyph d="M400-8q-75 0-141 28.5t-115.5 78-78 115.5-28.5 141 28.5 141 78 115.5 115.5 78 141 28.5 141-28.5 115.5-78 78-115.5 28.5-141-28.5-141-78-115.5-115.5-78-141-28.5zM400 146q43 0 80 16.5t64 45 42.5 66.5 15.5 81-15.5 81-42.5 66.5-64 45-80 16.5-80-16.5-64-45-42.5-66.5-15.5-81 15.5-81 42.5-66.5 64-45 80-16.5zM220 913h166l70-145h-110z" glyph-name="Ograve" horiz-adv-x="800" unicode="&#xd2;"/><glyph d="M400-8q-75 0-141 28.5t-115.5 78-78 115.5-28.5 141 28.5 141 78 115.5 115.5 78 141 28.5 141-28.5 115.5-78 78-115.5 28.5-141-28.5-141-78-115.5-115.5-78-141-28.5zM400 146q43 0 80 16.5t64 45 42.5 66.5 15.5 81-15.5 81-42.5 66.5-64 45-80 16.5-80-16.5-64-45-42.5-66.5-15.5-81 15.5-81 42.5-66.5 64-45 80-16.5zM591.964 913h-165.99l-69.9951-145h109.993z" glyph-name="Oacute" horiz-adv-x="800" unicode="&#xd3;"/><glyph d="M400-8q-75 0-141 28.5t-115.5 78-78 115.5-28.5 141 28.5 141 78 115.5 115.5 78 141 28.5 141-28.5 115.5-78 78-115.5 28.5-141-28.5-141-78-115.5-115.5-78-141-28.5zM400 146q43 0 80 16.5t64 45 42.5 66.5 15.5 81-15.5 81-42.5 66.5-64 45-80 16.5-80-16.5-64-45-42.5-66.5-15.5-81 15.5-81 42.5-66.5 64-45 80-16.5zM223 855l177 76 177-76-41-96-136 59-136-59z" glyph-name="Ocircumflex" horiz-adv-x="800" unicode="&#xd4;"/><glyph d="M400-8q-75 0-141 28.5t-115.5 78-78 115.5-28.5 141 28.5 141 78 115.5 115.5 78 141 28.5 141-28.5 115.5-78 78-115.5 28.5-141-28.5-141-78-115.5-115.5-78-141-28.5zM400 146q43 0 80 16.5t64 45 42.5 66.5 15.5 81-15.5 81-42.5 66.5-64 45-80 16.5-80-16.5-64-45-42.5-66.5-15.5-81 15.5-81 42.5-66.5 64-45 80-16.5zM211 806q4 28 15.5 49.5t27.5 36.5 35.5 22.5 38.5 7.5q22 0 40-6.5t33.5-14 28.5-13.5 24-6q17 0 27 9.5t16 32.5h96l-4-29q-4-28-15.5-49.5t-27.5-36.5-35.5-22.5-38.5-7.5q-22 0-40 6t-33.5 13.5-28.5 14-24 6.5q-17 0-27-9.5t-16-32.5h-96z" glyph-name="Otilde" horiz-adv-x="800" unicode="&#xd5;"/><glyph d="M400-8q-75 0-141 28.5t-115.5 78-78 115.5-28.5 141 28.5 141 78 115.5 115.5 78 141 28.5 141-28.5 115.5-78 78-115.5 28.5-141-28.5-141-78-115.5-115.5-78-141-28.5zM400 146q43 0 80 16.5t64 45 42.5 66.5 15.5 81-15.5 81-42.5 66.5-64 45-80 16.5-80-16.5-64-45-42.5-66.5-15.5-81 15.5-81 42.5-66.5 64-45 80-16.5zM519 770q-33 0-56.5 23.5t-23.5 56.5q0 35 24 57.5t56 22.5 56-22.5 24-57.5q0-33-23.5-56.5t-56.5-23.5zM281 770q-33 0-56.5 23.5t-23.5 56.5q0 35 24 57.5t56 22.5 56-22.5 24-57.5q0-33-23.5-56.5t-56.5-23.5z" glyph-name="Odieresis" horiz-adv-x="800" unicode="&#xd6;"/><glyph d="M86 134l128 128-128 128 81 81 128-128 128 128 80-81-128-128 128-128-80-80-128 128-128-128z" glyph-name="multiply" horiz-adv-x="590" unicode="&#xd7;"/><glyph d="M41-11l97 115q-46 47-73 110-28 66-28 141t28.5 141 78 115.5 115.5 78 141 28.5 141-29q33-14 62-33l96 114 58-47-97-115q47-49 74-112 29-66 29-141t-28.5-141-78-115.5-115.5-78-141-28.5-141 28q-35 15-66 36l-96-114zM400 146q43 0 80 16.5t64 45 42.5 66.5 15.5 81-16 81q-11 28-29 51l-263-311q12-8 26-14 37-16 80-16zM480 547q-37 17-80 17t-80-16.5-64-45-42.5-66.5-15.5-81 15-81q11-27 27-49l262 311q-11 6-22 11z" glyph-name="Oslash" horiz-adv-x="800" unicode="&#xd8;"/><glyph d="M359-8q-64 0-117.5 21t-92 60-60 93.5-21.5 121.5v422h160v-424q0-65 36-102.5t95-37.5 95 37.5 36 102.5v424h160v-423q0-67-21.5-121.5t-60-93-92-59.5-117.5-21zM179 913h166l70-145h-110z" glyph-name="Ugrave" horiz-adv-x="718" unicode="&#xd9;"/><glyph d="M359-8q-64 0-117.5 21t-92 60-60 93.5-21.5 121.5v422h160v-424q0-65 36-102.5t95-37.5 95 37.5 36 102.5v424h160v-423q0-67-21.5-121.5t-60-93-92-59.5-117.5-21zM550.967 913h-165.99l-69.9961-145h109.993z" glyph-name="Uacute" horiz-adv-x="718" unicode="&#xda;"/><glyph d="M359-8q-64 0-117.5 21t-92 60-60 93.5-21.5 121.5v422h160v-424q0-65 36-102.5t95-37.5 95 37.5 36 102.5v424h160v-423q0-67-21.5-121.5t-60-93-92-59.5-117.5-21zM182 855l177 76 177-76-41-96-136 59-136-59z" glyph-name="Ucircumflex" horiz-adv-x="718" unicode="&#xdb;"/><glyph d="M359-8q-64 0-117.5 21t-92 60-60 93.5-21.5 121.5v422h160v-424q0-65 36-102.5t95-37.5 95 37.5 36 102.5v424h160v-423q0-67-21.5-121.5t-60-93-92-59.5-117.5-21zM478 770q-33 0-56.5 23.5t-23.5 56.5q0 35 24 57.5t56 22.5 56-22.5 24-57.5q0-33-23.5-56.5t-56.5-23.5zM240 770q-33 0-56.5 23.5t-23.5 56.5q0 35 24 57.5t56 22.5 56-22.5 24-57.5q0-33-23.5-56.5t-56.5-23.5z" glyph-name="Udieresis" horiz-adv-x="718" unicode="&#xdc;"/><glyph d="M261 298l-263 412h187l156-252 156 252h187l-263-412v-298h-160v298zM532.968 913h-165.99l-69.9961-145h109.994z" glyph-name="Yacute" horiz-adv-x="682" unicode="&#xdd;"/><glyph d="M76 710h160v-114h74q52 0 96.5-19t77-51.5 51-76.5 18.5-94-18.5-94-51-76.5-77-51.5-96.5-19h-74v-114h-160v710zM236 446v-183h72q19 0 35.5 7.5t28.5 20.5 19 29.5 7 34.5q0 36-25.5 63.5t-64.5 27.5h-72z" glyph-name="Thorn" horiz-adv-x="585" unicode="&#xde;"/><glyph d="M390 68q0 43-32.5 71.5t-86.5 28.5v117l43 83h-102v-368h-152v556q0 72 41 113t112 41h103v-138h-46q-31 0-44.5-13.5t-13.5-45.5v-13h317l-114-221q31-15 54.5-39t39.5-52 24-59 8-61q0-52-20.5-98t-56.5-80-85.5-54-107.5-20v152q54 0 86.5 29t32.5 71z" glyph-name="germandbls" horiz-adv-x="575" unicode="&#xdf;"/><glyph d="M385 29q-22-18-50.5-27.5t-59.5-9.5q-56 0-100.5 21t-76 56.5-48.5 82.5-17 98 17 98 48.5 82.5 76 56.5 100.5 21q31 0 59.5-10t50.5-28v30h151v-500h-151v29zM300 130q53 0 85 41v157q-16 20-36.5 31t-48.5 11q-27 0-48.5-9.5t-36-26-22.5-38-8-46.5 8-46.5 22.5-38 36-26 48.5-9.5zM112 710h173l84-160h-110z" glyph-name="agrave" horiz-adv-x="596" unicode="&#xe0;"/><glyph d="M385 29q-22-18-50.5-27.5t-59.5-9.5q-56 0-100.5 21t-76 56.5-48.5 82.5-17 98 17 98 48.5 82.5 76 56.5 100.5 21q31 0 59.5-10t50.5-28v30h151v-500h-151v29zM300 130q53 0 85 41v157q-16 20-36.5 31t-48.5 11q-27 0-48.5-9.5t-36-26-22.5-38-8-46.5 8-46.5 22.5-38 36-26 48.5-9.5zM512.969 710h-172.989l-83.9951-160h109.993z" glyph-name="aacute" horiz-adv-x="596" unicode="&#xe1;"/><glyph d="M385 29q-22-18-50.5-27.5t-59.5-9.5q-56 0-100.5 21t-76 56.5-48.5 82.5-17 98 17 98 48.5 82.5 76 56.5 100.5 21q31 0 59.5-10t50.5-28v30h151v-500h-151v29zM300 130q53 0 85 41v157q-16 20-36.5 31t-48.5 11q-27 0-48.5-9.5t-36-26-22.5-38-8-46.5 8-46.5 22.5-38 36-26 48.5-9.5zM476 637l-47-92-123 63-123-63-47 92 170 91z" glyph-name="acircumflex" horiz-adv-x="596" unicode="&#xe2;"/><glyph d="M385 29q-22-18-50.5-27.5t-59.5-9.5q-56 0-100.5 21t-76 56.5-48.5 82.5-17 98 17 98 48.5 82.5 76 56.5 100.5 21q31 0 59.5-10t50.5-28v30h151v-500h-151v29zM300 130q53 0 85 41v157q-16 20-36.5 31t-48.5 11q-27 0-48.5-9.5t-36-26-22.5-38-8-46.5 8-46.5 22.5-38 36-26 48.5-9.5zM117 583q4 28 15.5 49.5t27.5 36.5 35.5 22.5 38.5 7.5q22 0 40-6.5t33.5-14 28.5-13.5 24-6q17 0 27 9.5t16 32.5h96l-4-29q-4-28-15.5-49.5t-27.5-36.5-35.5-22.5-38.5-7.5q-22 0-40 6t-33.5 13.5-28.5 14-24 6.5q-17 0-27-9.5t-16-32.5h-96z" glyph-name="atilde" horiz-adv-x="596" unicode="&#xe3;"/><glyph d="M385 29q-22-18-50.5-27.5t-59.5-9.5q-56 0-100.5 21t-76 56.5-48.5 82.5-17 98 17 98 48.5 82.5 76 56.5 100.5 21q31 0 59.5-10t50.5-28v30h151v-500h-151v29zM300 130q53 0 85 41v157q-16 20-36.5 31t-48.5 11q-27 0-48.5-9.5t-36-26-22.5-38-8-46.5 8-46.5 22.5-38 36-26 48.5-9.5zM425 567q-33 0-56.5 23.5t-23.5 56.5q0 35 24 57.5t56 22.5 56-22.5 24-57.5q0-33-23.5-56.5t-56.5-23.5zM187 567q-33 0-56.5 23.5t-23.5 56.5q0 35 24 57.5t56 22.5 56-22.5 24-57.5q0-33-23.5-56.5t-56.5-23.5z" glyph-name="adieresis" horiz-adv-x="596" unicode="&#xe4;"/><glyph d="M385 29q-22-18-50.5-27.5t-59.5-9.5q-56 0-100.5 21t-76 56.5-48.5 82.5-17 98 17 98 48.5 82.5 76 56.5 100.5 21q31 0 59.5-10t50.5-28v30h151v-500h-151v29zM300 130q53 0 85 41v157q-16 20-36.5 31t-48.5 11q-27 0-48.5-9.5t-36-26-22.5-38-8-46.5 8-46.5 22.5-38 36-26 48.5-9.5zM306 546q-25 0-46.5 9.5t-38 26-26 38-9.5 46.5 9.5 46.5 26 38 38 26 46.5 9.5 46.5-9.5 38-26 26-38 9.5-46.5-9.5-46.5-26-38-38-26-46.5-9.5zM306 619q20 0 33.5 13.5t13.5 33.5-13.5 33.5-33.5 13.5-33.5-13.5-13.5-33.5 13.5-33.5 33.5-13.5z" glyph-name="aring" horiz-adv-x="596" unicode="&#xe5;"/><glyph d="M820 112q-35-54-93-87t-133-33q-43 0-87.5 15t-86.5 52q-45-38-91.5-52.5t-96.5-14.5q-42 0-79 9.5t-64 30-42.5 51.5-15.5 73q0 37 15 65t41.5 47 61.5 29 75 10q62 0 116-26v6q0 21-9.5 36.5t-25 25.5-36.5 15-45 5q-35 0-69.5-8.5t-55.5-21.5l-21 141q73 28 151 28 51 0 98.5-14.5t88.5-52.5q41 36 86.5 51.5t94.5 15.5q56 0 103.5-20t80-56.5 48-89.5 6.5-119h-354q5-27 18-45t29-28.5 33-15 32-4.5q40 0 66 17.5t41 45.5zM588 387q-11 0-26-2.5t-30-10.5-27.5-23-19.5-40h204q-6 40-35 58t-66 18zM244 118q31 0 57 9t39 26v28q-38 23-95 23-28 0-48-9.5t-20-34.5q0-12 6-20t16-13 21.5-7 23.5-2z" glyph-name="ae" horiz-adv-x="870" unicode="&#xe6;"/><glyph d="M292-8q-54 0-101.5 20.5t-82.5 55.5-55.5 82-20.5 100 20.5 100 55.5 82 82.5 55.5 101.5 20.5q69 0 126.5-32t92.5-86l-120-85q-15 28-40.5 45t-58.5 17q-47 0-77.5-32.5t-30.5-84.5 30.5-84.5 77.5-32.5q33 0 58.5 17t40.5 45l120-85q-35-54-92.5-86t-126.5-32zM244 0h102l-47-165h-127z" glyph-name="ccedilla" horiz-adv-x="530" unicode="&#xe7;"/><glyph d="M288-8q-50 0-96 18.5t-81 52.5-56.5 81.5-21.5 105.5q0 55 18.5 102.5t52.5 82 81.5 54 105.5 19.5q56 0 103.5-20t80-57 48-89.5 6.5-118.5h-351q3-25 14-42.5t26.5-29 33.5-16.5 35-5q40 0 66 17.5t41 45.5l120-81q-35-54-93-87t-133-33zM282 387q-14 0-29.5-3.5t-30-12-26-23.5-17.5-37h204q-6 40-35 58t-66 18zM99 710h173l84-160h-110z" glyph-name="egrave" horiz-adv-x="564" unicode="&#xe8;"/><glyph d="M288-8q-50 0-96 18.5t-81 52.5-56.5 81.5-21.5 105.5q0 55 18.5 102.5t52.5 82 81.5 54 105.5 19.5q56 0 103.5-20t80-57 48-89.5 6.5-118.5h-351q3-25 14-42.5t26.5-29 33.5-16.5 35-5q40 0 66 17.5t41 45.5l120-81q-35-54-93-87t-133-33zM282 387q-14 0-29.5-3.5t-30-12-26-23.5-17.5-37h204q-6 40-35 58t-66 18zM499.97 710h-172.989l-83.9951-160h109.993z" glyph-name="eacute" horiz-adv-x="564" unicode="&#xe9;"/><glyph d="M288-8q-50 0-96 18.5t-81 52.5-56.5 81.5-21.5 105.5q0 55 18.5 102.5t52.5 82 81.5 54 105.5 19.5q56 0 103.5-20t80-57 48-89.5 6.5-118.5h-351q3-25 14-42.5t26.5-29 33.5-16.5 35-5q40 0 66 17.5t41 45.5l120-81q-35-54-93-87t-133-33zM282 387q-14 0-29.5-3.5t-30-12-26-23.5-17.5-37h204q-6 40-35 58t-66 18zM463 637l-47-92-123 63-123-63-47 92 170 91z" glyph-name="ecircumflex" horiz-adv-x="564" unicode="&#xea;"/><glyph d="M288-8q-50 0-96 18.5t-81 52.5-56.5 81.5-21.5 105.5q0 55 18.5 102.5t52.5 82 81.5 54 105.5 19.5q56 0 103.5-20t80-57 48-89.5 6.5-118.5h-351q3-25 14-42.5t26.5-29 33.5-16.5 35-5q40 0 66 17.5t41 45.5l120-81q-35-54-93-87t-133-33zM282 387q-14 0-29.5-3.5t-30-12-26-23.5-17.5-37h204q-6 40-35 58t-66 18zM412 567q-33 0-56.5 23.5t-23.5 56.5q0 35 24 57.5t56 22.5 56-22.5 24-57.5q0-33-23.5-56.5t-56.5-23.5zM174 567q-33 0-56.5 23.5t-23.5 56.5q0 35 24 57.5t56 22.5 56-22.5 24-57.5q0-33-23.5-56.5t-56.5-23.5z" glyph-name="edieresis" horiz-adv-x="564" unicode="&#xeb;"/><glyph d="M60 500h151v-500h-151v500zM-58 710h173l84-160h-110z" glyph-name="igrave" horiz-adv-x="271" unicode="&#xec;"/><glyph d="M60 500h151v-500h-151v500zM342.979 710h-172.99l-83.9941-160h109.993z" glyph-name="iacute" horiz-adv-x="271" unicode="&#xed;"/><glyph d="M60 500h151v-500h-151v500zM306 637l-47-92-123 63-123-63-47 92 170 91z" glyph-name="icircumflex" horiz-adv-x="271" unicode="&#xee;"/><glyph d="M60 500h151v-500h-151v500zM42 567q-32 0-56 22.5t-24 57.5q0 33 23.5 56.5t56.5 23.5 56.5-23.5 23.5-56.5q0-17-6.5-31.5t-17.5-25.5-25.5-17-30.5-6zM230 567q-32 0-56 22.5t-24 57.5q0 33 23.5 56.5t56.5 23.5 56.5-23.5 23.5-56.5q0-17-6.5-31.5t-17.5-25.5-25.5-17-30.5-6z" glyph-name="idieresis" horiz-adv-x="271" unicode="&#xef;"/><glyph d="M108 644h69l-42 66h169l43-66h110v-65h-69l117-181q21-32 34-69t13-79q0-53-20.5-100t-55.5-82-82.5-55.5-101.5-20.5-101.5 20.5-82.5 55.5-55.5 82-20.5 100q0 45 16 87t43.5 76 65 57.5 80.5 31.5q7 2 14 2.5t15 1.5l-47 73h-111v65zM292 133q47 0 77.5 32.5t30.5 84.5-30.5 84.5-77.5 32.5-77.5-32.5-30.5-84.5 30.5-84.5 77.5-32.5z" glyph-name="eth" horiz-adv-x="585" unicode="&#xf0;"/><glyph d="M60 500h151v-31q47 39 115 39 53 0 93.5-17t68.5-47 42-72 14-93v-279h-151v252q0 50-21.5 84t-70.5 34q-22 0-46.5-11t-43.5-32v-327h-151v500zM118 583q4 28 15.5 49.5t27.5 36.5 35.5 22.5 38.5 7.5q22 0 40-6.5t33.5-14 28.5-13.5 24-6q17 0 27 9.5t16 32.5h96l-4-29q-4-28-15.5-49.5t-27.5-36.5-35.5-22.5-38.5-7.5q-22 0-40 6t-33.5 13.5-28.5 14-24 6.5q-17 0-27-9.5t-16-32.5h-96z" glyph-name="ntilde" horiz-adv-x="598" unicode="&#xf1;"/><glyph d="M292-8q-54 0-101.5 20.5t-82.5 55.5-55.5 82-20.5 100 20.5 100 55.5 82 82.5 55.5 101.5 20.5 101.5-20.5 82.5-55.5 55.5-82 20.5-100-20.5-100-55.5-82-82.5-55.5-101.5-20.5zM292 133q47 0 77.5 32.5t30.5 84.5-30.5 84.5-77.5 32.5-77.5-32.5-30.5-84.5 30.5-84.5 77.5-32.5zM98 710h173l84-160h-110z" glyph-name="ograve" horiz-adv-x="584" unicode="&#xf2;"/><glyph d="M292-8q-54 0-101.5 20.5t-82.5 55.5-55.5 82-20.5 100 20.5 100 55.5 82 82.5 55.5 101.5 20.5 101.5-20.5 82.5-55.5 55.5-82 20.5-100-20.5-100-55.5-82-82.5-55.5-101.5-20.5zM292 133q47 0 77.5 32.5t30.5 84.5-30.5 84.5-77.5 32.5-77.5-32.5-30.5-84.5 30.5-84.5 77.5-32.5zM498.97 710h-172.989l-83.9951-160h109.993z" glyph-name="oacute" horiz-adv-x="584" unicode="&#xf3;"/><glyph d="M292-8q-54 0-101.5 20.5t-82.5 55.5-55.5 82-20.5 100 20.5 100 55.5 82 82.5 55.5 101.5 20.5 101.5-20.5 82.5-55.5 55.5-82 20.5-100-20.5-100-55.5-82-82.5-55.5-101.5-20.5zM292 133q47 0 77.5 32.5t30.5 84.5-30.5 84.5-77.5 32.5-77.5-32.5-30.5-84.5 30.5-84.5 77.5-32.5zM462 637l-47-92-123 63-123-63-47 92 170 91z" glyph-name="ocircumflex" horiz-adv-x="584" unicode="&#xf4;"/><glyph d="M292-8q-54 0-101.5 20.5t-82.5 55.5-55.5 82-20.5 100 20.5 100 55.5 82 82.5 55.5 101.5 20.5 101.5-20.5 82.5-55.5 55.5-82 20.5-100-20.5-100-55.5-82-82.5-55.5-101.5-20.5zM292 133q47 0 77.5 32.5t30.5 84.5-30.5 84.5-77.5 32.5-77.5-32.5-30.5-84.5 30.5-84.5 77.5-32.5zM103 583q4 28 15.5 49.5t27.5 36.5 35.5 22.5 38.5 7.5q22 0 40-6.5t33.5-14 28.5-13.5 24-6q17 0 27 9.5t16 32.5h96l-4-29q-4-28-15.5-49.5t-27.5-36.5-35.5-22.5-38.5-7.5q-22 0-40 6t-33.5 13.5-28.5 14-24 6.5q-17 0-27-9.5t-16-32.5h-96z" glyph-name="otilde" horiz-adv-x="584" unicode="&#xf5;"/><glyph d="M292-8q-54 0-101.5 20.5t-82.5 55.5-55.5 82-20.5 100 20.5 100 55.5 82 82.5 55.5 101.5 20.5 101.5-20.5 82.5-55.5 55.5-82 20.5-100-20.5-100-55.5-82-82.5-55.5-101.5-20.5zM292 133q47 0 77.5 32.5t30.5 84.5-30.5 84.5-77.5 32.5-77.5-32.5-30.5-84.5 30.5-84.5 77.5-32.5zM411 567q-33 0-56.5 23.5t-23.5 56.5q0 35 24 57.5t56 22.5 56-22.5 24-57.5q0-33-23.5-56.5t-56.5-23.5zM173 567q-33 0-56.5 23.5t-23.5 56.5q0 35 24 57.5t56 22.5 56-22.5 24-57.5q0-33-23.5-56.5t-56.5-23.5z" glyph-name="odieresis" horiz-adv-x="584" unicode="&#xf6;"/><glyph d="M295 369q-16 0-30.5 6t-25.5 17-17.5 25.5-6.5 31.5q0 33 23.5 56.5t56.5 23.5 56.5-23.5 23.5-56.5q0-35-24-57.5t-56-22.5zM77 339h436v-114h-436v114zM295 35q-16 0-30.5 6t-25.5 17-17.5 25.5-6.5 31.5q0 33 23.5 56.5t56.5 23.5 56.5-23.5 23.5-56.5q0-35-24-57.5t-56-22.5z" glyph-name="divide" horiz-adv-x="590" unicode="&#xf7;"/><glyph d="M28-13l73 88q-29 33-48 75-20 47-20 100t20.5 100 55.5 82 82.5 55.5 101.5 20.5 101-21q19-8 35-18l75 90 54-45-74-89q30-33 48-75 21-47 21-100t-20.5-100-55.5-82-82.5-55.5-101.5-20.5-102 20q-18 8-35 18l-74-88zM293 133q47 0 77.5 32.5t30.5 84.5q0 34-13 59l-140-168q20-8 45-8zM293 367q-47 0-77.5-32.5t-30.5-84.5q0-34 12-59l140 167q-20 9-44 9z" glyph-name="oslash" horiz-adv-x="586" unicode="&#xf8;"/><glyph d="M387 37q-23-22-55-33.5t-64-11.5q-51 0-90.5 16.5t-67 47-42 72.5-14.5 93v279h151v-252q0-51 21.5-84.5t66.5-33.5q28 0 53.5 13t40.5 37v320h151v-500h-151v37zM102 710h173l84-160h-110z" glyph-name="ugrave" horiz-adv-x="598" unicode="&#xf9;"/><glyph d="M387 37q-23-22-55-33.5t-64-11.5q-51 0-90.5 16.5t-67 47-42 72.5-14.5 93v279h151v-252q0-51 21.5-84.5t66.5-33.5q28 0 53.5 13t40.5 37v320h151v-500h-151v37zM502.97 710h-172.99l-83.9941-160h109.993z" glyph-name="uacute" horiz-adv-x="598" unicode="&#xfa;"/><glyph d="M387 37q-23-22-55-33.5t-64-11.5q-51 0-90.5 16.5t-67 47-42 72.5-14.5 93v279h151v-252q0-51 21.5-84.5t66.5-33.5q28 0 53.5 13t40.5 37v320h151v-500h-151v37zM466 637l-47-92-123 63-123-63-47 92 170 91z" glyph-name="ucircumflex" horiz-adv-x="598" unicode="&#xfb;"/><glyph d="M387 37q-23-22-55-33.5t-64-11.5q-51 0-90.5 16.5t-67 47-42 72.5-14.5 93v279h151v-252q0-51 21.5-84.5t66.5-33.5q28 0 53.5 13t40.5 37v320h151v-500h-151v37zM415 567q-33 0-56.5 23.5t-23.5 56.5q0 35 24 57.5t56 22.5 56-22.5 24-57.5q0-33-23.5-56.5t-56.5-23.5zM177 567q-33 0-56.5 23.5t-23.5 56.5q0 35 24 57.5t56 22.5 56-22.5 24-57.5q0-33-23.5-56.5t-56.5-23.5z" glyph-name="udieresis" horiz-adv-x="598" unicode="&#xfc;"/><glyph d="M185 0l-184 500h160l104-317 104 317h160l-252-684h-160zM471.971 710h-172.989l-83.9941-160h109.993z" glyph-name="yacute" horiz-adv-x="528" unicode="&#xfd;"/><glyph d="M60-184v894h151v-240q22 18 50.5 28t59.5 10q55 0 100-21t76.5-56.5 48.5-82.5 17-98-17-98-48.5-82.5-76.5-56.5-100-21q-31 0-59.5 9.5t-50.5 27.5v-213h-151zM296 370q-54 0-85-42v-157q30-41 85-41 27 0 48.5 9.5t36 26 22.5 38 8 46.5-8 46.5-22.5 38-36 26-48.5 9.5z" glyph-name="thorn" horiz-adv-x="596" unicode="&#xfe;"/><glyph d="M185 0l-184 500h160l104-317 104 317h160l-252-684h-160zM384 567q-33 0-56.5 23.5t-23.5 56.5q0 35 24 57.5t56 22.5 56-22.5 24-57.5q0-33-23.5-56.5t-56.5-23.5zM146 567q-33 0-56.5 23.5t-23.5 56.5q0 35 24 57.5t56 22.5 56-22.5 24-57.5q0-33-23.5-56.5t-56.5-23.5z" glyph-name="ydieresis" horiz-adv-x="528" unicode="&#xff;"/><glyph d="M335 718l350-718h-168l-52 110h-260l-52-110h-168zM404 240l-69 147-69-147h138zM335 766q-38 0-71.5 14.5t-58.5 39.5-39.5 58.5-14.5 71.5h96q0-41 23.5-69.5t64.5-28.5 64.5 28.5 23.5 69.5h96q0-38-14.5-71.5t-39.5-58.5-58.5-39.5-71.5-14.5z" glyph-name="Abreve" horiz-adv-x="670" unicode="&#x102;"/><glyph d="M335 718l350-718h-168l-52 110h-260l-52-110h-168zM404 240l-69 147-69-147h138zM170 902h330v-106h-330v106z" glyph-name="Amacron" horiz-adv-x="670" unicode="&#x100;"/><glyph d="M335 718l350-718q-32-14-49.5-25t-17.5-31q0-16 9.5-23t22.5-7q10 0 20.5 4.5t14.5 8.5v-87q-38-29-90-29t-84 28-32 73q0 28 11.5 51t26.5 37l-52 110h-260l-52-110h-168zM404 240l-69 147-69-147h138z" glyph-name="Aogonek" horiz-adv-x="670" unicode="&#x104;"/><glyph d="M400-8q-75 0-141 28.5t-115.5 78-78 115.5-28.5 141 28.5 141 78 115.5 115.5 78 141 28.5q92 0 169.5-42t127.5-112l-121-99q-27 44-73 71.5t-103 27.5q-43 0-80-16.5t-64-45-42.5-66.5-15.5-81 15.5-81 42.5-66.5 64-45 80-16.5q57 0 103 27.5t73 71.5l121-99q-50-70-127.5-112t-169.5-42zM591.964 913h-165.99l-69.9951-145h109.993z" glyph-name="Cacute" horiz-adv-x="715" unicode="&#x106;"/><glyph d="M400-8q-75 0-141 28.5t-115.5 78-78 115.5-28.5 141 28.5 141 78 115.5 115.5 78 141 28.5q92 0 169.5-42t127.5-112l-121-99q-27 44-73 71.5t-103 27.5q-43 0-80-16.5t-64-45-42.5-66.5-15.5-81 15.5-81 42.5-66.5 64-45 80-16.5q57 0 103 27.5t73 71.5l121-99q-50-70-127.5-112t-169.5-42zM576.965 834.949l-176.989-75.9951-176.989 75.9951 40.998 95.9941 135.991-58.9961 135.991 58.9961z" glyph-name="Ccaron" horiz-adv-x="715" unicode="&#x10c;"/><glyph d="M400-8q-75 0-141 28.5t-115.5 78-78 115.5-28.5 141 28.5 141 78 115.5 115.5 78 141 28.5q92 0 169.5-42t127.5-112l-121-99q-27 44-73 71.5t-103 27.5q-43 0-80-16.5t-64-45-42.5-66.5-15.5-81 15.5-81 42.5-66.5 64-45 80-16.5q57 0 103 27.5t73 71.5l121-99q-50-70-127.5-112t-169.5-42zM223 855l177 76 177-76-41-96-136 59-136-59z" glyph-name="Ccircumflex" horiz-adv-x="715" unicode="&#x108;"/><glyph d="M400-8q-75 0-141 28.5t-115.5 78-78 115.5-28.5 141 28.5 141 78 115.5 115.5 78 141 28.5q92 0 169.5-42t127.5-112l-121-99q-27 44-73 71.5t-103 27.5q-43 0-80-16.5t-64-45-42.5-66.5-15.5-81 15.5-81 42.5-66.5 64-45 80-16.5q57 0 103 27.5t73 71.5l121-99q-50-70-127.5-112t-169.5-42zM400 770q-32 0-56 22.5t-24 57.5q0 33 23.5 56.5t56.5 23.5 56.5-23.5 23.5-56.5q0-17-6.5-31.5t-17.5-25.5-25.5-17-30.5-6z" glyph-name="Cdotaccent" horiz-adv-x="715" unicode="&#x10a;"/><glyph d="M76 710h249q75 0 141-28t114.5-76 77-113 28.5-138q0-74-28.5-138.5t-77-112.5-114.5-76-141-28h-249v710zM325 146q45 0 81.5 16.5t63 45 41 66.5 14.5 81-14.5 81-41 66.5-63 45-81.5 16.5h-89v-418h89zM507.969 834.949l-176.989-75.9951-176.989 75.9951 40.998 95.9941 135.991-58.9961 135.992 58.9961z" glyph-name="Dcaron" horiz-adv-x="723" unicode="&#x10e;"/><glyph d="M101 710h249q75 0 141-28t114.5-76 77-113 28.5-138q0-74-28.5-138.5t-77-112.5-114.5-76-141-28h-249v710zM350 146q45 0 81.5 16.5t63 45 41 66.5 14.5 81-14.5 81-41 66.5-63 45-81.5 16.5h-89v-418h89zM12 392h338v-74h-338v74z" glyph-name="Dcroat" horiz-adv-x="748" unicode="&#x110;"/><glyph d="M76 710h440v-158h-280v-120h220v-154h-220v-120h280v-158h-440v710zM296 766q-38 0-71.5 14.5t-58.5 39.5-39.5 58.5-14.5 71.5h96q0-41 23.5-69.5t64.5-28.5 64.5 28.5 23.5 69.5h96q0-38-14.5-71.5t-39.5-58.5-58.5-39.5-71.5-14.5z" glyph-name="Ebreve" horiz-adv-x="564" unicode="&#x114;"/><glyph d="M76 710h440v-158h-280v-120h220v-154h-220v-120h280v-158h-440v710zM472.971 834.949l-176.988-75.9951-176.989 75.9951 40.9971 95.9941 135.992-58.9961 135.991 58.9961z" glyph-name="Ecaron" horiz-adv-x="564" unicode="&#x11a;"/><glyph d="M76 710h440v-158h-280v-120h220v-154h-220v-120h280v-158h-440v710zM131 902h330v-106h-330v106z" glyph-name="Emacron" horiz-adv-x="564" unicode="&#x112;"/><glyph d="M76 710h440v-158h-280v-120h220v-154h-220v-120h280v-158h-440v710zM426-189q-52 0-84 28t-32 73q0 28 13 50.5t33 37.5h160q-32-14-49.5-25t-17.5-31q0-16 9.5-23t22.5-7q10 0 20.5 4.5t14.5 8.5v-87q-38-29-90-29z" glyph-name="Eogonek" horiz-adv-x="564" unicode="&#x118;"/><glyph d="M76 710h440v-158h-280v-120h220v-154h-220v-120h280v-158h-440v710zM296 770q-32 0-56 22.5t-24 57.5q0 33 23.5 56.5t56.5 23.5 56.5-23.5 23.5-56.5q0-17-6.5-31.5t-17.5-25.5-25.5-17-30.5-6z" glyph-name="Edotaccent" horiz-adv-x="564" unicode="&#x116;"/><glyph d="M400-8q-75 0-141 28.5t-115.5 78-78 115.5-28.5 141 28.5 141 78 115.5 115.5 78 141 28.5q92 0 163.5-35t123.5-99l-121-99q-32 41-70.5 60t-95.5 19q-43 0-80-16.5t-64-45-42.5-66.5-15.5-81 15.5-81 42.5-66.5 64-45 80-16.5q44 0 77.5 8t59.5 27v99h-171l68 150h258v-322q-53-60-127-88t-165-28zM422 766q-38 0-71.5 14.5t-58.5 39.5-39.5 58.5-14.5 71.5h96q0-41 23.5-69.5t64.5-28.5 64.5 28.5 23.5 69.5h96q0-38-14.5-71.5t-39.5-58.5-58.5-39.5-71.5-14.5z" glyph-name="Gbreve" horiz-adv-x="744" unicode="&#x11e;"/><glyph d="M400-8q-75 0-141 28.5t-115.5 78-78 115.5-28.5 141 28.5 141 78 115.5 115.5 78 141 28.5q92 0 163.5-35t123.5-99l-121-99q-32 41-70.5 60t-95.5 19q-43 0-80-16.5t-64-45-42.5-66.5-15.5-81 15.5-81 42.5-66.5 64-45 80-16.5q44 0 77.5 8t59.5 27v99h-171l68 150h258v-322q-53-60-127-88t-165-28zM245 855l177 76 177-76-41-96-136 59-136-59z" glyph-name="Gcircumflex" horiz-adv-x="744" unicode="&#x11c;"/><glyph d="M400-8q-75 0-141 28.5t-115.5 78-78 115.5-28.5 141 28.5 141 78 115.5 115.5 78 141 28.5q92 0 163.5-35t123.5-99l-121-99q-32 41-70.5 60t-95.5 19q-43 0-80-16.5t-64-45-42.5-66.5-15.5-81 15.5-81 42.5-66.5 64-45 80-16.5q44 0 77.5 8t59.5 27v99h-171l68 150h258v-322q-53-60-127-88t-165-28zM333-50h138l-78-165h-87z" glyph-name="uni0122" horiz-adv-x="744" unicode="&#x122;"/><glyph d="M400-8q-75 0-141 28.5t-115.5 78-78 115.5-28.5 141 28.5 141 78 115.5 115.5 78 141 28.5q92 0 163.5-35t123.5-99l-121-99q-32 41-70.5 60t-95.5 19q-43 0-80-16.5t-64-45-42.5-66.5-15.5-81 15.5-81 42.5-66.5 64-45 80-16.5q44 0 77.5 8t59.5 27v99h-171l68 150h258v-322q-53-60-127-88t-165-28zM422 770q-32 0-56 22.5t-24 57.5q0 33 23.5 56.5t56.5 23.5 56.5-23.5 23.5-56.5q0-17-6.5-31.5t-17.5-25.5-25.5-17-30.5-6z" glyph-name="Gdotaccent" horiz-adv-x="744" unicode="&#x120;"/><glyph d="M86 710h160v-278h284v278h160v-710h-160v278h-284v-278h-160v710zM19 609h738v-74h-738v74z" glyph-name="Hbar" horiz-adv-x="776" unicode="&#x126;"/><glyph d="M76 710h160v-278h284v278h160v-710h-160v278h-284v-278h-160v710zM201 855l177 76 177-76-41-96-136 59-136-59z" glyph-name="Hcircumflex" horiz-adv-x="756" unicode="&#x124;"/><glyph d="M76 710h160v-710h-160v710zM157 766q-38 0-71.5 14.5t-58.5 39.5-39.5 58.5-14.5 71.5h96q0-41 23.5-69.5t64.5-28.5 64.5 28.5 23.5 69.5h96q0-38-14.5-71.5t-39.5-58.5-58.5-39.5-71.5-14.5z" glyph-name="Ibreve" horiz-adv-x="312" unicode="&#x12c;"/><glyph d="M76 710h160v-710h-160v710zM157 770q-32 0-56 22.5t-24 57.5q0 33 23.5 56.5t56.5 23.5 56.5-23.5 23.5-56.5q0-17-6.5-31.5t-17.5-25.5-25.5-17-30.5-6z" glyph-name="Idotaccent" horiz-adv-x="312" unicode="&#x130;"/><glyph d="M76 710h160v-710h-160v710zM-8 902h330v-106h-330v106z" glyph-name="Imacron" horiz-adv-x="312" unicode="&#x12a;"/><glyph d="M76 710h160v-710h-160v710zM146-189q-52 0-84 28t-32 73q0 28 13 50.5t33 37.5h160q-32-14-49.5-25t-17.5-31q0-16 9.5-23t22.5-7q10 0 20.5 4.5t14.5 8.5v-87q-38-29-90-29z" glyph-name="Iogonek" horiz-adv-x="312" unicode="&#x12e;"/><glyph d="M76 710h160v-710h-160v710zM-32 806q4 28 15.5 49.5t27.5 36.5 35.5 22.5 38.5 7.5q22 0 40-6.5t33.5-14 28.5-13.5 24-6q17 0 27 9.5t16 32.5h96l-4-29q-4-28-15.5-49.5t-27.5-36.5-35.5-22.5-38.5-7.5q-22 0-40 6t-33.5 13.5-28.5 14-24 6.5q-17 0-27-9.5t-16-32.5h-96z" glyph-name="Itilde" horiz-adv-x="312" unicode="&#x128;"/><glyph d="M76 710h160v-710h-160v710zM156-206q-32 0-56 22.5t-24 57.5q0 33 23.5 56.5t56.5 23.5 56.5-23.5 23.5-56.5q0-17-6.5-31.5t-17.5-25.5-25.5-17-30.5-6z" glyph-name="uni1ECA" horiz-adv-x="312" unicode="&#x1eca;"/><glyph d="M236-8q-45 0-85 12.5t-70 39.5-47.5 68.5-17.5 99.5h160q0-38 15.5-54.5t44.5-16.5 44.5 16.5 15.5 54.5v498h160v-508q0-56-17.5-95.5t-47.5-65-70-37.5-85-12zM200 855l177 76 177-76-41-96-136 59-136-59z" glyph-name="Jcircumflex" horiz-adv-x="527" unicode="&#x134;"/><glyph d="M76 710h160v-356l248 356h184l-249-359 281-351h-198l-266 333v-333h-160v710zM296-50h138l-78-165h-87z" glyph-name="uni0136" horiz-adv-x="685" unicode="&#x136;"/><glyph d="M76 710h160v-551h276v-159h-436v710zM341.979 913h-165.99l-69.9961-145h109.993z" glyph-name="Lacute" horiz-adv-x="533" unicode="&#x139;"/><glyph d="M76 710h160v-551h276v-159h-436v710zM305 710h151l-69-160h-102z" glyph-name="Lcaron" horiz-adv-x="536" unicode="&#x13d;"/><glyph d="M76 710h160v-551h276v-159h-436v710zM225-50h138l-78-165h-87z" glyph-name="uni013B" horiz-adv-x="533" unicode="&#x13b;"/><glyph d="M76 710h160v-551h276v-159h-436v710zM415 343q-32 0-56 22.5t-24 57.5q0 33 23.5 56.5t56.5 23.5 56.5-23.5 23.5-56.5q0-17-6.5-31.5t-17.5-25.5-25.5-17-30.5-6z" glyph-name="Ldot" horiz-adv-x="542" unicode="&#x13f;"/><glyph d="M145 710h160v-551h276v-159h-436v710zM7 281l424 242 38-67-424-242z" glyph-name="Lslash" horiz-adv-x="602" unicode="&#x141;"/><glyph d="M236 371v-371h-160v718l448-379v371h160v-718zM538.967 913h-165.989l-69.9961-145h109.993z" glyph-name="Nacute" horiz-adv-x="760" unicode="&#x143;"/><glyph d="M236 371v-371h-160v718l448-379v371h160v-718zM523.968 834.949l-176.989-75.9951-176.989 75.9951 40.998 95.9941 135.991-58.9961 135.992 58.9961z" glyph-name="Ncaron" horiz-adv-x="760" unicode="&#x147;"/><glyph d="M236 371v-371h-160v718l448-379v371h160v-718zM376-50h138l-78-165h-87z" glyph-name="uni0145" horiz-adv-x="760" unicode="&#x145;"/><glyph d="M400-8q-75 0-141 28.5t-115.5 78-78 115.5-28.5 141 28.5 141 78 115.5 115.5 78 141 28.5q36 0 70-7t66-20v19h440v-158h-272q36-54 50-120h179v-154h-179q-13-65-50-120h273v-158h-441v18q-64-26-136-26zM400 146q43 0 80 16.5t64 45 42.5 66.5 15.5 81-15.5 81-42.5 66.5-64 45-80 16.5-80-16.5-64-45-42.5-66.5-15.5-81 15.5-81 42.5-66.5 64-45 80-16.5z" glyph-name="OE" horiz-adv-x="1027" unicode="&#x152;"/><glyph d="M400-8q-75 0-141 28.5t-115.5 78-78 115.5-28.5 141 28.5 141 78 115.5 115.5 78 141 28.5 141-28.5 115.5-78 78-115.5 28.5-141-28.5-141-78-115.5-115.5-78-141-28.5zM400 146q43 0 80 16.5t64 45 42.5 66.5 15.5 81-15.5 81-42.5 66.5-64 45-80 16.5-80-16.5-64-45-42.5-66.5-15.5-81 15.5-81 42.5-66.5 64-45 80-16.5zM400 766q-38 0-71.5 14.5t-58.5 39.5-39.5 58.5-14.5 71.5h96q0-41 23.5-69.5t64.5-28.5 64.5 28.5 23.5 69.5h96q0-38-14.5-71.5t-39.5-58.5-58.5-39.5-71.5-14.5z" glyph-name="Obreve" horiz-adv-x="800" unicode="&#x14e;"/><glyph d="M400-8q-75 0-141 28.5t-115.5 78-78 115.5-28.5 141 28.5 141 78 115.5 115.5 78 141 28.5 141-28.5 115.5-78 78-115.5 28.5-141-28.5-141-78-115.5-115.5-78-141-28.5zM400 146q43 0 80 16.5t64 45 42.5 66.5 15.5 81-15.5 81-42.5 66.5-64 45-80 16.5-80-16.5-64-45-42.5-66.5-15.5-81 15.5-81 42.5-66.5 64-45 80-16.5zM340 913h148l-115-145h-103zM518 913h148l-115-145h-103z" glyph-name="Ohungarumlaut" horiz-adv-x="800" unicode="&#x150;"/><glyph d="M400-8q-75 0-141 28.5t-115.5 78-78 115.5-28.5 141 28.5 141 78 115.5 115.5 78 141 28.5 141-28.5 115.5-78 78-115.5 28.5-141-28.5-141-78-115.5-115.5-78-141-28.5zM400 146q43 0 80 16.5t64 45 42.5 66.5 15.5 81-15.5 81-42.5 66.5-64 45-80 16.5-80-16.5-64-45-42.5-66.5-15.5-81 15.5-81 42.5-66.5 64-45 80-16.5zM235 902h330v-106h-330v106z" glyph-name="Omacron" horiz-adv-x="800" unicode="&#x14c;"/><glyph d="M400-8q-75 0-141 28.5t-115.5 78-78 115.5-28.5 141 28.5 141 78 115.5 115.5 78 141 28.5 141-28.5 115.5-78 78-115.5 28.5-141-28.5-141-78-115.5-115.5-78-141-28.5zM400 146q43 0 80 16.5t64 45 42.5 66.5 15.5 81-15.5 81-42.5 66.5-64 45-80 16.5-80-16.5-64-45-42.5-66.5-15.5-81 15.5-81 42.5-66.5 64-45 80-16.5zM400-206q-32 0-56 22.5t-24 57.5q0 33 23.5 56.5t56.5 23.5 56.5-23.5 23.5-56.5q0-17-6.5-31.5t-17.5-25.5-25.5-17-30.5-6z" glyph-name="uni1ECC" horiz-adv-x="800" unicode="&#x1ecc;"/><glyph d="M76 710h268q43 0 81.5-16.5t67.5-45.5 45.5-67.5 16.5-81.5q0-68-38.5-121.5t-98.5-76.5l231-301h-191l-220 288h-2v-288h-160v710zM326 423q32 0 53 20.5t21 49.5-21 50-53 21h-90v-141h90zM476.971 913h-165.989l-69.9961-145h109.993z" glyph-name="Racute" horiz-adv-x="643" unicode="&#x154;"/><glyph d="M76 710h268q43 0 81.5-16.5t67.5-45.5 45.5-67.5 16.5-81.5q0-68-38.5-121.5t-98.5-76.5l231-301h-191l-220 288h-2v-288h-160v710zM326 423q32 0 53 20.5t21 49.5-21 50-53 21h-90v-141h90zM478.971 834.949l-176.989-75.9951-176.989 75.9951 40.998 95.9941 135.991-58.9961 135.992 58.9961z" glyph-name="Rcaron" horiz-adv-x="643" unicode="&#x158;"/><glyph d="M76 710h268q43 0 81.5-16.5t67.5-45.5 45.5-67.5 16.5-81.5q0-68-38.5-121.5t-98.5-76.5l231-301h-191l-220 288h-2v-288h-160v710zM326 423q32 0 53 20.5t21 49.5-21 50-53 21h-90v-141h90zM276-50h138l-78-165h-87z" glyph-name="uni0156" horiz-adv-x="643" unicode="&#x156;"/><glyph d="M282-8q-86 0-152 35t-103 104l121 99q23-37 58.5-62.5t72.5-25.5q68 0 68 51 0 24-19 41.5t-64 37.5l-40 18q-81 36-123.5 93.5t-42.5 129.5q0 46 18 84t48 65 69 41.5 81 14.5q59 0 106.5-18.5t92.5-70.5l-108-114q-27 33-46.5 43t-44.5 10q-20 0-37.5-12.5t-17.5-36.5q0-28 23.5-46t72.5-40l38-17q74-33 114.5-86t40.5-127q0-48-17-87t-47-66.5-71.5-42.5-90.5-15zM470.972 913h-165.99l-69.9961-145h109.993z" glyph-name="Sacute" horiz-adv-x="542" unicode="&#x15a;"/><glyph d="M282-8q-86 0-152 35t-103 104l121 99q23-37 58.5-62.5t72.5-25.5q68 0 68 51 0 24-19 41.5t-64 37.5l-40 18q-81 36-123.5 93.5t-42.5 129.5q0 46 18 84t48 65 69 41.5 81 14.5q59 0 106.5-18.5t92.5-70.5l-108-114q-27 33-46.5 43t-44.5 10q-20 0-37.5-12.5t-17.5-36.5q0-28 23.5-46t72.5-40l38-17q74-33 114.5-86t40.5-127q0-48-17-87t-47-66.5-71.5-42.5-90.5-15zM455.973 834.949l-176.989-75.9951-176.989 75.9951 40.9971 95.9941 135.992-58.9961 135.991 58.9961z" glyph-name="Scaron" horiz-adv-x="542" unicode="&#x160;"/><glyph d="M282-8q-86 0-152 35t-103 104l121 99q23-37 58.5-62.5t72.5-25.5q68 0 68 51 0 24-19 41.5t-64 37.5l-40 18q-81 36-123.5 93.5t-42.5 129.5q0 46 18 84t48 65 69 41.5 81 14.5q59 0 106.5-18.5t92.5-70.5l-108-114q-27 33-46.5 43t-44.5 10q-20 0-37.5-12.5t-17.5-36.5q0-28 23.5-46t72.5-40l38-17q74-33 114.5-86t40.5-127q0-48-17-87t-47-66.5-71.5-42.5-90.5-15zM236 0h102l-47-165h-127z" glyph-name="Scedilla" horiz-adv-x="542" unicode="&#x15e;"/><glyph d="M282-8q-86 0-152 35t-103 104l121 99q23-37 58.5-62.5t72.5-25.5q68 0 68 51 0 24-19 41.5t-64 37.5l-40 18q-81 36-123.5 93.5t-42.5 129.5q0 46 18 84t48 65 69 41.5 81 14.5q59 0 106.5-18.5t92.5-70.5l-108-114q-27 33-46.5 43t-44.5 10q-20 0-37.5-12.5t-17.5-36.5q0-28 23.5-46t72.5-40l38-17q74-33 114.5-86t40.5-127q0-48-17-87t-47-66.5-71.5-42.5-90.5-15zM102 855l177 76 177-76-41-96-136 59-136-59z" glyph-name="Scircumflex" horiz-adv-x="542" unicode="&#x15c;"/><glyph d="M282-8q-86 0-152 35t-103 104l121 99q23-37 58.5-62.5t72.5-25.5q68 0 68 51 0 24-19 41.5t-64 37.5l-40 18q-81 36-123.5 93.5t-42.5 129.5q0 46 18 84t48 65 69 41.5 81 14.5q59 0 106.5-18.5t92.5-70.5l-108-114q-27 33-46.5 43t-44.5 10q-20 0-37.5-12.5t-17.5-36.5q0-28 23.5-46t72.5-40l38-17q74-33 114.5-86t40.5-127q0-48-17-87t-47-66.5-71.5-42.5-90.5-15zM213-50h138l-78-165h-87z" glyph-name="uni0218" horiz-adv-x="542" unicode="&#x218;"/><glyph d="M191 552h-170v158h501v-158h-171v-552h-160v552zM447.973 834.949l-176.989-75.9951-176.989 75.9951 40.998 95.9941 135.991-58.9961 135.992 58.9961z" glyph-name="Tcaron" horiz-adv-x="543" unicode="&#x164;"/><glyph d="M191 552h-170v158h501v-158h-171v-552h-160v552zM199-50h138l-78-165h-87z" glyph-name="uni0162" horiz-adv-x="543" unicode="&#x162;"/><glyph d="M191 552h-170v158h501v-158h-171v-552h-160v552zM199-50h138l-78-165h-87z" glyph-name="uni021A" horiz-adv-x="543" unicode="&#x21a;"/><glyph d="M359-8q-64 0-117.5 21t-92 60-60 93.5-21.5 121.5v422h160v-424q0-65 36-102.5t95-37.5 95 37.5 36 102.5v424h160v-423q0-67-21.5-121.5t-60-93-92-59.5-117.5-21zM359 766q-38 0-71.5 14.5t-58.5 39.5-39.5 58.5-14.5 71.5h96q0-41 23.5-69.5t64.5-28.5 64.5 28.5 23.5 69.5h96q0-38-14.5-71.5t-39.5-58.5-58.5-39.5-71.5-14.5z" glyph-name="Ubreve" horiz-adv-x="718" unicode="&#x16c;"/><glyph d="M359-8q-64 0-117.5 21t-92 60-60 93.5-21.5 121.5v422h160v-424q0-65 36-102.5t95-37.5 95 37.5 36 102.5v424h160v-423q0-67-21.5-121.5t-60-93-92-59.5-117.5-21zM299 913h148l-115-145h-103zM477 913h148l-115-145h-103z" glyph-name="Uhungarumlaut" horiz-adv-x="718" unicode="&#x170;"/><glyph d="M359-8q-64 0-117.5 21t-92 60-60 93.5-21.5 121.5v422h160v-424q0-65 36-102.5t95-37.5 95 37.5 36 102.5v424h160v-423q0-67-21.5-121.5t-60-93-92-59.5-117.5-21zM194 902h330v-106h-330v106z" glyph-name="Umacron" horiz-adv-x="718" unicode="&#x16a;"/><glyph d="M359-8q-64 0-117.5 21t-92 60-60 93.5-21.5 121.5v422h160v-424q0-65 36-102.5t95-37.5 95 37.5 36 102.5v424h160v-423q0-67-21.5-121.5t-60-93-92-59.5-117.5-21zM357-185q-52 0-84 28t-32 73q0 28 13 50.5t33 37.5h160q-32-14-49.5-25t-17.5-31q0-16 9.5-23t22.5-7q10 0 20.5 4.5t14.5 8.5v-87q-38-29-90-29z" glyph-name="Uogonek" horiz-adv-x="718" unicode="&#x172;"/><glyph d="M359-8q-64 0-117.5 21t-92 60-60 93.5-21.5 121.5v422h160v-424q0-65 36-102.5t95-37.5 95 37.5 36 102.5v424h160v-423q0-67-21.5-121.5t-60-93-92-59.5-117.5-21zM359 759q-25 0-46.5 9.5t-38 26-26 38-9.5 46.5 9.5 46.5 26 38 38 26 46.5 9.5 46.5-9.5 38-26 26-38 9.5-46.5-9.5-46.5-26-38-38-26-46.5-9.5zM359 832q20 0 33.5 13.5t13.5 33.5-13.5 33.5-33.5 13.5-33.5-13.5-13.5-33.5 13.5-33.5 33.5-13.5z" glyph-name="Uring" horiz-adv-x="718" unicode="&#x16e;"/><glyph d="M359-8q-64 0-117.5 21t-92 60-60 93.5-21.5 121.5v422h160v-424q0-65 36-102.5t95-37.5 95 37.5 36 102.5v424h160v-423q0-67-21.5-121.5t-60-93-92-59.5-117.5-21zM170 806q4 28 15.5 49.5t27.5 36.5 35.5 22.5 38.5 7.5q22 0 40-6.5t33.5-14 28.5-13.5 24-6q17 0 27 9.5t16 32.5h96l-4-29q-4-28-15.5-49.5t-27.5-36.5-35.5-22.5-38.5-7.5q-22 0-40 6t-33.5 13.5-28.5 14-24 6.5q-17 0-27-9.5t-16-32.5h-96z" glyph-name="Utilde" horiz-adv-x="718" unicode="&#x168;"/><glyph d="M359-8q-64 0-117.5 21t-92 60-60 93.5-21.5 121.5v422h160v-424q0-65 36-102.5t95-37.5 95 37.5 36 102.5v424h160v-423q0-67-21.5-121.5t-60-93-92-59.5-117.5-21zM359-206q-32 0-56 22.5t-24 57.5q0 33 23.5 56.5t56.5 23.5 56.5-23.5 23.5-56.5q0-17-6.5-31.5t-17.5-25.5-25.5-17-30.5-6z" glyph-name="uni1EE4" horiz-adv-x="718" unicode="&#x1ee4;"/><glyph d="M-3 710h163l110-333 160 341 160-341 110 333h163l-246-718-187 410-187-410zM621.962 913h-165.989l-69.9961-145h109.993z" glyph-name="Wacute" horiz-adv-x="860" unicode="&#x1e82;"/><glyph d="M-3 710h163l110-333 160 341 160-341 110 333h163l-246-718-187 410-187-410zM253 855l177 76 177-76-41-96-136 59-136-59z" glyph-name="Wcircumflex" horiz-adv-x="860" unicode="&#x174;"/><glyph d="M-3 710h163l110-333 160 341 160-341 110 333h163l-246-718-187 410-187-410zM549 770q-33 0-56.5 23.5t-23.5 56.5q0 35 24 57.5t56 22.5 56-22.5 24-57.5q0-33-23.5-56.5t-56.5-23.5zM311 770q-33 0-56.5 23.5t-23.5 56.5q0 35 24 57.5t56 22.5 56-22.5 24-57.5q0-33-23.5-56.5t-56.5-23.5z" glyph-name="Wdieresis" horiz-adv-x="860" unicode="&#x1e84;"/><glyph d="M-3 710h163l110-333 160 341 160-341 110 333h163l-246-718-187 410-187-410zM250 913h166l70-145h-110z" glyph-name="Wgrave" horiz-adv-x="860" unicode="&#x1e80;"/><glyph d="M261 298l-263 412h187l156-252 156 252h187l-263-412v-298h-160v298zM164 855l177 76 177-76-41-96-136 59-136-59z" glyph-name="Ycircumflex" horiz-adv-x="682" unicode="&#x176;"/><glyph d="M261 298l-263 412h187l156-252 156 252h187l-263-412v-298h-160v298zM460 770q-33 0-56.5 23.5t-23.5 56.5q0 35 24 57.5t56 22.5 56-22.5 24-57.5q0-33-23.5-56.5t-56.5-23.5zM222 770q-33 0-56.5 23.5t-23.5 56.5q0 35 24 57.5t56 22.5 56-22.5 24-57.5q0-33-23.5-56.5t-56.5-23.5z" glyph-name="Ydieresis" horiz-adv-x="682" unicode="&#x178;"/><glyph d="M261 298l-263 412h187l156-252 156 252h187l-263-412v-298h-160v298zM161 913h166l70-145h-110z" glyph-name="Ygrave" horiz-adv-x="682" unicode="&#x1ef2;"/><glyph d="M261 298l-263 412h187l156-252 156 252h187l-263-412v-298h-160v298zM176 902h330v-106h-330v106z" glyph-name="uni0232" horiz-adv-x="682" unicode="&#x232;"/><glyph d="M336 552h-287v158h560l-329-552h308v-158h-581zM517.969 913h-165.99l-69.9961-145h109.994z" glyph-name="Zacute" horiz-adv-x="627" unicode="&#x179;"/><glyph d="M336 552h-287v158h560l-329-552h308v-158h-581zM502.97 834.949l-176.989-75.9951-176.989 75.9951 40.9971 95.9941 135.992-58.9961 135.991 58.9961z" glyph-name="Zcaron" horiz-adv-x="627" unicode="&#x17d;"/><glyph d="M336 552h-287v158h560l-329-552h308v-158h-581zM326 770q-32 0-56 22.5t-24 57.5q0 33 23.5 56.5t56.5 23.5 56.5-23.5 23.5-56.5q0-17-6.5-31.5t-17.5-25.5-25.5-17-30.5-6z" glyph-name="Zdotaccent" horiz-adv-x="627" unicode="&#x17b;"/><glyph d="M76 710h496l-101-247q69-26 106.5-79.5t37.5-135.5q0-59-19.5-105t-54-77.5-82.5-48.5-105-17h-48v152h43q42 0 73.5 24t31.5 72-31.5 72-73.5 24h-43v113l44 108h-115v-565h-159v710z" glyph-name="uni1E9E" horiz-adv-x="652" unicode="&#x1e9e;"/><glyph d="M385 29q-22-18-50.5-27.5t-59.5-9.5q-56 0-100.5 21t-76 56.5-48.5 82.5-17 98 17 98 48.5 82.5 76 56.5 100.5 21q31 0 59.5-10t50.5-28v30h151v-500h-151v29zM300 130q53 0 85 41v157q-16 20-36.5 31t-48.5 11q-27 0-48.5-9.5t-36-26-22.5-38-8-46.5 8-46.5 22.5-38 36-26 48.5-9.5zM306 546q-38 0-71.5 11.5t-58.5 32.5-39.5 51.5-14.5 68.5h96q0-41 23.5-59.5t64.5-18.5 64.5 18.5 23.5 59.5h96q0-38-14.5-68.5t-39.5-51.5-58.5-32.5-71.5-11.5z" glyph-name="abreve" horiz-adv-x="596" unicode="&#x103;"/><glyph d="M385 29q-22-18-50.5-27.5t-59.5-9.5q-56 0-100.5 21t-76 56.5-48.5 82.5-17 98 17 98 48.5 82.5 76 56.5 100.5 21q31 0 59.5-10t50.5-28v30h151v-500h-151v29zM300 130q53 0 85 41v157q-16 20-36.5 31t-48.5 11q-27 0-48.5-9.5t-36-26-22.5-38-8-46.5 8-46.5 22.5-38 36-26 48.5-9.5zM141 675h330v-96h-330v96z" glyph-name="amacron" horiz-adv-x="596" unicode="&#x101;"/><glyph d="M385 29q-22-18-50.5-27.5t-59.5-9.5q-56 0-100.5 21t-76 56.5-48.5 82.5-17 98 17 98 48.5 82.5 76 56.5 100.5 21q31 0 59.5-10t50.5-28v30h151v-500h-151v29zM300 130q53 0 85 41v157q-16 20-36.5 31t-48.5 11q-27 0-48.5-9.5t-36-26-22.5-38-8-46.5 8-46.5 22.5-38 36-26 48.5-9.5zM453-189q-22 0-41.5 8.5t-34 23-23 34-8.5 41.5q0 25 10.5 46t28.5 36h151q-32-15-44.5-28.5t-12.5-27.5q0-13 8.5-21.5t21.5-8.5q10 0 16.5 4.5t10.5 8.5v-87q-16-16-37-22.5t-46-6.5z" glyph-name="aogonek" horiz-adv-x="596" unicode="&#x105;"/><glyph d="M292-8q-54 0-101.5 20.5t-82.5 55.5-55.5 82-20.5 100 20.5 100 55.5 82 82.5 55.5 101.5 20.5q69 0 126.5-32t92.5-86l-120-85q-15 28-40.5 45t-58.5 17q-47 0-77.5-32.5t-30.5-84.5 30.5-84.5 77.5-32.5q33 0 58.5 17t40.5 45l120-85q-35-54-92.5-86t-126.5-32zM499.97 710h-172.989l-83.9951-160h109.993z" glyph-name="cacute" horiz-adv-x="530" unicode="&#x107;"/><glyph d="M292-8q-54 0-101.5 20.5t-82.5 55.5-55.5 82-20.5 100 20.5 100 55.5 82 82.5 55.5 101.5 20.5q69 0 126.5-32t92.5-86l-120-85q-15 28-40.5 45t-58.5 17q-47 0-77.5-32.5t-30.5-84.5 30.5-84.5 77.5-32.5q33 0 58.5 17t40.5 45l120-85q-35-54-92.5-86t-126.5-32zM122.992 636.961l46.9971 91.9941 122.993-62.9961 122.992 62.9961 46.9971-91.9941-169.989-90.9941z" glyph-name="ccaron" horiz-adv-x="530" unicode="&#x10d;"/><glyph d="M292-8q-54 0-101.5 20.5t-82.5 55.5-55.5 82-20.5 100 20.5 100 55.5 82 82.5 55.5 101.5 20.5q69 0 126.5-32t92.5-86l-120-85q-15 28-40.5 45t-58.5 17q-47 0-77.5-32.5t-30.5-84.5 30.5-84.5 77.5-32.5q33 0 58.5 17t40.5 45l120-85q-35-54-92.5-86t-126.5-32zM463 637l-47-92-123 63-123-63-47 92 170 91z" glyph-name="ccircumflex" horiz-adv-x="530" unicode="&#x109;"/><glyph d="M292-8q-54 0-101.5 20.5t-82.5 55.5-55.5 82-20.5 100 20.5 100 55.5 82 82.5 55.5 101.5 20.5q69 0 126.5-32t92.5-86l-120-85q-15 28-40.5 45t-58.5 17q-47 0-77.5-32.5t-30.5-84.5 30.5-84.5 77.5-32.5q33 0 58.5 17t40.5 45l120-85q-35-54-92.5-86t-126.5-32zM293 567q-32 0-56 22.5t-24 57.5q0 33 23.5 56.5t56.5 23.5 56.5-23.5 23.5-56.5q0-17-6.5-31.5t-17.5-25.5-25.5-17-30.5-6z" glyph-name="cdotaccent" horiz-adv-x="530" unicode="&#x10b;"/><glyph d="M385 0v29q-22-18-50.5-27.5t-59.5-9.5q-56 0-100.5 21t-76 56.5-48.5 82.5-17 98 17 98 48.5 82.5 76 56.5 100.5 21q31 0 59.5-10t50.5-28v240h151v-710h-151zM300 370q-27 0-48.5-9.5t-36-26-22.5-38-8-46.5 8-46.5 22.5-38 36-26 48.5-9.5q55 0 85 41v157q-31 42-85 42zM585 710h151l-69-160h-102z" glyph-name="dcaron" horiz-adv-x="620" unicode="&#x10f;"/><glyph d="M385 0v29q-22-18-50.5-27.5t-59.5-9.5q-56 0-100.5 21t-76 56.5-48.5 82.5-17 98 17 98 48.5 82.5 76 56.5 100.5 21q31 0 59.5-10t50.5-28v240h151v-710h-151zM300 370q-27 0-48.5-9.5t-36-26-22.5-38-8-46.5 8-46.5 22.5-38 36-26 48.5-9.5q55 0 85 41v157q-31 42-85 42zM256 644h349v-65h-349v65z" glyph-name="dcroat" horiz-adv-x="596" unicode="&#x111;"/><glyph d="M288-8q-50 0-96 18.5t-81 52.5-56.5 81.5-21.5 105.5q0 55 18.5 102.5t52.5 82 81.5 54 105.5 19.5q56 0 103.5-20t80-57 48-89.5 6.5-118.5h-351q3-25 14-42.5t26.5-29 33.5-16.5 35-5q40 0 66 17.5t41 45.5l120-81q-35-54-93-87t-133-33zM282 387q-14 0-29.5-3.5t-30-12-26-23.5-17.5-37h204q-6 40-35 58t-66 18zM293 546q-38 0-71.5 11.5t-58.5 32.5-39.5 51.5-14.5 68.5h96q0-41 23.5-59.5t64.5-18.5 64.5 18.5 23.5 59.5h96q0-38-14.5-68.5t-39.5-51.5-58.5-32.5-71.5-11.5z" glyph-name="ebreve" horiz-adv-x="564" unicode="&#x115;"/><glyph d="M288-8q-50 0-96 18.5t-81 52.5-56.5 81.5-21.5 105.5q0 55 18.5 102.5t52.5 82 81.5 54 105.5 19.5q56 0 103.5-20t80-57 48-89.5 6.5-118.5h-351q3-25 14-42.5t26.5-29 33.5-16.5 35-5q40 0 66 17.5t41 45.5l120-81q-35-54-93-87t-133-33zM282 387q-14 0-29.5-3.5t-30-12-26-23.5-17.5-37h204q-6 40-35 58t-66 18zM122.992 636.961l46.9971 91.9941 122.993-62.9961 122.992 62.9961 46.9971-91.9941-169.989-90.9941z" glyph-name="ecaron" horiz-adv-x="564" unicode="&#x11b;"/><glyph d="M288-8q-50 0-96 18.5t-81 52.5-56.5 81.5-21.5 105.5q0 55 18.5 102.5t52.5 82 81.5 54 105.5 19.5q56 0 103.5-20t80-57 48-89.5 6.5-118.5h-351q3-25 14-42.5t26.5-29 33.5-16.5 35-5q40 0 66 17.5t41 45.5l120-81q-35-54-93-87t-133-33zM282 387q-14 0-29.5-3.5t-30-12-26-23.5-17.5-37h204q-6 40-35 58t-66 18zM128 675h330v-96h-330v96z" glyph-name="emacron" horiz-adv-x="564" unicode="&#x113;"/><glyph d="M503-160q-16-16-37-22.5t-46-6.5q-22 0-41.5 8.5t-34 23-23 34-8.5 41.5q0 25 10.5 46t27.5 35q-28-7-63-7-50 0-96 18.5t-81 52.5-56.5 81.5-21.5 105.5q0 55 18.5 102.5t52.5 82 81.5 54 105.5 19.5q56 0 103.5-20t80.5-57.5 48-90 6-117.5h-351q3-26 14.5-43.5t27.5-28.5 34-16 33-5q40 0 66 17.5t41 45.5l120-81q-11-20-24-41t-23.5-41.5-17.5-40-7-37.5q0-20 9.5-29t24.5-9q10 0 16.5 4.5t10.5 8.5v-87zM282 387q-11 0-26.5-2.5t-30.5-11-27.5-23.5-18.5-39h204q-6 40-35 58t-66 18z" glyph-name="eogonek" horiz-adv-x="564" unicode="&#x119;"/><glyph d="M288-8q-50 0-96 18.5t-81 52.5-56.5 81.5-21.5 105.5q0 55 18.5 102.5t52.5 82 81.5 54 105.5 19.5q56 0 103.5-20t80-57 48-89.5 6.5-118.5h-351q3-25 14-42.5t26.5-29 33.5-16.5 35-5q40 0 66 17.5t41 45.5l120-81q-35-54-93-87t-133-33zM282 387q-14 0-29.5-3.5t-30-12-26-23.5-17.5-37h204q-6 40-35 58t-66 18zM293 567q-32 0-56 22.5t-24 57.5q0 33 23.5 56.5t56.5 23.5 56.5-23.5 23.5-56.5q0-17-6.5-31.5t-17.5-25.5-25.5-17-30.5-6z" glyph-name="edotaccent" horiz-adv-x="564" unicode="&#x117;"/><glyph d="M290-194q-57 0-114 10.5t-111 45.5l68 133q30-23 66.5-37t80.5-14q22 0 43 4t36.5 13.5 25 24.5 9.5 38q0 8-2.5 19.5t-10.5 22.5q-22-18-51-28t-60-10q-57 0-101 20.5t-74 54-45.5 76.5-15.5 89 15.5 89 45.5 76.5 74 54 101 20.5q31 0 59.5-10t50.5-28v30h151v-403q11-26 16-50.5t5-47.5q0-53-22.5-89.5t-59.5-59.5-84-33.5-96-10.5zM290 166q56 0 90 42v120q-34 42-90 42-25 0-44.5-9t-32.5-23-20-32.5-7-37.5 7-37.5 20-32.5 32.5-23 44.5-9zM288 546q-38 0-71.5 11.5t-58.5 32.5-39.5 51.5-14.5 68.5h96q0-41 23.5-59.5t64.5-18.5 64.5 18.5 23.5 59.5h96q0-38-14.5-68.5t-39.5-51.5-58.5-32.5-71.5-11.5z" glyph-name="gbreve" horiz-adv-x="594" unicode="&#x11f;"/><glyph d="M290-194q-57 0-114 10.5t-111 45.5l68 133q30-23 66.5-37t80.5-14q22 0 43 4t36.5 13.5 25 24.5 9.5 38q0 8-2.5 19.5t-10.5 22.5q-22-18-51-28t-60-10q-57 0-101 20.5t-74 54-45.5 76.5-15.5 89 15.5 89 45.5 76.5 74 54 101 20.5q31 0 59.5-10t50.5-28v30h151v-403q11-26 16-50.5t5-47.5q0-53-22.5-89.5t-59.5-59.5-84-33.5-96-10.5zM290 166q56 0 90 42v120q-34 42-90 42-25 0-44.5-9t-32.5-23-20-32.5-7-37.5 7-37.5 20-32.5 32.5-23 44.5-9zM458 637l-47-92-123 63-123-63-47 92 170 91z" glyph-name="gcircumflex" horiz-adv-x="594" unicode="&#x11d;"/><glyph d="M290-194q-57 0-114 10.5t-111 45.5l68 133q30-23 66.5-37t80.5-14q22 0 43 4t36.5 13.5 25 24.5 9.5 38q0 8-2.5 19.5t-10.5 22.5q-22-18-51-28t-60-10q-57 0-101 20.5t-74 54-45.5 76.5-15.5 89 15.5 89 45.5 76.5 74 54 101 20.5q31 0 59.5-10t50.5-28v30h151v-403q11-26 16-50.5t5-47.5q0-53-22.5-89.5t-59.5-59.5-84-33.5-96-10.5zM290 166q56 0 90 42v120q-34 42-90 42-25 0-44.5-9t-32.5-23-20-32.5-7-37.5 7-37.5 20-32.5 32.5-23 44.5-9zM351.979 551.967h-137.991l77.9951 164.989h86.9941z" glyph-name="uni0123" horiz-adv-x="594" unicode="&#x123;"/><glyph d="M290-194q-57 0-114 10.5t-111 45.5l68 133q30-23 66.5-37t80.5-14q22 0 43 4t36.5 13.5 25 24.5 9.5 38q0 8-2.5 19.5t-10.5 22.5q-22-18-51-28t-60-10q-57 0-101 20.5t-74 54-45.5 76.5-15.5 89 15.5 89 45.5 76.5 74 54 101 20.5q31 0 59.5-10t50.5-28v30h151v-403q11-26 16-50.5t5-47.5q0-53-22.5-89.5t-59.5-59.5-84-33.5-96-10.5zM290 166q56 0 90 42v120q-34 42-90 42-25 0-44.5-9t-32.5-23-20-32.5-7-37.5 7-37.5 20-32.5 32.5-23 44.5-9zM288 567q-32 0-56 22.5t-24 57.5q0 33 23.5 56.5t56.5 23.5 56.5-23.5 23.5-56.5q0-17-6.5-31.5t-17.5-25.5-25.5-17-30.5-6z" glyph-name="gdotaccent" horiz-adv-x="594" unicode="&#x121;"/><glyph d="M60 710h151v-241q47 39 115 39 53 0 93.5-17t68.5-47 42-72 14-93v-279h-151v252q0 50-21.5 84t-70.5 34q-22 0-46.5-11t-43.5-32v-327h-151v710zM-9 644h349v-65h-349v65z" glyph-name="hbar" horiz-adv-x="598" unicode="&#x127;"/><glyph d="M60 710h151v-241q47 39 115 39 53 0 93.5-17t68.5-47 42-72 14-93v-279h-151v252q0 50-21.5 84t-70.5 34q-22 0-46.5-11t-43.5-32v-327h-151v710zM150 855l177 76 177-76-41-96-136 59-136-59z" glyph-name="hcircumflex" horiz-adv-x="598" unicode="&#x125;"/><glyph d="M60 500h151v-500h-151v500z" glyph-name="dotlessi" horiz-adv-x="271" unicode="&#x131;"/><glyph d="M60 500h151v-500h-151v500zM136 546q-38 0-71.5 11.5t-58.5 32.5-39.5 51.5-14.5 68.5h96q0-41 23.5-59.5t64.5-18.5 64.5 18.5 23.5 59.5h96q0-38-14.5-68.5t-39.5-51.5-58.5-32.5-71.5-11.5z" glyph-name="ibreve" horiz-adv-x="271" unicode="&#x12d;"/><glyph d="M60 500h151v-500h-151v500zM-29 675h330v-96h-330v96z" glyph-name="imacron" horiz-adv-x="271" unicode="&#x12b;"/><glyph d="M60 500h151v-500h-151v500zM66 571q-20 23-20 57 0 38 26 64t64 26 64-26 26-64q0-34-20-57h-140v0zM128-189q-22 0-41.5 8.5t-34 23-23 34-8.5 41.5q0 25 10.5 46t28.5 36h151q-32-15-44.5-28.5t-12.5-27.5q0-13 8.5-21.5t21.5-8.5q10 0 16.5 4.5t10.5 8.5v-87q-16-16-37-22.5t-46-6.5z" glyph-name="iogonek" horiz-adv-x="271" unicode="&#x12f;"/><glyph d="M60 500h151v-500h-151v500zM-53 583q4 28 15.5 49.5t27.5 36.5 35.5 22.5 38.5 7.5q22 0 40-6.5t33.5-14 28.5-13.5 24-6q17 0 27 9.5t16 32.5h96l-4-29q-4-28-15.5-49.5t-27.5-36.5-35.5-22.5-38.5-7.5q-22 0-40 6t-33.5 13.5-28.5 14-24 6.5q-17 0-27-9.5t-16-32.5h-96z" glyph-name="itilde" horiz-adv-x="271" unicode="&#x129;"/><glyph d="M60 500h151v-500h-151v500zM66 571q-20 23-20 57 0 38 26 64t64 26 64-26 26-64q0-34-20-57h-140v0zM135-206q-32 0-56 22.5t-24 57.5q0 33 23.5 56.5t56.5 23.5 56.5-23.5 23.5-56.5q0-17-6.5-31.5t-17.5-25.5-25.5-17-30.5-6z" glyph-name="uni1ECB" horiz-adv-x="271" unicode="&#x1ecb;"/><glyph d="M-36-41h25q36 0 57.5 12t21.5 48v481h151v-500q0-46-16-80.5t-45-57.5-70-34.5-90-11.5h-34v143z" glyph-name="uni0237" horiz-adv-x="279" unicode="&#x237;"/><glyph d="M-36-41h25q36 0 57.5 12t21.5 48v481h151v-500q0-46-16-80.5t-45-57.5-70-34.5-90-11.5h-34v143zM313 637l-47-92-123 63-123-63-47 92 170 91z" glyph-name="jcircumflex" horiz-adv-x="279" unicode="&#x135;"/><glyph d="M60 710h151v-439l163 229h174l-170-237 196-263h-178l-185 249v-249h-151v710zM237-50h138l-78-165h-87z" glyph-name="uni0137" horiz-adv-x="564" unicode="&#x137;"/><glyph d="M60 710h151v-710h-151v710zM328.979 920h-172.989l-83.9941-160h109.993z" glyph-name="lacute" horiz-adv-x="271" unicode="&#x13a;"/><glyph d="M60 710h151v-710h-151v710zM260 710h151l-69-160h-102z" glyph-name="lcaron" horiz-adv-x="295" unicode="&#x13e;"/><glyph d="M60 710h151v-710h-151v710zM67-50h138l-78-165h-87z" glyph-name="uni013C" horiz-adv-x="271" unicode="&#x13c;"/><glyph d="M60 710h151v-710h-151v710zM344 291q-32 0-56 22.5t-24 57.5q0 33 23.5 56.5t56.5 23.5 56.5-23.5 23.5-56.5q0-17-6.5-31.5t-17.5-25.5-25.5-17-30.5-6z" glyph-name="ldot" horiz-adv-x="408" unicode="&#x140;"/><glyph d="M133 710h151v-710h-151v710zM18 301l349 199 34-60-349-199z" glyph-name="lslash" horiz-adv-x="400" unicode="&#x142;"/><glyph d="M60 500h151v-31q47 39 115 39 53 0 93.5-17t68.5-47 42-72 14-93v-279h-151v252q0 50-21.5 84t-70.5 34q-22 0-46.5-11t-43.5-32v-327h-151v500zM513.969 710h-172.989l-83.9951-160h109.993z" glyph-name="nacute" horiz-adv-x="598" unicode="&#x144;"/><glyph d="M60 500h151v-31q47 39 115 39 53 0 93.5-17t68.5-47 42-72 14-93v-279h-151v252q0 50-21.5 84t-70.5 34q-22 0-46.5-11t-43.5-32v-327h-151v500zM136.991 636.961l46.9971 91.9941 122.993-62.9961 122.992 62.9961 46.9971-91.9941-169.989-90.9941z" glyph-name="ncaron" horiz-adv-x="598" unicode="&#x148;"/><glyph d="M60 500h151v-31q47 39 115 39 53 0 93.5-17t68.5-47 42-72 14-93v-279h-151v252q0 50-21.5 84t-70.5 34q-22 0-46.5-11t-43.5-32v-327h-151v500zM235-50h138l-78-165h-87z" glyph-name="uni0146" horiz-adv-x="598" unicode="&#x146;"/><glyph d="M881 112q-35-54-93-87t-133-33q-45 0-91.5 17t-88.5 56q-42-39-88.5-56t-94.5-17q-54 0-101.5 20.5t-82.5 55.5-55.5 82-20.5 100 20.5 100 55.5 82 82.5 55.5 101.5 20.5q47 0 93.5-17t86.5-55q41 38 88 55t98 17q56 0 103-20t80-57 48-89.5 7-118.5h-354q5-28 18-46t29-28.5 33-14.5 32-4q40 0 66 17.5t41 45.5zM649 387q-11 0-25.5-2.5t-29.5-10.5-28-23-20-40h204q-6 40-35 58t-66 18zM292 133q47 0 77.5 32.5t30.5 84.5-30.5 84.5-77.5 32.5-77.5-32.5-30.5-84.5 30.5-84.5 77.5-32.5z" glyph-name="oe" horiz-adv-x="931" unicode="&#x153;"/><glyph d="M292-8q-54 0-101.5 20.5t-82.5 55.5-55.5 82-20.5 100 20.5 100 55.5 82 82.5 55.5 101.5 20.5 101.5-20.5 82.5-55.5 55.5-82 20.5-100-20.5-100-55.5-82-82.5-55.5-101.5-20.5zM292 133q47 0 77.5 32.5t30.5 84.5-30.5 84.5-77.5 32.5-77.5-32.5-30.5-84.5 30.5-84.5 77.5-32.5zM292 546q-38 0-71.5 11.5t-58.5 32.5-39.5 51.5-14.5 68.5h96q0-41 23.5-59.5t64.5-18.5 64.5 18.5 23.5 59.5h96q0-38-14.5-68.5t-39.5-51.5-58.5-32.5-71.5-11.5z" glyph-name="obreve" horiz-adv-x="584" unicode="&#x14f;"/><glyph d="M292-8q-54 0-101.5 20.5t-82.5 55.5-55.5 82-20.5 100 20.5 100 55.5 82 82.5 55.5 101.5 20.5 101.5-20.5 82.5-55.5 55.5-82 20.5-100-20.5-100-55.5-82-82.5-55.5-101.5-20.5zM292 133q47 0 77.5 32.5t30.5 84.5-30.5 84.5-77.5 32.5-77.5-32.5-30.5-84.5 30.5-84.5 77.5-32.5zM243 710h143l-131-160h-95zM416 710h143l-131-160h-95z" glyph-name="ohungarumlaut" horiz-adv-x="584" unicode="&#x151;"/><glyph d="M292-8q-54 0-101.5 20.5t-82.5 55.5-55.5 82-20.5 100 20.5 100 55.5 82 82.5 55.5 101.5 20.5 101.5-20.5 82.5-55.5 55.5-82 20.5-100-20.5-100-55.5-82-82.5-55.5-101.5-20.5zM292 133q47 0 77.5 32.5t30.5 84.5-30.5 84.5-77.5 32.5-77.5-32.5-30.5-84.5 30.5-84.5 77.5-32.5zM127 675h330v-96h-330v96z" glyph-name="omacron" horiz-adv-x="584" unicode="&#x14d;"/><glyph d="M292-8q-54 0-101.5 20.5t-82.5 55.5-55.5 82-20.5 100 20.5 100 55.5 82 82.5 55.5 101.5 20.5 101.5-20.5 82.5-55.5 55.5-82 20.5-100-20.5-100-55.5-82-82.5-55.5-101.5-20.5zM292 133q47 0 77.5 32.5t30.5 84.5-30.5 84.5-77.5 32.5-77.5-32.5-30.5-84.5 30.5-84.5 77.5-32.5zM292-206q-32 0-56 22.5t-24 57.5q0 33 23.5 56.5t56.5 23.5 56.5-23.5 23.5-56.5q0-17-6.5-31.5t-17.5-25.5-25.5-17-30.5-6z" glyph-name="uni1ECD" horiz-adv-x="584" unicode="&#x1ecd;"/><glyph d="M60 500h151v-44q43 52 114 52 12 0 26-1.5t28-6.5v-157q-17 9-37 13t-40 4q-23 0-48-8.5t-43-24.5v-327h-151v500zM423.975 710h-172.99l-83.9941-160h109.993z" glyph-name="racute" horiz-adv-x="398" unicode="&#x155;"/><glyph d="M60 500h151v-44q43 52 114 52 12 0 26-1.5t28-6.5v-157q-17 9-37 13t-40 4q-23 0-48-8.5t-43-24.5v-327h-151v500zM46.9971 636.961l46.9971 91.9941 122.992-62.9961 122.993 62.9961 46.9971-91.9941-169.99-90.9941z" glyph-name="rcaron" horiz-adv-x="398" unicode="&#x159;"/><glyph d="M60 500h151v-44q43 52 114 52 12 0 26-1.5t28-6.5v-157q-17 9-37 13t-40 4q-23 0-48-8.5t-43-24.5v-327h-151v500zM64-50h138l-78-165h-87z" glyph-name="uni0157" horiz-adv-x="398" unicode="&#x157;"/><glyph d="M226-8q-66 0-117.5 24.5t-83.5 81.5l115 78q15-27 36.5-44t55.5-17q16 0 27.5 4.5t11.5 18.5-13 22-50 22l-26 10q-132 52-132 161 0 34 13.5 63t36.5 49 54.5 31.5 67.5 11.5q48 0 88.5-18.5t69.5-60.5l-86-85q-14 20-31.5 32.5t-40.5 12.5q-15 0-25.5-5.5t-10.5-17.5q0-15 14-23t52-22l21-8q72-27 103-66.5t31-95.5q0-38-14-68t-38.5-50-57.5-30.5-71-10.5zM428.974 710h-172.989l-83.9951-160h109.993z" glyph-name="sacute" horiz-adv-x="439" unicode="&#x15b;"/><glyph d="M226-8q-66 0-117.5 24.5t-83.5 81.5l115 78q15-27 36.5-44t55.5-17q16 0 27.5 4.5t11.5 18.5-13 22-50 22l-26 10q-132 52-132 161 0 34 13.5 63t36.5 49 54.5 31.5 67.5 11.5q48 0 88.5-18.5t69.5-60.5l-86-85q-14 20-31.5 32.5t-40.5 12.5q-15 0-25.5-5.5t-10.5-17.5q0-15 14-23t52-22l21-8q72-27 103-66.5t31-95.5q0-38-14-68t-38.5-50-57.5-30.5-71-10.5zM51.9971 636.961l46.9971 91.9941 122.992-62.9961 122.992 62.9961 46.998-91.9941-169.99-90.9941z" glyph-name="scaron" horiz-adv-x="439" unicode="&#x161;"/><glyph d="M226-8q-66 0-117.5 24.5t-83.5 81.5l115 78q15-27 36.5-44t55.5-17q16 0 27.5 4.5t11.5 18.5-13 22-50 22l-26 10q-132 52-132 161 0 34 13.5 63t36.5 49 54.5 31.5 67.5 11.5q48 0 88.5-18.5t69.5-60.5l-86-85q-14 20-31.5 32.5t-40.5 12.5q-15 0-25.5-5.5t-10.5-17.5q0-15 14-23t52-22l21-8q72-27 103-66.5t31-95.5q0-38-14-68t-38.5-50-57.5-30.5-71-10.5zM178 0h102l-47-165h-127z" glyph-name="scedilla" horiz-adv-x="439" unicode="&#x15f;"/><glyph d="M226-8q-66 0-117.5 24.5t-83.5 81.5l115 78q15-27 36.5-44t55.5-17q16 0 27.5 4.5t11.5 18.5-13 22-50 22l-26 10q-132 52-132 161 0 34 13.5 63t36.5 49 54.5 31.5 67.5 11.5q48 0 88.5-18.5t69.5-60.5l-86-85q-14 20-31.5 32.5t-40.5 12.5q-15 0-25.5-5.5t-10.5-17.5q0-15 14-23t52-22l21-8q72-27 103-66.5t31-95.5q0-38-14-68t-38.5-50-57.5-30.5-71-10.5zM392 637l-47-92-123 63-123-63-47 92 170 91z" glyph-name="scircumflex" horiz-adv-x="439" unicode="&#x15d;"/><glyph d="M226-8q-66 0-117.5 24.5t-83.5 81.5l115 78q15-27 36.5-44t55.5-17q16 0 27.5 4.5t11.5 18.5-13 22-50 22l-26 10q-132 52-132 161 0 34 13.5 63t36.5 49 54.5 31.5 67.5 11.5q48 0 88.5-18.5t69.5-60.5l-86-85q-14 20-31.5 32.5t-40.5 12.5q-15 0-25.5-5.5t-10.5-17.5q0-15 14-23t52-22l21-8q72-27 103-66.5t31-95.5q0-38-14-68t-38.5-50-57.5-30.5-71-10.5zM157-50h138l-78-165h-87z" glyph-name="uni0219" horiz-adv-x="439" unicode="&#x219;"/><glyph d="M259 0q-71 0-112 41t-41 113v214h-65l-33 132h98v75l151 75v-150h158l-33-132h-125v-171q0-32 13.5-45.5t44.5-13.5h82v-138h-138v0zM327 710h151l-69-160h-102z" glyph-name="tcaron" horiz-adv-x="430" unicode="&#x165;"/><glyph d="M259 0q-71 0-112 41t-41 113v214h-65l-33 132h98v75l151 75v-150h158l-33-132h-125v-171q0-32 13.5-45.5t44.5-13.5h82v-138h-138v0zM183-50h138l-78-165h-87z" glyph-name="uni0163" horiz-adv-x="430" unicode="&#x163;"/><glyph d="M259 0q-71 0-112 41t-41 113v214h-65l-33 132h98v75l151 75v-150h158l-33-132h-125v-171q0-32 13.5-45.5t44.5-13.5h82v-138h-138v0zM183-50h138l-78-165h-87z" glyph-name="uni021B" horiz-adv-x="430" unicode="&#x21b;"/><glyph d="M387 37q-23-22-55-33.5t-64-11.5q-51 0-90.5 16.5t-67 47-42 72.5-14.5 93v279h151v-252q0-51 21.5-84.5t66.5-33.5q28 0 53.5 13t40.5 37v320h151v-500h-151v37zM296 546q-38 0-71.5 11.5t-58.5 32.5-39.5 51.5-14.5 68.5h96q0-41 23.5-59.5t64.5-18.5 64.5 18.5 23.5 59.5h96q0-38-14.5-68.5t-39.5-51.5-58.5-32.5-71.5-11.5z" glyph-name="ubreve" horiz-adv-x="598" unicode="&#x16d;"/><glyph d="M387 37q-23-22-55-33.5t-64-11.5q-51 0-90.5 16.5t-67 47-42 72.5-14.5 93v279h151v-252q0-51 21.5-84.5t66.5-33.5q28 0 53.5 13t40.5 37v320h151v-500h-151v37zM247 710h143l-131-160h-95zM420 710h143l-131-160h-95z" glyph-name="uhungarumlaut" horiz-adv-x="598" unicode="&#x171;"/><glyph d="M387 37q-23-22-55-33.5t-64-11.5q-51 0-90.5 16.5t-67 47-42 72.5-14.5 93v279h151v-252q0-51 21.5-84.5t66.5-33.5q28 0 53.5 13t40.5 37v320h151v-500h-151v37zM131 675h330v-96h-330v96z" glyph-name="umacron" horiz-adv-x="598" unicode="&#x16b;"/><glyph d="M387 37q-23-22-55-33.5t-64-11.5q-51 0-90.5 16.5t-67 47-42 72.5-14.5 93v279h151v-252q0-51 21.5-84.5t66.5-33.5q28 0 53.5 13t40.5 37v320h151v-500h-151v37zM455-189q-22 0-41.5 8.5t-34 23-23 34-8.5 41.5q0 25 10.5 46t28.5 36h151q-32-15-44.5-28.5t-12.5-27.5q0-13 8.5-21.5t21.5-8.5q10 0 16.5 4.5t10.5 8.5v-87q-16-16-37-22.5t-46-6.5z" glyph-name="uogonek" horiz-adv-x="598" unicode="&#x173;"/><glyph d="M387 37q-23-22-55-33.5t-64-11.5q-51 0-90.5 16.5t-67 47-42 72.5-14.5 93v279h151v-252q0-51 21.5-84.5t66.5-33.5q28 0 53.5 13t40.5 37v320h151v-500h-151v37zM296 546q-25 0-46.5 9.5t-38 26-26 38-9.5 46.5 9.5 46.5 26 38 38 26 46.5 9.5 46.5-9.5 38-26 26-38 9.5-46.5-9.5-46.5-26-38-38-26-46.5-9.5zM296 619q20 0 33.5 13.5t13.5 33.5-13.5 33.5-33.5 13.5-33.5-13.5-13.5-33.5 13.5-33.5 33.5-13.5z" glyph-name="uring" horiz-adv-x="598" unicode="&#x16f;"/><glyph d="M387 37q-23-22-55-33.5t-64-11.5q-51 0-90.5 16.5t-67 47-42 72.5-14.5 93v279h151v-252q0-51 21.5-84.5t66.5-33.5q28 0 53.5 13t40.5 37v320h151v-500h-151v37zM107 583q4 28 15.5 49.5t27.5 36.5 35.5 22.5 38.5 7.5q22 0 40-6.5t33.5-14 28.5-13.5 24-6q17 0 27 9.5t16 32.5h96l-4-29q-4-28-15.5-49.5t-27.5-36.5-35.5-22.5-38.5-7.5q-22 0-40 6t-33.5 13.5-28.5 14-24 6.5q-17 0-27-9.5t-16-32.5h-96z" glyph-name="utilde" horiz-adv-x="598" unicode="&#x169;"/><glyph d="M387 37q-23-22-55-33.5t-64-11.5q-51 0-90.5 16.5t-67 47-42 72.5-14.5 93v279h151v-252q0-51 21.5-84.5t66.5-33.5q28 0 53.5 13t40.5 37v320h151v-500h-151v37zM293-206q-32 0-56 22.5t-24 57.5q0 33 23.5 56.5t56.5 23.5 56.5-23.5 23.5-56.5q0-17-6.5-31.5t-17.5-25.5-25.5-17-30.5-6z" glyph-name="uni1EE5" horiz-adv-x="598" unicode="&#x1ee5;"/><glyph d="M2 500h159l83-282 123 290 123-290 83 282h159l-159-500h-115l-91 205-91-205h-115zM573.965 710h-172.989l-83.9951-160h109.993z" glyph-name="wacute" horiz-adv-x="734" unicode="&#x1e83;"/><glyph d="M2 500h159l83-282 123 290 123-290 83 282h159l-159-500h-115l-91 205-91-205h-115zM537 637l-47-92-123 63-123-63-47 92 170 91z" glyph-name="wcircumflex" horiz-adv-x="734" unicode="&#x175;"/><glyph d="M2 500h159l83-282 123 290 123-290 83 282h159l-159-500h-115l-91 205-91-205h-115zM486 567q-33 0-56.5 23.5t-23.5 56.5q0 35 24 57.5t56 22.5 56-22.5 24-57.5q0-33-23.5-56.5t-56.5-23.5zM248 567q-33 0-56.5 23.5t-23.5 56.5q0 35 24 57.5t56 22.5 56-22.5 24-57.5q0-33-23.5-56.5t-56.5-23.5z" glyph-name="wdieresis" horiz-adv-x="734" unicode="&#x1e85;"/><glyph d="M2 500h159l83-282 123 290 123-290 83 282h159l-159-500h-115l-91 205-91-205h-115zM173 710h173l84-160h-110z" glyph-name="wgrave" horiz-adv-x="734" unicode="&#x1e81;"/><glyph d="M185 0l-184 500h160l104-317 104 317h160l-252-684h-160zM435 637l-47-92-123 63-123-63-47 92 170 91z" glyph-name="ycircumflex" horiz-adv-x="528" unicode="&#x177;"/><glyph d="M185 0l-184 500h160l104-317 104 317h160l-252-684h-160zM71 710h173l84-160h-110z" glyph-name="ygrave" horiz-adv-x="528" unicode="&#x1ef3;"/><glyph d="M185 0l-184 500h160l104-317 104 317h160l-252-684h-160zM100 675h330v-96h-330v96z" glyph-name="uni0233" horiz-adv-x="528" unicode="&#x233;"/><glyph d="M245 370h-202v130h454l-231-369h216v-131h-469zM477.971 710h-172.989l-83.9951-160h109.993z" glyph-name="zacute" horiz-adv-x="518" unicode="&#x17a;"/><glyph d="M245 370h-202v130h454l-231-369h216v-131h-469zM100.994 636.961l46.9971 91.9941 122.992-62.9961 122.992 62.9961 46.9971-91.9941-169.989-90.9941z" glyph-name="zcaron" horiz-adv-x="518" unicode="&#x17e;"/><glyph d="M245 370h-202v130h454l-231-369h216v-131h-469zM271 567q-32 0-56 22.5t-24 57.5q0 33 23.5 56.5t56.5 23.5 56.5-23.5 23.5-56.5q0-17-6.5-31.5t-17.5-25.5-25.5-17-30.5-6z" glyph-name="zdotaccent" horiz-adv-x="518" unicode="&#x17c;"/><glyph d="M145-8q-23 0-42.5 8.5t-34 23-23 34-8.5 42.5 8.5 43 23.5 34.5 34.5 22.5 41.5 8 41.5-8 34.5-22.5 23.5-34.5 8.5-43-8.5-42.5-23-34-34.5-23-42-8.5zM435-8q-23 0-42.5 8.5t-34 23-23 34-8.5 42.5 8.5 43 23.5 34.5 34.5 22.5 41.5 8 41.5-8 34.5-22.5 23.5-34.5 8.5-43-8.5-42.5-23-34-34.5-23-42-8.5zM725-8q-23 0-42.5 8.5t-34 23-23 34-8.5 42.5 8.5 43 23.5 34.5 34.5 22.5 41.5 8 41.5-8 34.5-22.5 23.5-34.5 8.5-43-8.5-42.5-23-34-34.5-23-42-8.5z" glyph-name="ellipsis" horiz-adv-x="870" unicode="&#x2026;"/><glyph d="M56 354h484v-144h-484v144z" glyph-name="endash" horiz-adv-x="596" unicode="&#x2013;"/><glyph d="M56 354h777v-144h-777v144z" glyph-name="emdash" horiz-adv-x="889" unicode="&#x2014;"/><glyph d="M26 250l164 241 100-68-118-173 118-173-100-68z" glyph-name="guilsinglleft" horiz-adv-x="327" unicode="&#x2039;"/><glyph d="M37 77l118 173-118 173 100 68 164-241-164-241z" glyph-name="guilsinglright" horiz-adv-x="327" unicode="&#x203a;"/><glyph d="M157 556h67v-174h-174v174l64 154h87z" glyph-name="quoteleft" horiz-adv-x="274" unicode="&#x2018;"/><glyph d="M115 536h-67v174h174v-174l-64-154h-87z" glyph-name="quoteright" horiz-adv-x="264" unicode="&#x2019;"/><glyph d="M157 556h67v-174h-174v174l64 154h87zM381 556h67v-174h-174v174l64 154h87z" glyph-name="quotedblleft" horiz-adv-x="498" unicode="&#x201c;"/><glyph d="M115 536h-67v174h174v-174l-64-154h-87zM339 536h-67v174h174v-174l-64-154h-87z" glyph-name="quotedblright" horiz-adv-x="488" unicode="&#x201d;"/><glyph d="M124 0h-67v174h174v-174l-64-154h-87z" glyph-name="quotesinglbase" horiz-adv-x="288" unicode="&#x201a;"/><glyph d="M124 0h-67v174h174v-174l-64-154h-87zM348 0h-67v174h174v-174l-64-154h-87z" glyph-name="quotedblbase" horiz-adv-x="512" unicode="&#x201e;"/><glyph d="M198 166q-28 0-53 10.5t-43.5 29-29 43.5-10.5 53 10.5 53 29 43.5 43.5 29 53 10.5 53-10.5 43.5-29 29-43.5 10.5-53-10.5-53-29-43.5-43.5-29-53-10.5z" glyph-name="bullet" horiz-adv-x="396" unicode="&#x2022;"/><glyph d="M77 339h436v-114h-436v114z" glyph-name="minus" horiz-adv-x="590" unicode="&#x2212;"/><glyph d="M55 317h91q-1 9-1.5 18.5t-.5 19.5v12.5t1 12.5h-116l26 74h103q16 57 49.5 105.5t79 83.5 102 55 118.5 20 118-20 102-55l-48-142q-28 32-73.5 54t-97.5 22q-63 0-114-32.5t-77-90.5h346l-26-74h-339q-1-6-1-12v-13q0-20 3-38h318l-26-74h-269q27-52 75.5-81t108.5-29q53 0 92 16t72 44v-162q-37-19-78-29t-86-10q-60 0-115 19t-100 52.5-78.5 79.5-51.5 100h-133z" glyph-name="Euro" horiz-adv-x="755" unicode="&#x20ac;"/><glyph d="M98 368h-65v132h73q-14 17-22.5 38t-8.5 45q0 27 9.5 50t27 40 42.5 27 56 10h155v-132h-98q-26 0-37.5-11t-11.5-28 11-28 28-11h108v-132h-116v-368h-151v368zM443 500h151v-500h-151v500zM449 571q-20 23-20 57 0 38 26 64t64 26 64-26 26-64q0-34-20-57h-140v0z" glyph-name="uniFB01" horiz-adv-x="654" unicode="&#xfb01;"/><glyph d="M98 368h-65v132h73q-14 17-22.5 38t-8.5 45q0 27 9.5 50t27 40 42.5 27 56 10h155v-132h-98q-26 0-37.5-11t-11.5-28 11-28 28-11h108v-132h-116v-368h-151v368zM443 710h151v-710h-151v710z" glyph-name="uniFB02" horiz-adv-x="654" unicode="&#xfb02;"/><glyph d="M56 571q-20 23-20 57 0 38 26 64t64 26 64-26 26-64q0-34-20-57h-140v0z" glyph-name="glyph329" horiz-adv-x="252"/><glyph d="M0 546q-38 0-71.5 11.5t-58.5 32.5-39.5 51.5-14.5 68.5h96q0-41 23.5-59.5t64.5-18.5 64.5 18.5 23.5 59.5h96q0-38-14.5-68.5t-39.5-51.5-58.5-32.5-71.5-11.5z" glyph-name="breve" unicode="&#x2d8;"/><glyph d="M-169.989 636.961l46.9971 91.9941 122.992-62.9961 122.992 62.9961 46.9971-91.9941-169.989-90.9941z" glyph-name="caron" unicode="&#x2c7;"/><glyph d="M170 637l-47-92-123 63-123-63-47 92 170 91z" glyph-name="circumflex" unicode="&#x2c6;"/><glyph d="M0 567q-32 0-56 22.5t-24 57.5q0 33 23.5 56.5t56.5 23.5 56.5-23.5 23.5-56.5q0-17-6.5-31.5t-17.5-25.5-25.5-17-30.5-6z" glyph-name="dotaccent" unicode="&#x2d9;"/><glyph d="M-118 710h143l-131-160h-95zM55 710h143l-131-160h-95z" glyph-name="hungarumlaut" unicode="&#x2dd;"/><glyph d="M-69-50h138l-78-165h-87z" glyph-name="glyph335"/><glyph d="M12-189q-22 0-41.5 8.5t-34 23-23 34-8.5 41.5q0 25 10.5 46t28.5 36h151q-32-15-44.5-28.5t-12.5-27.5q0-13 8.5-21.5t21.5-8.5q10 0 16.5 4.5t10.5 8.5v-87q-16-16-37-22.5t-46-6.5z" glyph-name="ogonek" unicode="&#x2db;"/><glyph d="M0 546q-25 0-46.5 9.5t-38 26-26 38-9.5 46.5 9.5 46.5 26 38 38 26 46.5 9.5 46.5-9.5 38-26 26-38 9.5-46.5-9.5-46.5-26-38-38-26-46.5-9.5zM0 619q20 0 33.5 13.5t13.5 33.5-13.5 33.5-33.5 13.5-33.5-13.5-13.5-33.5 13.5-33.5 33.5-13.5z" glyph-name="ring" unicode="&#x2da;"/><glyph d="M-189 583q4 28 15.5 49.5t27.5 36.5 35.5 22.5 38.5 7.5q22 0 40-6.5t33.5-14 28.5-13.5 24-6q17 0 27 9.5t16 32.5h96l-4-29q-4-28-15.5-49.5t-27.5-36.5-35.5-22.5-38.5-7.5q-22 0-40 6t-33.5 13.5-28.5 14-24 6.5q-17 0-27-9.5t-16-32.5h-96z" glyph-name="tilde" unicode="&#x2dc;"/><glyph d="M-65 710h151l-69-160h-102z" glyph-name="glyph339"/><glyph d="M-94 567q-32 0-56 22.5t-24 57.5q0 33 23.5 56.5t56.5 23.5 56.5-23.5 23.5-56.5q0-17-6.5-31.5t-17.5-25.5-25.5-17-30.5-6zM94 567q-32 0-56 22.5t-24 57.5q0 33 23.5 56.5t56.5 23.5 56.5-23.5 23.5-56.5q0-17-6.5-31.5t-17.5-25.5-25.5-17-30.5-6z" glyph-name="glyph340"/><glyph d="M-175 644h349v-65h-349v65z" glyph-name="glyph341"/><glyph d="M-191 285l349 199 34-60-349-199z" glyph-name="glyph342"/><glyph d="M0 766q-38 0-71.5 14.5t-58.5 39.5-39.5 58.5-14.5 71.5h96q0-41 23.5-69.5t64.5-28.5 64.5 28.5 23.5 69.5h96q0-38-14.5-71.5t-39.5-58.5-58.5-39.5-71.5-14.5z" glyph-name="glyph343"/><glyph d="M-177 855l177 76 177-76-41-96-136 59-136-59z" glyph-name="glyph344"/><glyph d="M-118 913h166l70-145h-110z" glyph-name="glyph345"/><glyph d="M-131 913h148l-115-145h-103zM47 913h148l-115-145h-103z" glyph-name="glyph346"/><glyph d="M-165 902h330v-106h-330v106z" glyph-name="glyph347"/><glyph d="M14-189q-52 0-84 28t-32 73q0 28 13 50.5t33 37.5h160q-32-14-49.5-25t-17.5-31q0-16 9.5-23t22.5-7q10 0 20.5 4.5t14.5 8.5v-87q-38-29-90-29z" glyph-name="glyph348"/><glyph d="M-169 392h338v-74h-338v74z" glyph-name="glyph349"/><glyph d="M-218 271l424 242 38-67-424-242z" glyph-name="glyph350"/><glyph d="M-369 608h738v-74h-738v74z" glyph-name="glyph351"/></font>
</defs>
</svg>
